osu file format v14

[General]
AudioFilename: audio.mp3
AudioLeadIn: 0
PreviewTime: 114731
Countdown: 0
SampleSet: Soft
StackLeniency: 0.7
Mode: 0
LetterboxInBreaks: 0
WidescreenStoryboard: 1

[Editor]
Bookmarks: 3114,17231,31349,45466,59584,66643,73261,80761,87819,101937,116055,123114,130172,137231,144290,158408,172525,186643,193702,200761,207819,214878
DistanceSpacing: 4.6
BeatDivisor: 6
GridSize: 8
TimelineZoom: 1.9

[Metadata]
Title:Crush
TitleUnicode:Crush
Artist:Tessa Violet
ArtistUnicode:Tessa Violet
Creator:Godot
Version:Crush
Source:
Tags:tessa violet crush pop
BeatmapID:1889975
BeatmapSetID:873466

[Difficulty]
HPDrainRate:4
CircleSize:4
OverallDifficulty:7.2
ApproachRate:9
SliderMultiplier:1.79999990463257
SliderTickRate:1

[Events]
//Background and Video events
0,0,"1361795.png",0,0
//Break Periods
//Storyboard Layer 0 (Background)
//Storyboard Layer 1 (Fail)
//Storyboard Layer 2 (Pass)
//Storyboard Layer 3 (Foreground)
//Storyboard Layer 4 (Overlay)
//Storyboard Sound Samples

[TimingPoints]
3102,441.176470588235,4,2,0,30,1,0
3102,-233.644859813084,4,2,0,30,0,0
16337,-233.644859813084,4,3,0,30,0,0
17219,-85.6898029134533,4,1,1,40,0,0
18984,-111.856823266219,4,3,1,100,0,0
20087,-85.6898029134533,4,1,1,40,0,0
22513,-111.856823266219,4,2,0,30,0,0
23837,-111.856823266219,4,1,1,40,0,0
26043,-111.856823266219,4,3,1,100,0,0
27807,-133.333333333333,4,1,1,40,0,0
30896,-85.6898029134533,4,1,1,40,0,0
31337,-233.644859813084,4,2,0,30,0,0
44572,-233.644859813084,4,3,0,30,0,0
45454,-85.6898029134533,4,2,0,30,0,0
45469,-85.6898029134533,4,1,1,40,0,0
47219,-85.6898029134533,4,3,1,100,0,0
48543,-85.6898029134533,4,1,1,40,0,0
50749,-111.856823266219,4,2,0,30,0,0
51631,-111.856823266219,4,3,0,40,0,0
52513,-85.6898029134533,4,1,1,40,0,0
54278,-85.6898029134533,4,3,1,100,0,0
55822,-85.6898029134533,4,1,1,40,0,0
57835,-85.6898029134533,4,2,0,5,0,0
59572,-32.123353678124,4,3,0,90,0,1
60010,-257.06940874036,4,1,1,60,0,1
60890,-32.123353678124,4,3,0,90,0,1
61778,-257.06940874036,4,1,1,60,0,1
62660,-32.123353678124,4,3,0,75,0,1
63102,-257.06940874036,4,1,1,60,0,1
64425,-32.123353678124,4,3,0,90,0,1
65307,-32.123353678124,4,1,1,60,0,1
66190,-32.123353678124,4,3,0,75,0,1
66631,-42.8333333333325,4,3,0,70,0,1
67072,-38.9393939393941,4,3,0,75,0,1
67513,-35.3994490358128,4,3,0,80,0,1
67954,-32.1813173052848,4,3,0,85,0,1
68396,-29.2594434853849,4,3,0,90,0,1
68496,-32.1543408360129,4,1,1,60,0,1
69719,-32.1543408360129,4,3,0,75,0,1
70160,-42.8333333333325,4,3,0,70,0,1
70602,-38.9393939393941,4,3,0,75,0,1
71043,-35.3994490358128,4,3,0,80,0,1
71484,-32.1813173052848,4,3,0,85,0,1
71925,-29.2594434853849,4,3,0,90,0,1
73249,-32.1813173052848,4,3,0,75,0,1
73690,-256.410256410256,4,1,1,60,0,1
75010,-32.1543408360129,4,3,0,90,0,1
75896,-256.410256410256,4,1,1,60,0,1
76778,-32.1543408360129,4,3,0,75,0,1
77219,-256.410256410256,4,1,1,60,0,1
78543,-32.1543408360129,4,3,0,90,0,1
79425,-32.1543408360129,4,1,1,60,0,1
80307,-32.1543408360129,4,3,0,75,0,1
80749,-42.8333333333325,4,3,0,70,0,1
81190,-38.9393939393941,4,3,0,75,0,1
81631,-35.3994490358128,4,3,0,80,0,1
82072,-32.1813173052848,4,3,0,85,0,1
82513,-29.2594434853849,4,3,0,90,0,1
82954,-29.2594434853849,4,1,1,60,0,1
83837,-32.1813173052848,4,3,0,75,0,1
84278,-42.8333333333325,4,3,0,70,0,1
84719,-38.9393939393941,4,3,0,75,0,1
85160,-35.3994490358128,4,3,0,80,0,1
85601,-32.1813173052848,4,3,0,85,0,1
86042,-29.2594434853849,4,3,0,90,0,1
86484,-29.2594434853849,4,1,1,60,0,0
87807,-233.644859813084,4,2,0,30,0,0
94866,-85.6898029134533,4,2,0,30,0,0
95307,-233.644859813084,4,2,0,30,0,0
101043,-233.644859813084,4,3,0,30,0,0
101925,-85.6898029134533,4,1,1,40,0,0
103684,-85.6898029134533,4,3,1,100,0,0
105013,-85.6898029134533,4,1,1,40,0,0
107219,-111.856823266219,4,1,1,30,0,0
108102,-85.6898029134533,4,1,1,40,0,0
110749,-85.6898029134533,4,3,1,100,0,0
112293,-85.6898029134533,4,1,1,40,0,0
114306,-85.6898029134533,4,2,0,5,0,0
116043,-28.5714285714286,4,3,0,90,0,1
116484,-257.06940874036,4,1,1,60,0,1
117366,-28.5714285714286,4,3,0,90,0,1
118249,-257.06940874036,4,1,1,60,0,1
119131,-28.5714285714286,4,3,0,75,0,1
119572,-257.06940874036,4,1,1,60,0,1
120896,-28.5714285714286,4,3,0,90,0,1
121778,-28.5714285714286,4,1,1,60,0,1
122660,-28.5714285714286,4,3,0,75,0,1
123102,-42.8333333333325,4,3,0,70,0,1
123543,-38.9393939393941,4,3,0,75,0,1
123984,-35.3994490358128,4,3,0,80,0,1
124425,-32.1813173052848,4,3,0,85,0,1
124866,-29.2594434853849,4,3,0,90,0,1
125307,-29.2594434853849,4,1,1,60,0,1
126190,-29.2594434853849,4,3,0,75,0,1
126631,-42.8333333333325,4,3,0,70,0,1
127072,-38.9393939393941,4,3,0,75,0,1
127513,-35.3994490358128,4,3,0,80,0,1
127954,-32.1813173052848,4,3,0,85,0,1
128396,-29.2594434853849,4,3,0,90,0,1
129719,-29.2594434853849,4,3,0,75,0,1
130160,-257.06940874036,4,1,1,60,0,1
131484,-29.2594434853849,4,3,0,90,0,1
132366,-257.06940874036,4,1,1,60,0,1
133249,-29.2594434853849,4,3,0,75,0,1
133690,-257.06940874036,4,1,1,60,0,1
135013,-29.2594434853849,4,3,0,90,0,1
135896,-29.2594434853849,4,1,1,60,0,1
136778,-29.2594434853849,4,3,0,75,0,1
137219,-42.8333333333325,4,3,0,70,0,1
137660,-38.9393939393941,4,3,0,75,0,1
138102,-35.3994490358128,4,3,0,80,0,1
138543,-32.1813173052848,4,3,0,85,0,1
138984,-29.2594434853849,4,3,0,90,0,1
139425,-29.2594434853849,4,1,1,60,0,1
140307,-29.2594434853849,4,3,0,75,0,1
140749,-42.8333333333325,4,3,0,70,0,1
141190,-38.9393939393941,4,3,0,75,0,1
141631,-35.3994490358128,4,3,0,80,0,1
142072,-32.1813173052848,4,3,0,85,0,1
142513,-29.2594434853849,4,3,0,90,0,1
142954,-32.123353678124,4,1,1,30,0,0
144278,-333.333333333333,4,1,1,40,0,0
164572,-333.333333333333,4,3,1,100,0,0
165454,-333.333333333333,4,1,1,40,0,0
172513,-333.333333333333,4,2,0,30,0,0
174278,-333.333333333333,4,3,1,100,0,0
175602,-233.644859813084,4,2,0,30,0,0
177807,-233.644859813084,4,3,1,100,0,0
179131,-233.644859813084,4,2,0,30,0,0
181337,-233.644859813084,4,3,1,100,0,0
182660,-233.644859813084,4,2,0,30,0,0
184866,-85.6898029134533,4,2,0,30,0,0
184894,-85.6898029134533,4,2,0,5,0,0
186631,-26.3157894736842,4,3,0,100,0,1
187072,-257.06940874036,4,1,1,70,0,1
187954,-26.3157894736842,4,3,0,100,0,1
188837,-257.06940874036,4,1,1,70,0,1
189719,-28.5714285714286,4,3,0,85,0,1
190160,-257.06940874036,4,1,1,70,0,1
191481,-26.3157894736842,4,3,0,100,0,1
192366,-26.3157894736842,4,1,1,70,0,1
193249,-28.5714285714286,4,3,0,85,0,1
193690,-42.8333333333325,4,3,0,80,0,1
194131,-38.9393939393941,4,3,0,85,0,1
194572,-35.3994490358128,4,3,0,90,0,1
195013,-32.1813173052848,4,3,0,95,0,1
195454,-29.2594434853849,4,3,0,100,0,1
195896,-29.2594434853849,4,1,1,70,0,1
196778,-28.5714285714286,4,3,0,85,0,1
197219,-42.8333333333325,4,3,0,80,0,1
197660,-38.9393939393941,4,3,0,85,0,1
198102,-35.3994490358128,4,3,0,90,0,1
198543,-32.1813173052848,4,3,0,95,0,1
198984,-29.2594434853849,4,3,0,100,0,1
200307,-28.5714285714286,4,3,0,85,0,1
200749,-257.06940874036,4,1,1,70,0,1
202072,-26.3157894736842,4,3,0,100,0,1
202954,-26.3157894736842,4,1,1,70,0,1
203837,-28.5714285714286,4,3,0,85,0,1
204278,-257.06940874036,4,1,1,70,0,1
205602,-26.3157894736842,4,3,0,100,0,1
206484,-26.3157894736842,4,1,1,70,0,1
207366,-28.5714285714286,4,3,0,85,0,1
207807,-42.8333333333325,4,3,0,80,0,1
208249,-38.9393939393941,4,3,0,85,0,1
208690,-35.3994490358128,4,3,0,90,0,1
209131,-32.1813173052848,4,3,0,95,0,1
209572,-29.2594434853849,4,3,0,100,0,1
210013,-29.2594434853849,4,1,1,70,0,1
210896,-28.5714285714286,4,3,0,85,0,1
211337,-42.8333333333325,4,3,0,80,0,1
211778,-38.9393939393941,4,3,0,85,0,1
212219,-35.3994490358128,4,3,0,90,0,1
212660,-32.1813173052848,4,3,0,85,0,1
213102,-29.2594434853849,4,3,0,100,0,1
213543,-85.6898029134533,4,1,1,30,0,0

[Colours]
Combo1 : 178,67,255
Combo2 : 255,67,238
Combo3 : 238,255,67
Combo4 : 67,238,255
Combo5 : 255,67,144

[HitObjects]
512,322,3102,5,0,0:0:0:0:
510,333,3322,1,0,0:0:0:0:
508,344,3543,2,0,L|502:396,1,38.5000011749268
358,210,3984,5,0,0:0:0:0:
349,131,4204,1,0,0:0:0:0:
341,53,4426,2,0,L|336:5,1,38.5199967836
511,85,4866,5,0,0:0:0:0:
434,122,5087,1,0,0:0:0:0:
438,34,5308,2,0,L|442:-14,1,38.5000011749268
424,313,5749,5,0,0:0:0:0:
13,56,6631,5,0,0:0:0:0:
15,45,6852,1,0,0:0:0:0:
17,34,7073,2,0,L|22:-13,1,38.5000011749268
37,199,7513,5,0,0:0:0:0:
0,276,7734,1,0,0:0:0:0:
88,272,7955,2,0,L|136:268,1,38.5000011749268
260,202,8396,5,0,0:0:0:0:
182,217,8616,1,0,0:0:0:0:
122,269,8837,2,0,L|118:317,1,38.5000011749268
324,140,9278,5,0,0:0:0:0:
243,376,10160,5,0,0:0:0:0:
254,374,10381,1,0,0:0:0:0:
265,372,10602,2,0,L|312:367,1,38.5000011749268
170,151,11043,5,0,0:0:0:0:
91,158,11263,1,0,0:0:0:0:
176,230,11484,1,0,0:0:0:0:
98,237,11704,1,0,0:0:0:0:
11,313,11926,2,0,L|7:353,1,38.5199967836
94,275,12367,2,0,L|98:235,1,38.5000011749268
314,358,12807,5,0,0:0:0:0:
231,4,13690,5,0,0:0:0:0:
220,6,13910,1,0,0:0:0:0:
209,8,14131,2,0,L|159:13,1,38.5000011749268
287,261,14572,5,0,0:0:0:0:
372,189,14793,1,0,0:0:0:0:
293,183,15013,1,0,0:0:0:0:
366,269,15234,1,0,0:0:0:0:
233,113,15455,2,0,L|193:116,1,38.5000011749268
108,175,15896,2,0,L|148:178,1,38.5000011749268
35,355,16337,5,0,0:0:0:0:
470,135,16778,5,0,0:0:0:0:
495,370,16999,5,0,0:0:0:0:
412,201,17220,6,0,B|415:240|415:240|433:263|433:263|437:303,1,105.000004005432
352,133,17660,5,0,0:0:0:0:
344,126,17881,1,0,0:0:0:0:
167,73,18102,5,0,0:0:0:0:
156,74,18322,1,0,0:0:0:0:
145,75,18543,1,0,0:0:0:0:
225,130,18764,2,0,L|259:133,2,26.2500010013581
219,140,18984,37,0,0:0:0:0:
325,166,19425,5,0,0:0:0:0:
417,119,19866,37,0,0:0:0:0:
436,277,20088,6,0,L|439:242,2,26.2500010013581
238,232,20307,1,0,0:0:0:0:
512,208,20528,1,0,0:0:0:0:
271,302,20749,6,0,B|310:305|310:305|333:323|333:323|373:327,1,105.000004005432
192,297,21190,5,0,0:0:0:0:
181,296,21410,1,0,0:0:0:0:
5,221,21631,5,0,0:0:0:0:
16,220,21852,1,0,0:0:0:0:
27,219,22072,1,0,0:0:0:0:
38,218,22293,1,0,0:0:0:0:
188,199,22514,6,0,P|232:180|257:142,1,80.5000015354157
160,50,22955,6,0,P|164:97|192:133,1,80.5000015354157
388,103,23396,6,0,P|341:92|298:108,1,80.5000015354157
179,289,23837,5,0,0:0:0:0:
420,178,24057,1,0,0:0:0:0:
130,219,24278,5,0,0:0:0:0:
119,218,24499,1,0,0:0:0:0:
108,217,24719,1,0,0:0:0:0:
97,216,24940,1,0,0:0:0:0:
267,101,25160,5,0,0:0:0:0:
278,100,25381,1,0,0:0:0:0:
289,99,25602,1,0,0:0:0:0:
300,98,25822,1,0,0:0:0:0:
388,34,26043,5,0,0:0:0:0:
461,86,26484,5,0,0:0:0:0:
498,167,26925,37,0,0:0:0:0:
489,256,27366,5,0,0:0:0:0:
498,167,27807,5,0,0:0:0:0:
492,175,28028,1,0,0:0:0:0:
489,256,28249,5,0,0:0:0:0:
493,268,28469,1,0,0:0:0:0:
335,363,28690,5,0,0:0:0:0:
324,364,28910,1,0,0:0:0:0:
313,365,29131,1,0,0:0:0:0:
302,366,29352,1,0,0:0:0:0:
196,313,29572,5,0,0:0:0:0:
185,312,29793,1,0,0:0:0:0:
174,311,30013,1,0,0:0:0:0:
163,310,30234,1,0,0:0:0:0:
37,168,30454,5,0,0:0:0:0:
122,243,30675,1,0,0:0:0:0:
31,157,30896,2,0,L|-3:153,3,35.0099976696564
226,28,31337,5,0,0:0:0:0:
237,26,31557,1,0,0:0:0:0:
248,24,31779,2,0,L|295:19,1,38.5199978040314
281,160,32219,5,0,0:0:0:0:
249,233,32440,1,0,0:0:0:0:
168,226,32660,1,0,0:0:0:0:
151,148,32881,1,0,0:0:0:0:
220,106,33102,5,0,0:0:0:0:
145,145,33322,1,0,0:0:0:0:
62,132,33543,1,0,0:0:0:0:
1,73,33763,1,0,0:0:0:0:
228,107,33984,6,0,L|271:103,1,38.5199978040314
364,159,34425,2,0,L|320:155,1,38.5199978040314
284,328,34866,5,0,0:0:0:0:
282,339,35087,1,0,0:0:0:0:
280,350,35307,2,0,L|275:397,1,38.5199978040314
129,249,35749,5,0,0:0:0:0:
123,178,35969,1,0,0:0:0:0:
197,207,36190,1,0,0:0:0:0:
54,220,36410,1,0,0:0:0:0:
154,96,36631,5,0,0:0:0:0:
228,125,36852,1,0,0:0:0:0:
199,199,37072,1,0,0:0:0:0:
125,170,37293,1,0,0:0:0:0:
258,29,37513,5,0,0:0:0:0:
199,208,37734,5,0,0:0:0:0:
451,180,38396,5,0,0:0:0:0:
462,178,38616,1,0,0:0:0:0:
473,176,38837,2,0,L|520:171,1,38.5199978040314
318,51,39278,5,0,0:0:0:0:
397,58,39499,1,0,0:0:0:0:
312,130,39719,1,0,0:0:0:0:
390,137,39940,1,0,0:0:0:0:
312,40,40160,5,0,0:0:0:0:
235,23,40381,1,0,0:0:0:0:
156,26,40602,1,0,0:0:0:0:
80,49,40822,1,0,0:0:0:0:
430,55,41043,6,0,L|473:51,1,38.5199978040314
512,134,41484,2,0,L|468:130,1,38.5199978040314
193,219,41925,5,0,0:0:0:0:
195,208,42146,1,0,0:0:0:0:
197,197,42366,2,0,L|202:150,1,38.5199978040314
110,21,42807,5,0,0:0:0:0:
57,93,43028,1,0,0:0:0:0:
146,103,43249,1,0,0:0:0:0:
105,14,43469,1,0,0:0:0:0:
34,255,43690,5,0,0:0:0:0:
74,175,43910,1,0,0:0:0:0:
123,249,44131,1,0,0:0:0:0:
67,168,44352,1,0,0:0:0:0:
265,360,44572,5,0,0:0:0:0:
357,127,44793,1,0,0:0:0:0:
327,304,45013,5,0,0:0:0:0:
276,145,45234,1,0,0:0:0:0:
201,305,45454,6,0,B|204:266|204:266|222:243|222:243|226:203,1,105.000004005432
192,118,45896,5,0,0:0:0:0:
184,116,46116,1,0,0:0:0:0:
54,35,46337,5,0,0:0:0:0:
65,36,46557,1,0,0:0:0:0:
76,37,46778,1,0,0:0:0:0:
169,4,46999,6,0,L|203:1,2,26.2500010013581
163,9,47219,53,0,0:0:0:0:
267,42,47660,5,0,0:0:0:0:
371,75,48102,37,0,0:0:0:0:
430,372,48543,6,0,L|433:337,2,26.2500010013581
273,317,48763,1,0,0:0:0:0:
509,297,48984,1,0,0:0:0:0:
207,380,49204,5,0,0:0:0:0:
196,381,49425,1,0,0:0:0:0:
185,382,49646,1,0,0:0:0:0:
98,195,49866,5,0,0:0:0:0:
108,196,50087,1,0,0:0:0:0:
120,197,50307,1,0,0:0:0:0:
132,198,50528,1,0,0:0:0:0:
285,162,50749,6,0,P|329:143|354:105,1,80.5000015354157
208,144,51190,6,0,P|212:191|240:227,1,80.5000015354157
512,34,51631,5,0,0:0:0:0:
347,39,51852,1,0,0:0:0:0:
426,121,52072,5,0,0:0:0:0:
425,131,52293,1,0,0:0:0:0:
482,307,52513,6,0,B|479:268|479:268|461:245|461:245|457:205,1,105.000004005432
367,368,52954,5,0,0:0:0:0:
357,369,53175,1,0,0:0:0:0:
238,306,53396,5,0,0:0:0:0:
228,305,53616,1,0,0:0:0:0:
216,304,53837,1,0,0:0:0:0:
204,303,54057,2,0,L|170:300,2,26.2500010013581
141,375,54278,5,0,0:0:0:0:
61,348,54719,5,0,0:0:0:0:
12,279,55160,37,0,0:0:0:0:
12,194,55602,5,0,0:0:0:0:
284,232,55822,5,0,0:0:0:0:
105,195,56043,6,0,B|143:198|143:198|169:185|169:185|209:188,1,105.000004005432
348,168,56484,5,0,0:0:0:0:
349,158,56704,1,0,0:0:0:0:
439,57,56925,5,0,0:0:0:0:
438,47,57146,1,0,0:0:0:0:
437,35,57366,1,0,0:0:0:0:
436,23,57587,1,0,0:0:0:0:
407,222,57807,6,0,L|407:259,1,26.2500010013581
363,0,59572,6,0,B|355:82|355:82|379:180|379:180|370:276,1,280
506,380,60013,2,0,P|495:359|465:335,1,35
114,295,60454,5,0,0:0:0:0:
194,316,60675,1,0,0:0:0:0:
70,3,60896,6,0,B|25:137|25:137|31:288,1,280
36,278,61337,2,0,B|30:139|30:139|75:5,1,280
77,383,61778,2,0,P|66:369|58:353,1,35
346,248,62219,5,0,0:0:0:0:
266,269,62440,1,0,0:0:0:0:
117,147,62660,6,0,B|179:63|179:63|162:178,1,140
193,172,62881,2,0,B|131:256|131:256|148:141,1,140
118,27,63102,2,0,P|131:9|148:-2,1,35
348,11,63543,5,0,0:0:0:0:
268,32,63763,1,0,0:0:0:0:
432,60,63984,5,0,0:0:0:0:
512,81,64204,1,0,0:0:0:0:
506,307,64425,6,0,B|455:367|455:367|311:380|311:380|242:322,1,280
267,337,64866,2,0,B|310:373|310:373|453:360|453:360|504:300,1,280
222,102,65307,5,0,0:0:0:0:
267,174,65528,1,0,0:0:0:0:
300,0,65749,5,0,0:0:0:0:
311,255,65969,5,0,0:0:0:0:
186,174,66190,6,0,B|143:232|143:232|137:313|137:313,1,140
175,384,66410,2,0,B|218:326|218:326|224:245|224:245,1,140
125,109,66631,6,0,P|48:85|113:156,1,210.000008010865
128,107,67072,6,0,P|43:81|115:159,1,231.000002202988
134,106,67513,6,0,P|41:77|120:163,1,254.099992827072
139,104,67954,6,0,P|37:72|124:167,1,279.509995980253
144,102,68396,6,0,P|32:67|127:171,1,307.592993978309
309,91,68837,5,0,0:0:0:0:
229,70,69057,1,0,0:0:0:0:
397,161,69278,5,0,0:0:0:0:
477,140,69499,1,0,0:0:0:0:
188,246,69719,6,0,B|138:256|97:235|97:235|161:294,1,139.949988391362
191,331,69940,2,0,B|240:320|281:341|281:341|217:282,1,139.949988391362
156,171,70160,6,0,P|243:87|234:189,1,210.116732188918
151,175,70602,6,0,P|247:83|237:195,1,231.128409524627
145,179,71043,6,0,P|250:78|240:201,1,254.241243005067
137,183,71484,6,0,P|253:72|241:207,1,279.66537031929
131,187,71925,6,0,P|259:65|246:214,1,307.592993978309
382,164,73249,6,0,B|385:113|385:113|409:83|409:83|414:30,1,139.832685159645
341,1,73469,2,0,B|337:53|337:53|313:83|313:83|308:136,1,139.832685159645
459,178,73690,2,0,L|462:136,1,35.1000002484513
491,36,74131,2,0,L|487:71,1,35.1000002484513
245,237,74572,5,0,0:0:0:0:
281,159,74793,1,0,0:0:0:0:
510,324,75013,6,0,B|377:369|377:369|225:363,1,280
236,358,75454,2,0,B|375:364|375:364|509:319,1,280
150,178,75896,2,0,P|157:193|168:207,1,35
368,89,76337,5,0,0:0:0:0:
290,116,76557,1,0,0:0:0:0:
238,245,76778,6,0,L|217:480,1,139.949988391362
305,334,76999,2,0,L|317:194,1,139.949988391362
158,296,77219,2,0,L|155:331,1,35.1000002484513
317,194,77660,5,0,0:0:0:0:
290,116,77881,1,0,0:0:0:0:
171,198,78102,5,0,0:0:0:0:
238,245,78322,1,0,0:0:0:0:
41,0,78543,6,0,B|-19:51|-19:51|-32:195|-32:195|4:238,1,280
11,239,78984,2,0,B|-25:196|-25:196|-12:53|-12:53|49:0,1,280
162,281,79425,5,0,0:0:0:0:
80,282,79646,1,0,0:0:0:0:
159,91,79866,5,0,0:0:0:0:
190,357,80087,5,0,0:0:0:0:
289,177,80307,6,0,B|279:144|256:127|256:127|257:76|257:76|222:115,1,139.949988391362
212,194,80528,2,0,B|221:226|244:243|244:243|243:294|243:294|262:273,1,139.949988391362
465,157,80749,6,0,B|433:102|434:54|434:54|418:100|370:140,1,210.116732188918
469,159,81190,6,0,B|434:99|435:45|435:45|417:96|370:135,1,231.128409524627
474,160,81631,6,0,B|436:94|436:35|436:35|417:91|366:134,1,254.241243005067
480,161,82072,6,0,B|438:88|439:24|439:24|417:85|361:132,1,279.66537031929
486,162,82513,6,0,B|440:82|441:11|441:11|417:78|355:130,1,307.592993978309
495,328,82954,5,0,0:0:0:0:
508,247,83175,1,0,0:0:0:0:
265,334,83396,5,0,0:0:0:0:
338,371,83616,1,0,0:0:0:0:
346,178,83837,6,0,B|284:94|284:94|301:209,1,140
270,203,84057,2,0,B|332:287|332:287|315:172,1,140
200,41,84278,6,0,P|123:66|217:86,1,210.000008010865
201,37,84719,6,0,P|116:65|221:86,1,231.000002202988
205,33,85160,6,0,P|112:64|227:87,1,254.099992827072
208,28,85602,6,0,P|106:62|232:87,1,279.509995980253
211,24,86043,6,0,P|99:61|237:89,1,307.592993978309
98,371,87807,5,0,0:0:0:0:
87,369,88028,1,0,0:0:0:0:
76,367,88249,2,0,L|24:361,1,38.5000011749268
213,167,88690,5,0,0:0:0:0:
284,252,88910,1,0,0:0:0:0:
205,244,89131,1,0,0:0:0:0:
292,172,89352,1,0,0:0:0:0:
347,307,89572,6,0,L|349:345,1,38.5000011749268
455,194,90013,2,0,L|458:154,1,38.5000011749268
432,352,90454,6,0,P|441:369|467:396,1,38.5199978040315
410,258,91116,2,0,P|402:248|385:238,1,19.2599989020157
306,248,91337,5,0,0:0:0:0:
295,250,91557,1,0,0:0:0:0:
284,252,91778,2,0,L|232:258,1,38.5000011749268
163,244,92219,5,0,0:0:0:0:
86,219,92440,1,0,0:0:0:0:
86,139,92660,1,0,0:0:0:0:
163,114,92881,1,0,0:0:0:0:
210,179,93102,2,0,L|270:184,1,38.5199978040315
281,94,93543,2,0,L|220:99,1,38.5199978040315
10,111,93984,5,0,0:0:0:0:
168,44,94204,2,0,P|155:40|136:42,1,19.2599989020157
506,46,94866,6,0,L|510:0,2,26.2574989478285
506,57,95087,1,0,0:0:0:0:
506,68,95307,2,0,L|502:115,1,38.5199978040314
493,293,95749,5,0,0:0:0:0:
438,350,95969,1,0,0:0:0:0:
361,338,96190,1,0,0:0:0:0:
325,267,96410,1,0,0:0:0:0:
405,110,96631,5,0,0:0:0:0:
443,179,96852,1,0,0:0:0:0:
408,249,97072,1,0,0:0:0:0:
329,260,97293,1,0,0:0:0:0:
364,39,97513,6,0,L|368:-17,1,38.5199978040315
446,140,97954,2,0,L|441:196,1,38.5199978040315
248,301,98396,5,0,0:0:0:0:
237,303,98616,1,0,0:0:0:0:
226,305,98837,2,0,L|174:311,1,38.5000011749268
67,128,99278,5,0,0:0:0:0:
134,175,99499,1,0,0:0:0:0:
61,211,99719,1,0,0:0:0:0:
125,253,99940,1,0,0:0:0:0:
286,54,100160,5,0,0:0:0:0:
212,76,100381,1,0,0:0:0:0:
139,99,100602,1,0,0:0:0:0:
66,121,100822,1,0,0:0:0:0:
351,100,101043,5,0,0:0:0:0:
360,99,101263,1,0,0:0:0:0:
239,180,101484,5,0,0:0:0:0:
446,118,101704,5,0,0:0:0:0:
314,215,101925,6,0,B|353:212|353:212|376:194|376:194|416:190,1,105.000004005432
256,278,102366,5,0,0:0:0:0:
245,279,102587,1,0,0:0:0:0:
141,342,102807,5,0,0:0:0:0:
130,343,103028,1,0,0:0:0:0:
119,344,103249,1,0,0:0:0:0:
0,321,103469,2,0,L|34:324,2,26.2500010013581
7,309,103690,5,0,0:0:0:0:
21,200,104131,37,0,0:0:0:0:
35,92,104572,5,0,0:0:0:0:
230,88,105013,6,0,L|264:91,2,26.2500010013581
156,135,105234,5,0,0:0:0:0:
427,84,105454,5,0,0:0:0:0:
438,83,105675,1,0,0:0:0:0:
449,82,105896,2,0,L|483:79,2,26.2500010013581
485,80,106116,1,0,0:0:0:0:
510,242,106337,5,0,0:0:0:0:
510,253,106557,1,0,0:0:0:0:
511,264,106778,1,0,0:0:0:0:
512,275,106999,1,0,0:0:0:0:
390,364,107219,6,0,P|351:372|312:362,1,80.5000015354157
411,222,107660,6,0,P|431:256|433:296,1,80.5000015354157
374,135,108102,37,0,0:0:0:0:
354,297,108322,1,0,0:0:0:0:
290,200,108543,5,0,0:0:0:0:
289,188,108763,2,0,L|286:154,2,26.2500010013581
231,367,108984,6,0,B|234:328|234:328|252:305|252:305|255:268,1,105.000004005432
248,100,109425,5,0,0:0:0:0:
247,89,109646,1,0,0:0:0:0:
182,247,109866,5,0,0:0:0:0:
181,258,110087,1,0,0:0:0:0:
180,269,110307,1,0,0:0:0:0:
127,365,110528,6,0,L|93:368,2,26.2500010013581
120,361,110749,5,0,0:0:0:0:
33,304,111190,5,0,0:0:0:0:
2,200,111631,5,0,0:0:0:0:
51,107,112072,5,0,0:0:0:0:
325,54,112293,6,0,L|359:57,2,26.2500010013581
512,38,112513,6,0,B|473:35|473:35|450:17|450:17|410:13,1,105.000004005432
249,3,112954,5,0,0:0:0:0:
238,4,113175,1,0,0:0:0:0:
115,54,113396,5,0,0:0:0:0:
104,53,113616,1,0,0:0:0:0:
93,52,113837,1,0,0:0:0:0:
82,51,114057,1,0,0:0:0:0:
260,84,114278,6,0,L|297:84,1,26.2500010013581
201,147,116043,6,0,B|248:151|248:151|265:144|265:144|440:159|440:159|457:153|457:153|513:158|513:158,1,314.999994659424
266,0,116484,2,0,P|242:3|210:25,1,35
220,310,116925,5,0,0:0:0:0:
239,229,117146,1,0,0:0:0:0:
54,15,117366,6,0,B|-7:66|-7:66|-20:210|-20:210|38:280,1,314.999994659424
47,281,117807,2,0,B|-12:211|-12:211|1:67|1:67|62:15,1,314.999994659424
269,165,118249,2,0,P|263:181|253:196,1,35
135,12,118690,5,0,0:0:0:0:
214,0,118910,1,0,0:0:0:0:
417,91,119131,6,0,B|461:68|506:78|506:78|429:36,1,157.499997329712
379,10,119352,2,0,B|333:32|288:22|288:22|365:64,1,157.499997329712
456,153,119572,2,0,P|471:150|489:152,1,35,0|0,1:0|1:0,1:0:0:0:
248,300,120013,5,0,0:0:0:0:
327,289,120234,1,0,0:0:0:0:
184,347,120454,5,0,0:0:0:0:
105,336,120675,1,0,0:0:0:0:
7,8,120896,6,0,B|161:-17|161:-17|317:6,1,314.999994659424
312,14,121337,2,0,B|160:-9|160:-9|6:15,1,314.999994659424
230,221,121778,5,0,0:0:0:0:
188,149,121999,1,0,0:0:0:0:
169,275,122219,5,0,0:0:0:0:
217,73,122440,5,0,0:0:0:0:
351,168,122660,6,0,L|507:181,1,157.499997329712
454,101,122881,2,0,L|298:86,1,157.499997329712
149,25,123102,6,0,P|65:112|166:103,1,210.116732188918
153,20,123543,6,0,P|60:116|172:106,1,231.128409524627
156,14,123984,6,0,P|54:119|176:109,1,254.241243005067
160,6,124425,6,0,P|49:121|184:110,1,279.66537031929
164,1,124866,6,0,P|42:128|191:115,1,307.592993978309
318,82,125307,5,0,0:0:0:0:
236,88,125528,1,0,0:0:0:0:
372,357,125749,5,0,0:0:0:0:
384,277,125969,1,0,0:0:0:0:
425,104,126190,6,0,B|471:10|471:10|474:126,1,153.796496989155
499,141,126410,2,0,B|452:234|452:234|449:118,1,153.796496989155
343,73,126631,6,0,B|279:66|241:37|241:37|269:77|272:132,1,210.116732188918
346,70,127072,6,0,B|276:63|233:30|233:30|264:75|268:134,1,231.128409524627
350,67,127513,6,0,B|274:58|226:24|226:24|260:72|265:139,1,254.241243005067
354,63,127954,6,0,B|270:54|219:15|219:15|255:69|260:142,1,279.66537031929
358,59,128396,6,0,B|266:49|209:6|209:6|249:65|255:146,1,307.592993978309
12,305,129719,6,0,B|66:308|66:308|98:333|98:333|155:339,1,153.796496989155
185,269,129940,2,0,B|129:264|129:264|97:239|97:239|41:233,1,153.796496989155
0,376,130160,2,0,L|42:379,1,35.1000002484513
337,196,130602,5,0,0:0:0:0:
261,229,130822,1,0,0:0:0:0:
423,208,131043,5,0,0:0:0:0:
390,132,131263,1,0,0:0:0:0:
213,7,131484,6,0,B|319:16|319:16|420:61|420:61|511:68,1,307.592993978309
512,60,131925,2,0,B|422:54|422:54|321:9|321:9|215:0,1,307.592993978309
477,164,132366,2,0,P|490:153|500:140,1,35,0|0,1:0|1:0,1:0:0:0:
209,73,132807,5,0,0:0:0:0:
290,80,133028,1,0,0:0:0:0:
94,185,133249,6,0,B|0:230|0:230|116:234,1,153.796496989155
129,255,133469,2,0,B|222:207|222:207|106:204,1,153.796496989155
43,306,133690,2,0,P|46:327|56:344,1,35
259,275,134131,5,0,0:0:0:0:
185,311,134352,1,0,0:0:0:0:
337,236,134572,5,0,0:0:0:0:
303,160,134793,1,0,0:0:0:0:
203,12,135013,6,0,L|593:46,1,307.592993978309
512,45,135454,2,0,L|206:18,1,307.592993978309
71,93,135896,5,0,0:0:0:0:
154,83,136116,1,0,0:0:0:0:
6,35,136337,5,0,0:0:0:0:
288,99,136557,5,0,0:0:0:0:
95,167,136778,6,0,B|61:165|37:180|37:180|-10:162|-10:162|14:208,1,153.796496989155
85,246,136999,2,0,B|119:248|143:233|143:233|190:251|190:251|166:205,1,153.796496989155
144,105,137219,6,0,P|67:81|132:152,1,210.000008010865
147,103,137660,6,0,P|62:77|134:155,1,231.000002202988
153,102,138102,6,0,P|60:73|139:159,1,254.099992827072
158,100,138543,6,0,P|56:68|143:163,1,279.509995980253
163,98,138984,6,0,P|51:63|146:167,1,307.592993978309
310,40,139425,5,0,0:0:0:0:
227,50,139646,1,0,0:0:0:0:
393,173,139866,5,0,0:0:0:0:
382,90,140087,1,0,0:0:0:0:
324,225,140307,6,0,B|255:247|255:247|176:228|176:228,1,153.796496989155
101,169,140528,2,0,B|169:146|169:146|248:165|248:165,1,153.796496989155
393,263,140749,6,0,P|306:347|315:245,1,210.116732188918
398,259,141190,6,0,P|302:351|312:239,1,231.128409524627
404,255,141631,6,0,P|299:356|309:233,1,254.241243005067
412,251,142072,6,0,P|296:362|308:227,1,279.66537031929
418,247,142513,6,0,P|290:369|303:220,1,307.592993978309
11,140,144278,5,0,0:0:0:0:
11,150,144499,2,0,L|15:206,1,53.9999969215394
20,317,145160,1,0,0:0:0:0:
106,240,146043,5,0,0:0:0:0:
106,229,146263,2,0,L|110:172,1,53.9999969215394
115,73,146925,1,0,0:0:0:0:
210,0,147807,5,0,0:0:0:0:
210,11,148028,2,0,L|214:67,1,53.9999969215394
219,167,148690,1,0,0:0:0:0:
274,0,149572,5,0,0:0:0:0:
274,0,149793,1,0,0:0:0:0:
512,384,151337,5,0,0:0:0:0:
501,384,151557,2,0,L|444:379,1,53.9999969215394
339,363,152219,1,0,0:0:0:0:
235,292,153102,5,0,0:0:0:0:
246,292,153322,2,0,L|302:287,1,53.9999969215394
412,278,153984,1,0,0:0:0:0:
512,202,154866,5,0,0:0:0:0:
501,202,155087,2,0,L|445:197,1,53.9999969215394
335,188,155749,1,0,0:0:0:0:
357,75,156410,5,0,0:0:0:0:
463,15,156631,1,0,0:0:0:0:
0,0,158396,5,0,0:0:0:0:
0,11,158616,2,0,L|5:67,1,53.9999969215394
14,177,159278,1,0,0:0:0:0:
13,67,159499,2,0,L|15:99,1,26.9999984607697
54,251,159940,1,0,0:0:0:0:
166,30,160160,5,0,0:0:0:0:
171,21,160381,2,0,P|188:7|223:0,1,53.9999969215394
324,86,161043,5,0,0:0:0:0:
329,90,161484,5,0,0:0:0:0:
512,378,161925,5,0,0:0:0:0:
501,378,162146,2,0,L|445:373,1,53.9999969215394
335,364,162807,1,0,0:0:0:0:
445,365,163028,2,0,L|412:362,1,26.9999984607697
261,324,163469,2,0,L|249:324,2,6.74999961519243
354,214,163690,5,0,0:0:0:0:
349,205,163910,2,0,P|332:191|297:184,1,53.9999969215394
196,270,164572,5,0,0:0:0:0:
195,276,165013,5,0,0:0:0:0:
5,365,165454,5,0,0:0:0:0:
5,354,165675,2,0,L|10:298,1,53.9999969215394
19,188,166337,1,0,0:0:0:0:
17,296,166557,2,0,P|37:275|54:265,1,26.9999984607697
122,300,166999,1,0,0:0:0:0:
19,188,167219,5,0,0:0:0:0:
19,177,167440,2,0,L|24:121,1,53.9999969215394
28,27,168102,5,0,0:0:0:0:
31,20,168543,5,0,0:0:0:0:
325,118,168984,5,0,0:0:0:0:
318,124,169204,2,0,P|291:139|275:160,1,53.9999969215394
271,278,169866,1,0,0:0:0:0:
273,150,170087,2,0,P|256:124|243:111,1,26.9999984607697
189,88,170528,1,0,0:0:0:0:
275,282,170749,5,0,0:0:0:0:
0,0,172513,5,0,0:0:0:0:
0,10,172734,1,0,0:0:0:0:
1,21,172954,1,0,0:0:0:0:
249,384,174278,5,0,0:0:0:0:
312,328,174719,5,0,0:0:0:0:
396,320,175160,5,0,0:0:0:0:
261,208,175602,6,0,P|239:186|203:166,1,38.5199978040315
124,185,176043,5,0,0:0:0:0:
114,185,176263,1,0,0:0:0:0:
103,186,176484,1,0,0:0:0:0:
512,31,177807,5,0,0:0:0:0:
404,17,178249,5,0,0:0:0:0:
295,3,178690,5,0,0:0:0:0:
170,127,179131,6,0,P|191:149|228:169,1,38.5199978040315
306,150,179572,5,0,0:0:0:0:
316,150,179793,1,0,0:0:0:0:
326,150,180013,1,0,0:0:0:0:
0,247,181337,5,0,0:0:0:0:
42,174,181778,5,0,0:0:0:0:
34,90,182219,5,0,0:0:0:0:
83,250,182660,6,0,P|104:272|141:292,1,38.5199978040315
219,283,183102,5,0,0:0:0:0:
228,283,183322,1,0,0:0:0:0:
237,283,183543,1,0,0:0:0:0:
510,2,184866,6,0,L|510:44,1,26.2574982522423
444,8,186631,6,0,B|509:167|509:167|513:340,1,341.999981807709
247,267,187072,2,0,P|262:260|279:258,1,35
512,337,187513,5,0,0:0:0:0:
433,341,187734,1,0,0:0:0:0:
37,4,187954,6,0,B|88:9|88:9|107:1|107:1|299:18|299:18|318:11|318:11|380:17|380:17,1,341.999981807709
378,10,188396,2,0,B|382:11|321:5|321:5|302:12|302:12|110:-4|110:-4|91:3|91:3|39:-1,1,341.999981807709
464,83,188837,2,0,P|453:70|440:59,1,35
348,330,189278,5,0,0:0:0:0:
359,250,189499,1,0,0:0:0:0:
115,82,189719,6,0,B|11:73|11:73|109:135,1,157.499997329712
110,160,189940,2,0,B|214:164|214:164|115:104,1,157.499997329712
10,161,190160,2,0,P|2:180|2:200,1,35
185,293,190602,5,0,0:0:0:0:
173,213,190822,1,0,0:0:0:0:
90,304,191043,5,0,0:0:0:0:
78,384,191263,1,0,0:0:0:0:
418,384,191484,6,0,B|427:268|427:268|398:148|398:148|408:48,1,341.999981807709
399,45,191925,2,0,B|389:146|389:146|418:266|418:266|408:382,1,341.999981807709
214,288,192366,5,0,0:0:0:0:
175,218,192587,1,0,0:0:0:0:
294,277,192807,5,0,0:0:0:0:
59,294,193028,5,0,0:0:0:0:
286,194,193249,6,0,B|349:154|349:154|433:157|433:157,1,157.499997329712
512,202,193469,2,0,B|449:238|449:238|357:236,1,157.499997329712
162,207,193690,6,0,P|135:125|217:148,1,210.000008010865,0|0,2:0|2:0,2:0:0:0:
200,289,194131,6,0,P|258:362|284:271,1,231.000002202988
218,128,194572,6,0,P|114:133|178:215,1,254.099992827072
319,161,195013,6,0,P|312:54|254:168,1,279.509995980253
285,271,195454,6,0,P|402:262|276:199,1,307.592993978309
122,297,195896,5,0,0:0:0:0:
200,289,196116,1,0,0:0:0:0:
97,219,196337,5,0,0:0:0:0:
19,211,196557,1,0,0:0:0:0:
241,119,196778,6,0,B|275:155|321:161|321:161|234:174,1,157.499997329712
178,183,196999,2,0,B|143:146|97:140|97:140|184:127,1,157.499997329712
372,235,197219,6,0,P|363:327|273:305,1,210.116732188918
333,108,197660,6,0,P|425:150|371:236,1,231.128409524627
138,249,198102,6,0,P|172:355|271:304,1,254.241243005067
333,108,198543,6,0,P|216:64|181:188,1,279.665362910687
441,246,198984,6,0,P|379:81|325:220,1,307.592993978309
435,185,200307,6,0,B|438:128|438:128|464:95|464:95|470:37,1,157.499997329712
396,10,200528,2,0,B|391:67|391:67|365:100|365:100|359:159,1,157.499997329712
509,196,200749,2,0,L|512:154,1,35.1000002484513
316,36,201190,5,0,0:0:0:0:
285,107,201410,1,0,0:0:0:0:
370,247,201631,5,0,0:0:0:0:
339,176,201852,1,0,0:0:0:0:
162,7,202072,6,0,B|100:59|100:59|84:232|84:232|140:298,1,341.999981807709
148,297,202513,2,0,B|93:231|93:231|108:58|108:58|171:5,1,341.999981807709
272,204,202954,5,0,0:0:0:0:
280,125,203175,1,0,0:0:0:0:
224,283,203396,5,0,0:0:0:0:
237,361,203616,1,0,0:0:0:0:
425,161,203837,6,0,L|438:5,1,157.499997329712
358,58,204057,2,0,L|343:214,1,157.499997329712
504,103,204278,2,0,L|507:68,1,35.0100006751824
229,160,204719,5,0,0:0:0:0:
222,238,204940,1,0,0:0:0:0:
282,98,205160,5,0,0:0:0:0:
275,20,205381,1,0,0:0:0:0:
36,12,205602,6,0,L|2:402,1,341.999981807709
1,347,206043,2,0,L|31:2,1,341.999981807709
153,297,206484,5,0,0:0:0:0:
77,322,206704,1,0,0:0:0:0:
223,184,206925,5,0,0:0:0:0:
1,347,207146,5,0,0:0:0:0:
269,259,207366,6,0,B|372:270|372:270|264:313,1,157.499997329712
263,337,207587,2,0,B|159:325|159:325|267:282,1,157.499997329712
297,167,207807,6,0,B|283:103|299:58|299:58|270:97|218:117,1,210.116732188918
84,248,208249,6,0,B|31:269|-2:312|-2:312|15:261|0:192,1,231.128403401815
126,56,208690,6,0,B|186:30|221:-16|221:-16|204:39|219:115,1,254.241243005067
206,243,209131,6,0,B|148:305|136:369|136:369|127:305|82:246,1,279.66537031929
219,115,209572,6,0,B|291:85|335:28|335:28|312:96|331:187,1,307.592993978309
258,348,210013,5,0,0:0:0:0:
265,268,210234,1,0,0:0:0:0:
112,136,210454,5,0,0:0:0:0:
66,201,210675,1,0,0:0:0:0:
265,268,210896,6,0,B|263:267|347:270|347:270|411:231,1,157.499997329712
331,187,211116,2,0,B|245:185|245:185|183:221,1,157.499997329712
84,336,211337,6,0,P|-8:341|0:249,1,210.116732188918
112,136,211778,6,0,P|110:47|58:139,1,231.000002202988
146,286,212219,6,0,B|209:270|266:287|266:287|218:252|186:183,1,254.241243005067
200,88,212660,6,0,P|292:6|357:111,1,279.66537031929
378,258,213102,6,0,P|349:379|266:287,1,307.592993978309
