osu file format v14

[General]
AudioFilename: audio.mp3
AudioLeadIn: 0
PreviewTime: 163167
Countdown: 0
SampleSet: Soft
StackLeniency: 0.7
Mode: 3
LetterboxInBreaks: 0
SpecialStyle: 0
WidescreenStoryboard: 0

[Editor]
Bookmarks: 16550,49359,57562,65764,98573,114978,127474,131383,164192,164210,197001,213406,262620,308457
DistanceSpacing: 0.8
BeatDivisor: 7
GridSize: 32
TimelineZoom: 1.699999

[Metadata]
Title:Bullets Over Brainwaves
TitleUnicode:Bullets Over Brainwaves
Artist:Terminal 11
ArtistUnicode:Terminal 11
Creator:Davix150
Version:Anxious Thoughts
Source:
Tags:breakcore experimental electronic idm Instrumental Michael Castaneda Kaleidoscope Eyes Cock Rock Disco Tech
BeatmapID:4060368
BeatmapSetID:1959509

[Difficulty]
HPDrainRate:8.5
CircleSize:4
OverallDifficulty:8.7
ApproachRate:5
SliderMultiplier:1.4
SliderTickRate:1

[Events]
//Background and Video events
0,0,"Bg.jpg",0,0
//Break Periods
//Storyboard Layer 0 (Background)
//Storyboard Layer 1 (Fail)
//Storyboard Layer 2 (Pass)
//Storyboard Layer 3 (Foreground)
//Storyboard Layer 4 (Overlay)
//Storyboard Sound Samples

[TimingPoints]
146,512.645249487355,4,2,1,50,1,0
197001,-100,4,2,1,50,0,1
229811,-100,4,2,1,50,0,0
262620,525.394045534151,4,2,1,50,1,0
262620,-98.0392156862745,4,2,1,50,0,0
263145,540.540540540541,4,2,1,50,1,0
263145,-95.2380952380952,4,2,1,50,0,0
263685,545.454545454546,4,2,1,50,1,0
263685,-94.3396226415094,4,2,1,50,0,0
264230,560.747663551402,4,2,1,50,1,0
264230,-91.743119266055,4,2,1,50,0,0
264792,582.52427184466,4,2,1,50,1,0
264792,-87.719298245614,4,2,1,50,0,0
265374,588.235294117647,4,2,1,50,1,0
265374,-86.9565217391304,4,2,1,50,0,0
265961,612.244897959184,4,2,1,50,1,0
265961,-84.0336134453782,4,2,1,50,0,0
266573,638.297872340425,4,2,1,50,1,0
266573,-80.6451612903226,4,2,1,50,0,0
266892,674.157303370786,4,2,1,50,1,0
266892,-76.3358778625954,4,2,1,50,0,0
267229,617.125224993572,4,2,1,50,1,0
267229,-83.3333333333333,4,2,1,50,0,0
267846,644.634492242898,4,2,1,50,1,0
267846,-79.3650793650794,4,2,1,50,0,0

[HitObjects]
64,192,146,5,0,0:0:0:0:
320,192,146,128,0,402:0:0:0:0:
192,192,402,1,0,0:0:0:0:
64,192,658,1,0,0:0:0:0:
448,192,658,1,0,0:0:0:0:
320,192,914,128,0,1171:0:0:0:0:
192,192,914,1,0,0:0:0:0:
448,192,1171,1,0,0:0:0:0:
64,192,1427,5,0,0:0:0:0:
320,192,1470,1,0,0:0:0:0:
448,192,1513,1,0,0:0:0:0:
64,192,1555,1,0,0:0:0:0:
192,192,1598,1,0,0:0:0:0:
320,192,1641,1,0,0:0:0:0:
448,192,1683,1,0,0:0:0:0:
64,192,1726,1,0,0:0:0:0:
192,192,1769,1,0,0:0:0:0:
320,192,1812,128,0,1940:0:0:0:0:
448,192,1940,128,0,2068:0:0:0:0:
64,192,2068,128,0,2196:0:0:0:0:
448,192,2196,1,0,0:0:0:0:
320,192,2239,1,0,0:0:0:0:
64,192,2282,1,0,0:0:0:0:
192,192,2324,1,0,0:0:0:0:
320,192,2367,1,0,0:0:0:0:
448,192,2410,1,0,0:0:0:0:
64,192,2452,1,0,0:0:0:0:
64,192,2965,128,0,3221:0:0:0:0:
192,192,2965,1,0,0:0:0:0:
192,192,3221,1,0,0:0:0:0:
448,192,3221,1,0,0:0:0:0:
448,192,3478,1,0,0:0:0:0:
320,192,3478,1,0,0:0:0:0:
448,192,3734,1,0,0:0:0:0:
192,192,3734,1,0,0:0:0:0:
448,192,3862,1,0,0:0:0:0:
192,192,3990,1,0,0:0:0:0:
192,192,4119,1,0,0:0:0:0:
448,192,4247,128,0,4503:0:0:0:0:
64,192,4247,128,0,5016:0:0:0:0:
320,192,4503,1,0,0:0:0:0:
192,192,4759,1,0,0:0:0:0:
448,192,4759,1,0,0:0:0:0:
448,192,5016,128,0,5272:0:0:0:0:
320,192,5016,128,0,5528:0:0:0:0:
192,192,5272,1,0,0:0:0:0:
64,192,5528,1,0,0:0:0:0:
448,192,5528,1,0,0:0:0:0:
448,192,6041,1,0,0:0:0:0:
320,192,6084,1,0,0:0:0:0:
64,192,6126,1,0,0:0:0:0:
192,192,6169,1,0,0:0:0:0:
320,192,6212,1,0,0:0:0:0:
448,192,6255,1,0,0:0:0:0:
64,192,6297,1,0,0:0:0:0:
192,192,6468,1,0,0:0:0:0:
320,192,6511,1,0,0:0:0:0:
192,192,6810,128,0,6938:0:0:0:0:
448,192,6810,128,0,6874:0:0:0:0:
448,192,7066,1,0,0:0:0:0:
64,192,7066,1,0,0:0:0:0:
320,192,7194,128,0,7323:0:0:0:0:
192,192,7323,1,0,0:0:0:0:
448,192,7323,1,0,0:0:0:0:
320,192,7579,1,0,0:0:0:0:
448,192,7579,1,0,0:0:0:0:
192,192,7643,1,0,0:0:0:0:
64,192,7707,1,0,0:0:0:0:
320,192,7771,1,0,0:0:0:0:
64,192,7835,1,0,0:0:0:0:
192,192,7835,1,0,0:0:0:0:
448,192,7835,1,0,0:0:0:0:
320,192,7963,1,0,0:0:0:0:
192,192,8092,1,0,0:0:0:0:
192,192,8220,1,0,0:0:0:0:
64,192,8348,128,0,8604:0:0:0:0:
320,192,8348,1,0,0:0:0:0:
192,192,8604,1,0,0:0:0:0:
448,192,8732,1,0,0:0:0:0:
192,192,8860,128,0,9117:0:0:0:0:
320,192,8860,1,0,0:0:0:0:
64,192,9117,1,0,0:0:0:0:
320,192,9117,1,0,0:0:0:0:
448,192,9117,128,0,9373:0:0:0:0:
192,192,9373,1,0,0:0:0:0:
320,192,9501,1,0,0:0:0:0:
192,192,9629,128,0,9886:0:0:0:0:
64,192,9629,1,0,0:0:0:0:
448,192,9758,1,0,0:0:0:0:
320,192,9822,1,0,0:0:0:0:
64,192,9886,128,0,10142:0:0:0:0:
448,192,10142,128,0,10398:0:0:0:0:
192,192,10270,128,0,10398:0:0:0:0:
320,192,10398,1,0,0:0:0:0:
64,192,10462,1,0,0:0:0:0:
448,192,10527,1,0,0:0:0:0:
192,192,10591,1,0,0:0:0:0:
64,192,11167,1,0,0:0:0:0:
448,192,11167,1,0,0:0:0:0:
320,192,11231,1,0,0:0:0:0:
192,192,11296,1,0,0:0:0:0:
320,192,11424,1,0,0:0:0:0:
448,192,11424,1,0,0:0:0:0:
448,192,11552,1,0,0:0:0:0:
192,192,11680,1,0,0:0:0:0:
320,192,11680,1,0,0:0:0:0:
192,192,11808,1,0,0:0:0:0:
448,192,11936,1,0,0:0:0:0:
64,192,11936,1,0,0:0:0:0:
448,192,12065,1,0,0:0:0:0:
192,192,12065,1,0,0:0:0:0:
64,192,12193,1,0,0:0:0:0:
192,192,12193,1,0,0:0:0:0:
64,192,12321,1,0,0:0:0:0:
320,192,12321,1,0,0:0:0:0:
448,192,12449,128,0,12705:0:0:0:0:
320,192,12449,1,0,0:0:0:0:
64,192,12577,1,0,0:0:0:0:
192,192,12705,1,0,0:0:0:0:
448,192,12833,1,0,0:0:0:0:
192,192,12962,128,0,13218:0:0:0:0:
64,192,12962,1,0,0:0:0:0:
448,192,13218,128,0,13474:0:0:0:0:
64,192,13218,1,0,0:0:0:0:
320,192,13474,1,0,0:0:0:0:
64,192,13602,1,0,0:0:0:0:
192,192,13731,1,0,0:0:0:0:
448,192,13731,128,0,13987:0:0:0:0:
192,192,13859,1,0,0:0:0:0:
320,192,13987,1,0,0:0:0:0:
192,192,14051,1,0,0:0:0:0:
64,192,14115,1,0,0:0:0:0:
320,192,14179,1,0,0:0:0:0:
448,192,14243,1,0,0:0:0:0:
64,192,14307,1,0,0:0:0:0:
192,192,14371,1,0,0:0:0:0:
448,192,14435,1,0,0:0:0:0:
320,192,14500,128,0,14724:0:0:0:0:
64,192,14724,1,0,0:0:0:0:
192,192,15012,128,0,15236:0:0:0:0:
448,192,15236,1,0,0:0:0:0:
320,192,15525,128,0,15749:0:0:0:0:
64,192,15749,1,0,0:0:0:0:
192,192,16038,1,0,0:0:0:0:
320,192,16038,1,0,0:0:0:0:
320,192,16166,1,0,0:0:0:0:
64,192,16251,1,0,0:0:0:0:
192,192,16294,1,0,0:0:0:0:
448,192,16337,1,0,0:0:0:0:
320,192,16379,1,0,0:0:0:0:
192,192,16422,1,0,0:0:0:0:
64,192,16465,1,0,0:0:0:0:
320,192,16507,1,0,0:0:0:0:
448,192,16550,128,0,16806:0:0:0:0:
192,192,16550,1,0,0:0:0:0:
64,192,16678,1,0,0:0:0:0:
320,192,16806,1,0,0:0:0:0:
192,192,17063,128,0,17319:0:0:0:0:
448,192,17063,1,0,0:0:0:0:
64,192,17319,1,0,0:0:0:0:
320,192,17319,128,0,17447:0:0:0:0:
192,192,17447,128,0,17575:0:0:0:0:
320,192,17575,1,0,0:0:0:0:
448,192,17575,1,0,0:0:0:0:
64,192,17704,1,0,0:0:0:0:
448,192,17832,128,0,18088:0:0:0:0:
192,192,17832,1,0,0:0:0:0:
64,192,17960,128,0,18088:0:0:0:0:
320,192,18088,128,0,18344:0:0:0:0:
192,192,18088,1,0,0:0:0:0:
448,192,18216,1,0,0:0:0:0:
192,192,18344,1,0,0:0:0:0:
64,192,18344,128,0,18601:0:0:0:0:
448,192,18473,1,0,0:0:0:0:
320,192,18601,128,0,18729:0:0:0:0:
192,192,18601,1,0,0:0:0:0:
448,192,18729,128,0,18857:0:0:0:0:
320,192,18857,128,0,19113:0:0:0:0:
192,192,19113,1,0,0:0:0:0:
64,192,19113,1,0,0:0:0:0:
192,192,19242,1,0,0:0:0:0:
320,192,19306,1,0,0:0:0:0:
64,192,19370,1,0,0:0:0:0:
448,192,19434,1,0,0:0:0:0:
320,192,19498,1,0,0:0:0:0:
64,192,19562,1,0,0:0:0:0:
192,192,19626,1,0,0:0:0:0:
448,192,19626,1,0,0:0:0:0:
320,192,19690,1,0,0:0:0:0:
192,192,19754,1,0,0:0:0:0:
320,192,19818,1,0,0:0:0:0:
192,192,19882,1,0,0:0:0:0:
64,192,19882,1,0,0:0:0:0:
320,192,20011,1,0,0:0:0:0:
192,192,20139,1,0,0:0:0:0:
448,192,20139,1,0,0:0:0:0:
64,192,20267,1,0,0:0:0:0:
192,192,20395,1,0,0:0:0:0:
320,192,20395,1,0,0:0:0:0:
320,192,20523,1,0,0:0:0:0:
64,192,20651,128,0,20908:0:0:0:0:
448,192,20651,1,0,0:0:0:0:
192,192,20779,1,0,0:0:0:0:
320,192,20908,1,0,0:0:0:0:
448,192,20972,1,0,0:0:0:0:
64,192,21036,1,0,0:0:0:0:
192,192,21100,1,0,0:0:0:0:
448,192,21164,1,0,0:0:0:0:
320,192,21164,1,0,0:0:0:0:
192,192,21228,1,0,0:0:0:0:
320,192,21292,1,0,0:0:0:0:
448,192,21356,1,0,0:0:0:0:
192,192,21420,128,0,21677:0:0:0:0:
64,192,21420,1,0,0:0:0:0:
320,192,21603,1,0,0:0:0:0:
448,192,21677,1,0,0:0:0:0:
64,192,21677,1,0,0:0:0:0:
320,192,21741,1,0,0:0:0:0:
192,192,21837,1,0,0:0:0:0:
64,192,21933,128,0,22061:0:0:0:0:
192,192,21933,1,0,0:0:0:0:
448,192,22061,128,0,22189:0:0:0:0:
64,192,22189,1,0,0:0:0:0:
320,192,22189,1,0,0:0:0:0:
192,192,22253,1,0,0:0:0:0:
448,192,22317,1,0,0:0:0:0:
320,192,22381,1,0,0:0:0:0:
192,192,22446,1,0,0:0:0:0:
64,192,22446,1,0,0:0:0:0:
320,192,22574,1,0,0:0:0:0:
192,192,22638,1,0,0:0:0:0:
320,192,22702,1,0,0:0:0:0:
448,192,22702,1,0,0:0:0:0:
64,192,22830,1,0,0:0:0:0:
192,192,22958,128,0,23215:0:0:0:0:
64,192,23215,1,0,0:0:0:0:
448,192,23215,1,0,0:0:0:0:
320,192,23279,1,0,0:0:0:0:
448,192,23343,1,0,0:0:0:0:
64,192,23407,1,0,0:0:0:0:
192,192,23471,1,0,0:0:0:0:
320,192,23535,1,0,0:0:0:0:
192,192,23599,1,0,0:0:0:0:
320,192,23727,1,0,0:0:0:0:
64,192,23727,1,0,0:0:0:0:
448,192,23855,1,0,0:0:0:0:
320,192,23984,1,0,0:0:0:0:
192,192,23984,1,0,0:0:0:0:
320,192,24112,1,0,0:0:0:0:
64,192,24240,1,0,0:0:0:0:
192,192,24240,1,0,0:0:0:0:
320,192,24368,1,0,0:0:0:0:
192,192,24432,1,0,0:0:0:0:
448,192,24496,128,0,24624:0:0:0:0:
64,192,24624,1,0,0:0:0:0:
192,192,24688,1,0,0:0:0:0:
448,192,24752,128,0,25009:0:0:0:0:
320,192,24752,1,0,0:0:0:0:
64,192,24881,1,0,0:0:0:0:
64,192,25009,128,0,25265:0:0:0:0:
192,192,25137,128,0,25265:0:0:0:0:
320,192,25265,128,0,25521:0:0:0:0:
448,192,25265,128,0,25393:0:0:0:0:
64,192,25521,1,0,0:0:0:0:
192,192,25521,1,0,0:0:0:0:
192,192,25650,1,0,0:0:0:0:
64,192,25778,1,0,0:0:0:0:
320,192,25778,1,0,0:0:0:0:
448,192,25938,1,0,0:0:0:0:
320,192,26034,128,0,26162:0:0:0:0:
448,192,26034,1,0,0:0:0:0:
64,192,26162,128,0,26290:0:0:0:0:
448,192,26290,1,0,0:0:0:0:
192,192,26290,1,0,0:0:0:0:
320,192,26419,1,0,0:0:0:0:
192,192,26483,1,0,0:0:0:0:
448,192,26547,128,0,26803:0:0:0:0:
320,192,26547,1,0,0:0:0:0:
64,192,26675,128,0,26803:0:0:0:0:
192,192,26803,1,0,0:0:0:0:
320,192,26803,1,0,0:0:0:0:
192,192,26931,1,0,0:0:0:0:
320,192,26995,1,0,0:0:0:0:
448,192,27059,1,0,0:0:0:0:
192,192,27188,1,0,0:0:0:0:
64,192,27316,1,0,0:0:0:0:
448,192,27316,1,0,0:0:0:0:
320,192,27444,1,0,0:0:0:0:
192,192,27508,1,0,0:0:0:0:
320,192,27572,1,0,0:0:0:0:
448,192,27636,1,0,0:0:0:0:
192,192,27700,1,0,0:0:0:0:
64,192,27828,1,0,0:0:0:0:
448,192,27828,1,0,0:0:0:0:
192,192,27957,1,0,0:0:0:0:
320,192,28085,1,0,0:0:0:0:
448,192,28085,1,0,0:0:0:0:
192,192,28213,1,0,0:0:0:0:
64,192,28341,1,0,0:0:0:0:
448,192,28341,1,0,0:0:0:0:
448,192,28469,1,0,0:0:0:0:
64,192,28533,1,0,0:0:0:0:
192,192,28597,1,0,0:0:0:0:
192,192,28725,1,0,0:0:0:0:
320,192,28790,1,0,0:0:0:0:
448,192,28854,5,0,0:0:0:0:
64,192,28854,1,0,0:0:0:0:
320,192,28982,1,0,0:0:0:0:
64,192,29110,1,0,0:0:0:0:
192,192,29174,1,0,0:0:0:0:
448,192,29238,1,0,0:0:0:0:
320,192,29281,1,0,0:0:0:0:
192,192,29324,1,0,0:0:0:0:
448,192,29366,128,0,29623:0:0:0:0:
64,192,29366,1,0,0:0:0:0:
64,192,29623,1,0,0:0:0:0:
192,192,29623,128,0,29879:0:0:0:0:
448,192,29879,1,0,0:0:0:0:
320,192,29879,1,0,0:0:0:0:
320,192,30007,1,0,0:0:0:0:
192,192,30050,1,0,0:0:0:0:
64,192,30135,128,0,30392:0:0:0:0:
448,192,30135,1,0,0:0:0:0:
448,192,30392,1,0,0:0:0:0:
192,192,30392,1,0,0:0:0:0:
320,192,30520,1,0,0:0:0:0:
448,192,30648,1,0,0:0:0:0:
64,192,30648,1,0,0:0:0:0:
192,192,30691,1,0,0:0:0:0:
320,192,30733,1,0,0:0:0:0:
320,192,30904,1,0,0:0:0:0:
64,192,30904,1,0,0:0:0:0:
192,192,30947,1,0,0:0:0:0:
448,192,30990,1,0,0:0:0:0:
320,192,31032,1,0,0:0:0:0:
64,192,31075,1,0,0:0:0:0:
192,192,31118,1,0,0:0:0:0:
448,192,31161,1,0,0:0:0:0:
320,192,31203,1,0,0:0:0:0:
192,192,31246,1,0,0:0:0:0:
64,192,31289,1,0,0:0:0:0:
448,192,31321,1,0,0:0:0:0:
320,192,31353,1,0,0:0:0:0:
192,192,31385,1,0,0:0:0:0:
64,192,31417,1,0,0:0:0:0:
448,192,31417,1,0,0:0:0:0:
320,192,31545,1,0,0:0:0:0:
64,192,31673,128,0,31801:0:0:0:0:
320,192,31801,128,0,31930:0:0:0:0:
192,192,31930,1,0,0:0:0:0:
448,192,31930,128,0,32058:0:0:0:0:
64,192,31930,1,0,0:0:0:0:
192,192,32058,128,0,32186:0:0:0:0:
320,192,32186,128,0,32314:0:0:0:0:
192,192,32314,128,0,32442:0:0:0:0:
64,192,32442,1,0,0:0:0:0:
320,192,32442,1,0,0:0:0:0:
448,192,32442,1,0,0:0:0:0:
448,192,32570,1,0,0:0:0:0:
320,192,32613,1,0,0:0:0:0:
64,192,32656,1,0,0:0:0:0:
192,192,32698,1,0,0:0:0:0:
448,192,32698,1,0,0:0:0:0:
320,192,32827,1,0,0:0:0:0:
192,192,32891,1,0,0:0:0:0:
448,192,32955,128,0,33467:0:0:0:0:
64,192,32955,1,0,0:0:0:0:
320,192,33083,1,0,0:0:0:0:
64,192,33211,1,0,0:0:0:0:
320,192,33467,1,0,0:0:0:0:
192,192,33467,1,0,0:0:0:0:
192,192,33596,1,0,0:0:0:0:
320,192,33724,1,0,0:0:0:0:
448,192,33724,128,0,33852:0:0:0:0:
320,192,33852,128,0,33916:0:0:0:0:
64,192,33852,128,0,33916:0:0:0:0:
192,192,33980,128,0,34108:0:0:0:0:
448,192,33980,1,0,0:0:0:0:
320,192,34108,128,0,34172:0:0:0:0:
448,192,34236,128,0,34365:0:0:0:0:
64,192,34236,1,0,0:0:0:0:
320,192,34365,1,0,0:0:0:0:
192,192,34429,1,0,0:0:0:0:
64,192,34493,128,0,34621:0:0:0:0:
320,192,34621,128,0,34749:0:0:0:0:
64,192,34749,1,0,0:0:0:0:
448,192,34749,1,0,0:0:0:0:
192,192,34813,1,0,0:0:0:0:
448,192,34877,1,0,0:0:0:0:
320,192,34941,1,0,0:0:0:0:
64,192,35005,1,0,0:0:0:0:
192,192,35005,1,0,0:0:0:0:
320,192,35134,1,0,0:0:0:0:
64,192,35219,1,0,0:0:0:0:
192,192,35262,128,0,35518:0:0:0:0:
448,192,35262,1,0,0:0:0:0:
64,192,35518,1,0,0:0:0:0:
448,192,35518,1,0,0:0:0:0:
320,192,35646,1,0,0:0:0:0:
192,192,35710,1,0,0:0:0:0:
320,192,35774,1,0,0:0:0:0:
192,192,35838,1,0,0:0:0:0:
64,192,35903,128,0,35967:0:0:0:0:
64,192,36031,128,0,36287:0:0:0:0:
320,192,36031,1,0,0:0:0:0:
448,192,36159,1,0,0:0:0:0:
320,192,36223,1,0,0:0:0:0:
448,192,36287,1,0,0:0:0:0:
192,192,36287,1,0,0:0:0:0:
320,192,36415,1,0,0:0:0:0:
192,192,36479,1,0,0:0:0:0:
320,192,36543,1,0,0:0:0:0:
64,192,36543,1,0,0:0:0:0:
448,192,36543,1,0,0:0:0:0:
192,192,36671,1,0,0:0:0:0:
448,192,36736,1,0,0:0:0:0:
320,192,36800,1,0,0:0:0:0:
320,192,36928,1,0,0:0:0:0:
64,192,36992,1,0,0:0:0:0:
448,192,37056,1,0,0:0:0:0:
192,192,37056,128,0,37312:0:0:0:0:
64,192,37184,128,0,37312:0:0:0:0:
320,192,37312,128,0,37569:0:0:0:0:
448,192,37440,128,0,37569:0:0:0:0:
64,192,37569,128,0,37825:0:0:0:0:
192,192,37569,1,0,0:0:0:0:
320,192,37825,1,0,0:0:0:0:
448,192,37825,128,0,38081:0:0:0:0:
192,192,37953,128,0,38081:0:0:0:0:
320,192,38081,128,0,38209:0:0:0:0:
64,192,38081,1,0,0:0:0:0:
192,192,38209,128,0,38338:0:0:0:0:
320,192,38338,128,0,38402:0:0:0:0:
448,192,38338,128,0,38594:0:0:0:0:
320,192,38594,1,0,0:0:0:0:
64,192,38594,1,0,0:0:0:0:
192,192,38722,128,0,38786:0:0:0:0:
64,192,38850,128,0,38978:0:0:0:0:
448,192,38850,1,0,0:0:0:0:
320,192,38978,128,0,39107:0:0:0:0:
192,192,39107,1,0,0:0:0:0:
448,192,39107,1,0,0:0:0:0:
192,192,39235,1,0,0:0:0:0:
448,192,39363,1,0,0:0:0:0:
320,192,39406,1,0,0:0:0:0:
64,192,39448,1,0,0:0:0:0:
192,192,39491,1,0,0:0:0:0:
448,192,39534,1,0,0:0:0:0:
320,192,39576,1,0,0:0:0:0:
64,192,39619,1,0,0:0:0:0:
192,192,39619,1,0,0:0:0:0:
192,192,39747,1,0,0:0:0:0:
320,192,39811,1,0,0:0:0:0:
64,192,39876,1,0,0:0:0:0:
448,192,39940,1,0,0:0:0:0:
192,192,40004,128,0,40132:0:0:0:0:
448,192,40132,1,0,0:0:0:0:
64,192,40132,1,0,0:0:0:0:
320,192,40260,1,0,0:0:0:0:
64,192,40388,1,0,0:0:0:0:
448,192,40388,1,0,0:0:0:0:
192,192,40516,1,0,0:0:0:0:
320,192,40644,1,0,0:0:0:0:
448,192,40644,1,0,0:0:0:0:
192,192,40709,1,0,0:0:0:0:
64,192,40773,1,0,0:0:0:0:
320,192,40837,1,0,0:0:0:0:
448,192,40901,1,0,0:0:0:0:
448,192,41029,1,0,0:0:0:0:
320,192,41093,1,0,0:0:0:0:
192,192,41157,128,0,41413:0:0:0:0:
64,192,41157,1,0,0:0:0:0:
448,192,41285,1,0,0:0:0:0:
64,192,41413,128,0,41670:0:0:0:0:
320,192,41670,128,0,41926:0:0:0:0:
192,192,41670,1,0,0:0:0:0:
64,192,41926,1,0,0:0:0:0:
448,192,41926,128,0,42182:0:0:0:0:
192,192,42054,128,0,42182:0:0:0:0:
64,192,42182,128,0,42311:0:0:0:0:
320,192,42182,1,0,0:0:0:0:
448,192,42311,1,0,0:0:0:0:
192,192,42439,128,0,42567:0:0:0:0:
320,192,42439,128,0,42695:0:0:0:0:
448,192,42695,128,0,42823:0:0:0:0:
64,192,42695,1,0,0:0:0:0:
320,192,42823,1,0,0:0:0:0:
64,192,42951,128,0,43015:0:0:0:0:
320,192,42951,128,0,43208:0:0:0:0:
448,192,43080,128,0,43208:0:0:0:0:
64,192,43208,128,0,43336:0:0:0:0:
192,192,43208,128,0,43464:0:0:0:0:
64,192,43464,128,0,43592:0:0:0:0:
448,192,43464,128,0,43720:0:0:0:0:
64,192,43720,128,0,43977:0:0:0:0:
192,192,43720,128,0,43849:0:0:0:0:
448,192,43849,128,0,43977:0:0:0:0:
192,192,43977,128,0,44105:0:0:0:0:
320,192,44105,1,0,0:0:0:0:
64,192,44233,128,0,44361:0:0:0:0:
448,192,44233,128,0,44297:0:0:0:0:
320,192,44361,128,0,44489:0:0:0:0:
64,192,44489,1,0,0:0:0:0:
192,192,44489,128,0,44617:0:0:0:0:
448,192,44617,128,0,44746:0:0:0:0:
64,192,44746,1,0,0:0:0:0:
320,192,44746,1,0,0:0:0:0:
320,192,44874,1,0,0:0:0:0:
192,192,44938,1,0,0:0:0:0:
448,192,45002,1,0,0:0:0:0:
64,192,45002,1,0,0:0:0:0:
320,192,45066,1,0,0:0:0:0:
448,192,45130,1,0,0:0:0:0:
64,192,45130,1,0,0:0:0:0:
192,192,45194,1,0,0:0:0:0:
320,192,45258,1,0,0:0:0:0:
448,192,45258,1,0,0:0:0:0:
192,192,45386,1,0,0:0:0:0:
64,192,45451,1,0,0:0:0:0:
448,192,45515,1,0,0:0:0:0:
320,192,45579,1,0,0:0:0:0:
64,192,45643,1,0,0:0:0:0:
448,192,45771,128,0,46027:0:0:0:0:
192,192,45771,1,0,0:0:0:0:
192,192,46027,128,0,46284:0:0:0:0:
320,192,46027,1,0,0:0:0:0:
320,192,46284,1,0,0:0:0:0:
448,192,46284,1,0,0:0:0:0:
192,192,46444,1,0,0:0:0:0:
448,192,46540,128,0,46796:0:0:0:0:
192,192,46540,1,0,0:0:0:0:
320,192,46796,1,0,0:0:0:0:
64,192,46796,1,0,0:0:0:0:
192,192,46924,1,0,0:0:0:0:
448,192,47053,1,0,0:0:0:0:
320,192,47053,1,0,0:0:0:0:
64,192,47181,1,0,0:0:0:0:
448,192,47309,1,0,0:0:0:0:
192,192,47309,1,0,0:0:0:0:
320,192,47437,1,0,0:0:0:0:
64,192,47501,1,0,0:0:0:0:
192,192,47565,128,0,47693:0:0:0:0:
448,192,47693,128,0,47822:0:0:0:0:
64,192,47822,1,0,0:0:0:0:
192,192,47822,1,0,0:0:0:0:
320,192,47950,1,0,0:0:0:0:
192,192,48035,1,0,0:0:0:0:
448,192,48078,1,0,0:0:0:0:
64,192,48334,1,0,0:0:0:0:
320,192,48334,1,0,0:0:0:0:
192,192,48462,1,0,0:0:0:0:
448,192,48526,1,0,0:0:0:0:
320,192,48590,1,0,0:0:0:0:
64,192,48655,1,0,0:0:0:0:
192,192,48719,1,0,0:0:0:0:
64,192,48783,1,0,0:0:0:0:
448,192,48847,128,0,48975:0:0:0:0:
320,192,48847,1,0,0:0:0:0:
192,192,48975,128,0,49103:0:0:0:0:
320,192,49103,128,0,49231:0:0:0:0:
64,192,49231,1,0,0:0:0:0:
192,192,49274,1,0,0:0:0:0:
448,192,49317,1,0,0:0:0:0:
64,192,49359,1,0,0:0:0:0:
320,192,49359,1,0,0:0:0:0:
192,192,49488,1,0,0:0:0:0:
320,192,49616,128,0,49872:0:0:0:0:
64,192,49744,128,0,49872:0:0:0:0:
192,192,49872,1,0,0:0:0:0:
448,192,49872,128,0,50000:0:0:0:0:
320,192,50000,128,0,50128:0:0:0:0:
64,192,50128,128,0,50385:0:0:0:0:
192,192,50257,128,0,50385:0:0:0:0:
320,192,50385,128,0,50641:0:0:0:0:
448,192,50385,1,0,0:0:0:0:
64,192,50513,128,0,50641:0:0:0:0:
192,192,50641,1,0,0:0:0:0:
448,192,50641,128,0,50769:0:0:0:0:
320,192,50769,128,0,50897:0:0:0:0:
64,192,50897,128,0,51154:0:0:0:0:
192,192,50897,1,0,0:0:0:0:
192,192,51154,1,0,0:0:0:0:
448,192,51154,1,0,0:0:0:0:
320,192,51282,1,0,0:0:0:0:
192,192,51410,1,0,0:0:0:0:
64,192,51410,1,0,0:0:0:0:
448,192,51538,1,0,0:0:0:0:
320,192,51666,128,0,51923:0:0:0:0:
192,192,51923,1,0,0:0:0:0:
64,192,51923,128,0,52051:0:0:0:0:
448,192,52051,128,0,52179:0:0:0:0:
64,192,52179,128,0,52307:0:0:0:0:
320,192,52307,1,0,0:0:0:0:
192,192,52435,1,0,0:0:0:0:
448,192,52435,128,0,52563:0:0:0:0:
320,192,52563,1,0,0:0:0:0:
64,192,52692,1,0,0:0:0:0:
448,192,52692,128,0,52820:0:0:0:0:
192,192,52820,1,0,0:0:0:0:
320,192,52948,1,0,0:0:0:0:
64,192,52948,1,0,0:0:0:0:
192,192,53012,1,0,0:0:0:0:
448,192,53076,1,0,0:0:0:0:
320,192,53140,1,0,0:0:0:0:
192,192,53204,1,0,0:0:0:0:
64,192,53268,1,0,0:0:0:0:
320,192,53332,1,0,0:0:0:0:
448,192,53397,1,0,0:0:0:0:
64,192,53461,128,0,53717:0:0:0:0:
192,192,53461,1,0,0:0:0:0:
320,192,53589,1,0,0:0:0:0:
192,192,53717,128,0,53973:0:0:0:0:
448,192,53973,1,0,0:0:0:0:
64,192,53973,1,0,0:0:0:0:
448,192,54230,128,0,54614:0:0:0:0:
320,192,54358,1,0,0:0:0:0:
192,192,54486,1,0,0:0:0:0:
64,192,54486,1,0,0:0:0:0:
320,192,54614,128,0,54742:0:0:0:0:
192,192,54742,128,0,54999:0:0:0:0:
64,192,54742,1,0,0:0:0:0:
320,192,54870,1,0,0:0:0:0:
448,192,54999,128,0,55127:0:0:0:0:
64,192,54999,1,0,0:0:0:0:
320,192,55127,128,0,55255:0:0:0:0:
64,192,55255,128,0,55383:0:0:0:0:
448,192,55255,1,0,0:0:0:0:
192,192,55383,128,0,55511:0:0:0:0:
448,192,55511,128,0,55639:0:0:0:0:
320,192,55511,128,0,55768:0:0:0:0:
64,192,55639,128,0,55768:0:0:0:0:
192,192,55768,128,0,56024:0:0:0:0:
320,192,55896,128,0,56024:0:0:0:0:
448,192,55896,128,0,56152:0:0:0:0:
64,192,56024,128,0,56152:0:0:0:0:
192,192,56152,128,0,56216:0:0:0:0:
448,192,56280,128,0,56536:0:0:0:0:
64,192,56280,128,0,56408:0:0:0:0:
320,192,56408,128,0,56536:0:0:0:0:
192,192,56536,128,0,56665:0:0:0:0:
64,192,56665,1,0,0:0:0:0:
192,192,56793,128,0,56921:0:0:0:0:
320,192,56921,1,0,0:0:0:0:
64,192,57049,128,0,57177:0:0:0:0:
448,192,57177,128,0,57305:0:0:0:0:
64,192,57305,128,0,57434:0:0:0:0:
448,192,57434,128,0,57562:0:0:0:0:
192,192,57562,128,0,57818:0:0:0:0:
320,192,57562,1,0,0:0:0:0:
64,192,57690,1,0,0:0:0:0:
448,192,57818,128,0,58074:0:0:0:0:
64,192,58074,128,0,58203:0:0:0:0:
192,192,58074,1,0,0:0:0:0:
320,192,58203,128,0,58331:0:0:0:0:
64,192,58331,128,0,58715:0:0:0:0:
448,192,58459,1,0,0:0:0:0:
320,192,58587,1,0,0:0:0:0:
192,192,58587,1,0,0:0:0:0:
448,192,58715,128,0,58843:0:0:0:0:
320,192,58843,128,0,58972:0:0:0:0:
64,192,58843,1,0,0:0:0:0:
192,192,58972,128,0,59100:0:0:0:0:
448,192,59100,128,0,59228:0:0:0:0:
320,192,59100,1,0,0:0:0:0:
64,192,59228,128,0,59356:0:0:0:0:
448,192,59356,128,0,59484:0:0:0:0:
320,192,59356,1,0,0:0:0:0:
192,192,59484,1,0,0:0:0:0:
320,192,59548,1,0,0:0:0:0:
64,192,59612,128,0,59869:0:0:0:0:
192,192,59612,1,0,0:0:0:0:
448,192,59741,1,0,0:0:0:0:
320,192,59869,128,0,60125:0:0:0:0:
448,192,60125,128,0,60253:0:0:0:0:
64,192,60125,1,0,0:0:0:0:
192,192,60253,128,0,60381:0:0:0:0:
448,192,60381,128,0,60766:0:0:0:0:
320,192,60552,1,0,0:0:0:0:
64,192,60638,5,0,0:0:0:0:
192,192,60638,1,0,0:0:0:0:
320,192,60766,128,0,60894:0:0:0:0:
64,192,60894,128,0,61022:0:0:0:0:
448,192,60894,1,0,0:0:0:0:
192,192,61022,128,0,61150:0:0:0:0:
320,192,61150,1,0,0:0:0:0:
448,192,61150,1,0,0:0:0:0:
64,192,61278,1,0,0:0:0:0:
192,192,61343,1,0,0:0:0:0:
320,192,61407,128,0,61535:0:0:0:0:
448,192,61407,1,0,0:0:0:0:
192,192,61535,1,0,0:0:0:0:
448,192,61663,1,0,0:0:0:0:
64,192,61663,128,0,61791:0:0:0:0:
320,192,61791,1,0,0:0:0:0:
64,192,61919,128,0,62047:0:0:0:0:
320,192,62176,1,0,0:0:0:0:
64,192,62176,128,0,62304:0:0:0:0:
64,192,62432,128,0,62560:0:0:0:0:
192,192,62560,1,0,0:0:0:0:
320,192,62688,128,0,62816:0:0:0:0:
448,192,62688,1,0,0:0:0:0:
64,192,62816,1,0,0:0:0:0:
448,192,62945,128,0,63201:0:0:0:0:
320,192,62945,128,0,63073:0:0:0:0:
320,192,63201,128,0,63329:0:0:0:0:
64,192,63201,1,0,0:0:0:0:
192,192,63329,1,0,0:0:0:0:
448,192,63457,1,0,0:0:0:0:
320,192,63457,128,0,63585:0:0:0:0:
64,192,63714,1,0,0:0:0:0:
192,192,63778,1,0,0:0:0:0:
448,192,63842,1,0,0:0:0:0:
320,192,63906,1,0,0:0:0:0:
192,192,63970,5,0,0:0:0:0:
64,192,63970,128,0,64226:0:0:0:0:
448,192,64226,1,0,0:0:0:0:
192,192,64226,128,0,64482:0:0:0:0:
64,192,64354,1,0,0:0:0:0:
448,192,64482,1,0,0:0:0:0:
320,192,64482,128,0,64739:0:0:0:0:
192,192,64739,1,0,0:0:0:0:
64,192,64739,128,0,64995:0:0:0:0:
448,192,64867,1,0,0:0:0:0:
320,192,64995,1,0,0:0:0:0:
192,192,64995,128,0,65251:0:0:0:0:
64,192,65251,1,0,0:0:0:0:
448,192,65251,128,0,65508:0:0:0:0:
192,192,65508,1,0,0:0:0:0:
320,192,65508,128,0,65764:0:0:0:0:
64,192,65764,128,0,66789:0:0:0:0:
192,192,65764,1,0,0:0:0:0:
448,192,65892,1,0,0:0:0:0:
320,192,66020,1,0,0:0:0:0:
448,192,66533,1,0,0:0:0:0:
320,192,66661,1,0,0:0:0:0:
192,192,66789,1,0,0:0:0:0:
448,192,66918,1,0,0:0:0:0:
320,192,67046,128,0,67302:0:0:0:0:
448,192,67302,1,0,0:0:0:0:
64,192,67302,1,0,0:0:0:0:
192,192,67430,1,0,0:0:0:0:
64,192,67558,1,0,0:0:0:0:
448,192,67558,1,0,0:0:0:0:
320,192,67719,1,0,0:0:0:0:
192,192,67815,1,0,0:0:0:0:
64,192,67815,1,0,0:0:0:0:
320,192,67943,1,0,0:0:0:0:
448,192,68071,1,0,0:0:0:0:
192,192,68327,1,0,0:0:0:0:
448,192,68327,1,0,0:0:0:0:
192,192,68584,1,0,0:0:0:0:
320,192,68712,1,0,0:0:0:0:
192,192,68840,1,0,0:0:0:0:
448,192,68840,1,0,0:0:0:0:
64,192,68968,1,0,0:0:0:0:
192,192,69096,1,0,0:0:0:0:
448,192,69096,1,0,0:0:0:0:
320,192,69224,1,0,0:0:0:0:
64,192,69353,1,0,0:0:0:0:
448,192,69353,1,0,0:0:0:0:
192,192,69609,1,0,0:0:0:0:
448,192,69673,1,0,0:0:0:0:
64,192,69737,1,0,0:0:0:0:
320,192,69801,1,0,0:0:0:0:
448,192,69865,1,0,0:0:0:0:
192,192,69865,1,0,0:0:0:0:
320,192,69993,1,0,0:0:0:0:
64,192,70122,1,0,0:0:0:0:
192,192,70378,1,0,0:0:0:0:
320,192,70378,1,0,0:0:0:0:
448,192,70634,1,0,0:0:0:0:
320,192,70794,1,0,0:0:0:0:
64,192,70891,5,0,0:0:0:0:
448,192,70891,1,0,0:0:0:0:
64,192,71019,1,0,0:0:0:0:
64,192,71147,1,0,0:0:0:0:
64,192,71275,1,0,0:0:0:0:
320,192,71403,1,0,0:0:0:0:
64,192,71403,1,0,0:0:0:0:
448,192,71531,1,0,0:0:0:0:
64,192,71660,1,0,0:0:0:0:
192,192,71788,1,0,0:0:0:0:
448,192,71788,1,0,0:0:0:0:
192,192,71916,1,0,0:0:0:0:
64,192,71916,1,0,0:0:0:0:
64,192,72044,1,0,0:0:0:0:
448,192,72044,1,0,0:0:0:0:
320,192,72108,1,0,0:0:0:0:
192,192,72172,1,0,0:0:0:0:
320,192,72236,1,0,0:0:0:0:
64,192,72300,1,0,0:0:0:0:
448,192,72300,1,0,0:0:0:0:
448,192,72428,1,0,0:0:0:0:
320,192,72428,1,0,0:0:0:0:
192,192,72557,1,0,0:0:0:0:
320,192,72621,1,0,0:0:0:0:
192,192,72685,1,0,0:0:0:0:
320,192,72749,1,0,0:0:0:0:
448,192,72813,1,0,0:0:0:0:
64,192,72813,1,0,0:0:0:0:
64,192,72941,1,0,0:0:0:0:
320,192,72941,1,0,0:0:0:0:
448,192,73069,1,0,0:0:0:0:
192,192,73197,1,0,0:0:0:0:
320,192,73197,1,0,0:0:0:0:
64,192,73326,1,0,0:0:0:0:
320,192,73454,128,0,73582:0:0:0:0:
64,192,73582,128,0,73710:0:0:0:0:
320,192,73710,128,0,73838:0:0:0:0:
64,192,73838,128,0,73966:0:0:0:0:
192,192,73966,1,0,0:0:0:0:
448,192,73966,1,0,0:0:0:0:
320,192,74095,1,0,0:0:0:0:
64,192,74223,1,0,0:0:0:0:
320,192,74479,1,0,0:0:0:0:
192,192,74479,1,0,0:0:0:0:
192,192,74735,1,0,0:0:0:0:
64,192,74896,1,0,0:0:0:0:
320,192,74992,1,0,0:0:0:0:
192,192,74992,1,0,0:0:0:0:
320,192,75120,1,0,0:0:0:0:
320,192,75248,1,0,0:0:0:0:
448,192,75312,1,0,0:0:0:0:
64,192,75376,1,0,0:0:0:0:
192,192,75440,1,0,0:0:0:0:
448,192,75504,5,0,0:0:0:0:
320,192,75504,1,0,0:0:0:0:
192,192,75633,1,0,0:0:0:0:
64,192,75761,1,0,0:0:0:0:
192,192,75825,1,0,0:0:0:0:
448,192,75889,1,0,0:0:0:0:
320,192,75953,1,0,0:0:0:0:
192,192,76017,5,0,0:0:0:0:
64,192,76017,1,0,0:0:0:0:
320,192,76145,1,0,0:0:0:0:
192,192,76273,1,0,0:0:0:0:
448,192,76401,1,0,0:0:0:0:
320,192,76444,1,0,0:0:0:0:
64,192,76487,1,0,0:0:0:0:
448,192,76530,1,0,0:0:0:0:
192,192,76530,1,0,0:0:0:0:
320,192,76786,1,0,0:0:0:0:
192,192,76850,1,0,0:0:0:0:
64,192,76914,1,0,0:0:0:0:
448,192,76978,1,0,0:0:0:0:
192,192,77042,1,0,0:0:0:0:
320,192,77170,1,0,0:0:0:0:
448,192,77555,5,0,0:0:0:0:
64,192,77555,1,0,0:0:0:0:
192,192,77982,5,0,0:0:0:0:
448,192,78068,1,0,0:0:0:0:
192,192,78068,1,0,0:0:0:0:
320,192,78153,1,0,0:0:0:0:
64,192,78238,1,0,0:0:0:0:
192,192,78324,1,0,0:0:0:0:
320,192,78409,1,0,0:0:0:0:
448,192,78495,1,0,0:0:0:0:
192,192,78580,1,0,0:0:0:0:
64,192,78580,1,0,0:0:0:0:
320,192,78666,1,0,0:0:0:0:
448,192,78751,1,0,0:0:0:0:
192,192,78837,1,0,0:0:0:0:
64,192,78922,1,0,0:0:0:0:
320,192,79007,1,0,0:0:0:0:
192,192,79093,1,0,0:0:0:0:
448,192,79093,1,0,0:0:0:0:
64,192,79178,1,0,0:0:0:0:
448,192,79264,1,0,0:0:0:0:
320,192,79349,1,0,0:0:0:0:
64,192,79435,1,0,0:0:0:0:
192,192,79520,1,0,0:0:0:0:
320,192,79606,1,0,0:0:0:0:
448,192,79606,1,0,0:0:0:0:
192,192,79691,1,0,0:0:0:0:
64,192,79776,1,0,0:0:0:0:
192,192,79862,1,0,0:0:0:0:
448,192,79862,1,0,0:0:0:0:
320,192,79947,1,0,0:0:0:0:
192,192,80033,1,0,0:0:0:0:
320,192,80118,1,0,0:0:0:0:
64,192,80118,1,0,0:0:0:0:
448,192,80246,1,0,0:0:0:0:
320,192,80374,1,0,0:0:0:0:
192,192,80631,1,0,0:0:0:0:
448,192,80631,1,0,0:0:0:0:
64,192,80759,1,0,0:0:0:0:
192,192,80887,1,0,0:0:0:0:
320,192,81143,1,0,0:0:0:0:
448,192,81143,1,0,0:0:0:0:
192,192,81272,1,0,0:0:0:0:
320,192,81400,1,0,0:0:0:0:
64,192,81656,1,0,0:0:0:0:
448,192,81656,1,0,0:0:0:0:
320,192,81912,128,0,82169:0:0:0:0:
64,192,82041,128,0,82169:0:0:0:0:
448,192,82169,1,0,0:0:0:0:
192,192,82169,128,0,83707:0:0:0:0:
320,192,82297,1,0,0:0:0:0:
448,192,82425,1,0,0:0:0:0:
64,192,82938,5,0,0:0:0:0:
448,192,83066,1,0,0:0:0:0:
320,192,83194,1,0,0:0:0:0:
64,192,83322,1,0,0:0:0:0:
448,192,83450,128,0,83707:0:0:0:0:
64,192,83707,5,0,0:0:0:0:
320,192,83707,1,0,0:0:0:0:
64,192,83835,1,0,0:0:0:0:
448,192,83963,1,0,0:0:0:0:
192,192,83963,1,0,0:0:0:0:
320,192,84091,1,0,0:0:0:0:
64,192,84219,5,0,0:0:0:0:
192,192,84219,1,0,0:0:0:0:
448,192,84347,1,0,0:0:0:0:
64,192,84476,5,0,0:0:0:0:
192,192,84732,5,0,0:0:0:0:
320,192,84732,1,0,0:0:0:0:
320,192,84860,1,0,0:0:0:0:
64,192,84924,1,0,0:0:0:0:
192,192,85052,1,0,0:0:0:0:
448,192,85116,1,0,0:0:0:0:
320,192,85373,1,0,0:0:0:0:
192,192,85437,1,0,0:0:0:0:
64,192,85501,1,0,0:0:0:0:
448,192,85501,1,0,0:0:0:0:
320,192,85629,1,0,0:0:0:0:
448,192,85757,1,0,0:0:0:0:
192,192,85757,1,0,0:0:0:0:
320,192,86014,1,0,0:0:0:0:
192,192,86142,1,0,0:0:0:0:
320,192,86206,1,0,0:0:0:0:
448,192,86270,1,0,0:0:0:0:
64,192,86270,1,0,0:0:0:0:
320,192,86398,1,0,0:0:0:0:
192,192,86526,1,0,0:0:0:0:
320,192,86783,5,0,0:0:0:0:
64,192,86783,1,0,0:0:0:0:
192,192,87039,1,0,0:0:0:0:
320,192,87199,1,0,0:0:0:0:
64,192,87295,5,0,0:0:0:0:
192,192,87295,1,0,0:0:0:0:
192,192,87423,1,0,0:0:0:0:
192,192,87552,1,0,0:0:0:0:
192,192,87680,1,0,0:0:0:0:
64,192,87808,1,0,0:0:0:0:
320,192,87808,1,0,0:0:0:0:
192,192,87936,1,0,0:0:0:0:
64,192,88064,1,0,0:0:0:0:
448,192,88192,1,0,0:0:0:0:
192,192,88192,1,0,0:0:0:0:
320,192,88320,128,0,88449:0:0:0:0:
64,192,88320,128,0,88577:0:0:0:0:
448,192,88449,128,0,88577:0:0:0:0:
192,192,88577,128,0,88833:0:0:0:0:
448,192,88705,128,0,88833:0:0:0:0:
320,192,88705,128,0,88961:0:0:0:0:
64,192,88833,128,0,88961:0:0:0:0:
448,192,88961,128,0,89089:0:0:0:0:
320,192,89089,128,0,89218:0:0:0:0:
192,192,89089,128,0,89346:0:0:0:0:
64,192,89218,1,0,0:0:0:0:
320,192,89346,128,0,89474:0:0:0:0:
448,192,89474,1,0,0:0:0:0:
192,192,89602,128,0,89730:0:0:0:0:
448,192,89858,128,0,89987:0:0:0:0:
192,192,89987,128,0,90115:0:0:0:0:
448,192,90115,128,0,90243:0:0:0:0:
192,192,90243,128,0,90371:0:0:0:0:
448,192,90371,1,0,0:0:0:0:
64,192,90371,1,0,0:0:0:0:
320,192,90499,1,0,0:0:0:0:
192,192,90627,1,0,0:0:0:0:
320,192,90884,1,0,0:0:0:0:
64,192,90884,1,0,0:0:0:0:
448,192,91140,1,0,0:0:0:0:
320,192,91268,1,0,0:0:0:0:
448,192,91396,1,0,0:0:0:0:
64,192,91396,1,0,0:0:0:0:
448,192,91525,1,0,0:0:0:0:
64,192,91653,1,0,0:0:0:0:
192,192,91717,1,0,0:0:0:0:
448,192,91781,1,0,0:0:0:0:
320,192,91845,1,0,0:0:0:0:
64,192,91909,1,0,0:0:0:0:
192,192,91909,1,0,0:0:0:0:
64,192,92037,1,0,0:0:0:0:
448,192,92165,1,0,0:0:0:0:
320,192,92229,1,0,0:0:0:0:
192,192,92293,1,0,0:0:0:0:
64,192,92358,1,0,0:0:0:0:
448,192,92422,1,0,0:0:0:0:
320,192,92422,1,0,0:0:0:0:
192,192,92550,1,0,0:0:0:0:
320,192,92678,1,0,0:0:0:0:
64,192,92806,5,0,0:0:0:0:
192,192,92849,1,0,0:0:0:0:
320,192,92892,5,0,0:0:0:0:
448,192,92934,1,0,0:0:0:0:
64,192,92934,1,0,0:0:0:0:
448,192,93191,1,0,0:0:0:0:
320,192,93233,1,0,0:0:0:0:
64,192,93276,1,0,0:0:0:0:
192,192,93319,1,0,0:0:0:0:
320,192,93361,1,0,0:0:0:0:
448,192,93404,1,0,0:0:0:0:
192,192,93447,1,0,0:0:0:0:
64,192,93490,1,0,0:0:0:0:
320,192,93575,1,0,0:0:0:0:
448,192,93618,1,0,0:0:0:0:
192,192,93703,1,0,0:0:0:0:
320,192,93746,1,0,0:0:0:0:
64,192,93831,1,0,0:0:0:0:
192,192,93874,1,0,0:0:0:0:
320,192,93960,5,0,0:0:0:0:
448,192,93960,1,0,0:0:0:0:
192,192,94088,1,0,0:0:0:0:
192,192,94216,1,0,0:0:0:0:
320,192,94344,1,0,0:0:0:0:
64,192,94472,5,0,0:0:0:0:
192,192,94472,1,0,0:0:0:0:
320,192,94600,1,0,0:0:0:0:
192,192,94729,1,0,0:0:0:0:
448,192,94985,5,0,0:0:0:0:
192,192,94985,1,0,0:0:0:0:
448,192,95241,1,0,0:0:0:0:
64,192,95369,1,0,0:0:0:0:
320,192,95498,1,0,0:0:0:0:
192,192,95498,1,0,0:0:0:0:
64,192,95626,1,0,0:0:0:0:
448,192,95754,1,0,0:0:0:0:
320,192,95882,1,0,0:0:0:0:
64,192,95882,1,0,0:0:0:0:
192,192,96010,1,0,0:0:0:0:
448,192,96138,1,0,0:0:0:0:
320,192,96266,5,0,0:0:0:0:
64,192,96266,1,0,0:0:0:0:
320,192,96395,1,0,0:0:0:0:
64,192,96523,5,0,0:0:0:0:
448,192,96523,1,0,0:0:0:0:
192,192,96651,1,0,0:0:0:0:
320,192,96779,1,0,0:0:0:0:
448,192,97035,5,0,0:0:0:0:
192,192,97035,1,0,0:0:0:0:
320,192,97164,1,0,0:0:0:0:
192,192,97292,1,0,0:0:0:0:
448,192,97548,1,0,0:0:0:0:
64,192,97548,1,0,0:0:0:0:
192,192,97676,1,0,0:0:0:0:
320,192,97804,1,0,0:0:0:0:
320,192,98061,5,0,0:0:0:0:
64,192,98061,1,0,0:0:0:0:
448,192,98317,128,0,98573:0:0:0:0:
192,192,98573,128,0,100111:0:0:0:0:
64,192,98573,1,0,0:0:0:0:
320,192,98702,1,0,0:0:0:0:
448,192,98830,1,0,0:0:0:0:
320,192,99342,5,0,0:0:0:0:
64,192,99471,1,0,0:0:0:0:
320,192,99599,1,0,0:0:0:0:
448,192,99727,1,0,0:0:0:0:
64,192,99855,128,0,100111:0:0:0:0:
320,192,100111,5,0,0:0:0:0:
448,192,100111,1,0,0:0:0:0:
320,192,100239,1,0,0:0:0:0:
448,192,100368,1,0,0:0:0:0:
64,192,100368,1,0,0:0:0:0:
192,192,100496,1,0,0:0:0:0:
64,192,100624,1,0,0:0:0:0:
320,192,100624,1,0,0:0:0:0:
448,192,100752,1,0,0:0:0:0:
320,192,100880,1,0,0:0:0:0:
192,192,101137,1,0,0:0:0:0:
320,192,101137,1,0,0:0:0:0:
192,192,101265,1,0,0:0:0:0:
448,192,101329,1,0,0:0:0:0:
320,192,101457,1,0,0:0:0:0:
64,192,101521,1,0,0:0:0:0:
320,192,101777,1,0,0:0:0:0:
64,192,101906,1,0,0:0:0:0:
192,192,101906,1,0,0:0:0:0:
320,192,102034,1,0,0:0:0:0:
448,192,102162,1,0,0:0:0:0:
192,192,102162,1,0,0:0:0:0:
448,192,102418,5,0,0:0:0:0:
320,192,102546,1,0,0:0:0:0:
64,192,102675,5,0,0:0:0:0:
192,192,102675,1,0,0:0:0:0:
320,192,102803,1,0,0:0:0:0:
192,192,102931,1,0,0:0:0:0:
448,192,103187,5,0,0:0:0:0:
320,192,103187,1,0,0:0:0:0:
448,192,103444,5,0,0:0:0:0:
64,192,103604,1,0,0:0:0:0:
320,192,103700,5,0,0:0:0:0:
192,192,103700,1,0,0:0:0:0:
320,192,103828,1,0,0:0:0:0:
320,192,103956,1,0,0:0:0:0:
320,192,104084,1,0,0:0:0:0:
64,192,104212,1,0,0:0:0:0:
320,192,104212,1,0,0:0:0:0:
448,192,104341,1,0,0:0:0:0:
192,192,104341,1,0,0:0:0:0:
320,192,104469,1,0,0:0:0:0:
64,192,104597,1,0,0:0:0:0:
192,192,104597,1,0,0:0:0:0:
448,192,104725,5,0,0:0:0:0:
64,192,104725,1,0,0:0:0:0:
320,192,104853,1,0,0:0:0:0:
64,192,104981,128,0,105238:0:0:0:0:
448,192,104981,1,0,0:0:0:0:
192,192,105110,128,0,105238:0:0:0:0:
320,192,105238,128,0,105366:0:0:0:0:
192,192,105366,128,0,105494:0:0:0:0:
448,192,105494,128,0,105750:0:0:0:0:
320,192,105750,1,0,0:0:0:0:
64,192,105750,1,0,0:0:0:0:
192,192,105879,1,0,0:0:0:0:
448,192,106007,1,0,0:0:0:0:
320,192,106049,1,0,0:0:0:0:
192,192,106092,1,0,0:0:0:0:
64,192,106135,1,0,0:0:0:0:
320,192,106178,1,0,0:0:0:0:
448,192,106220,1,0,0:0:0:0:
192,192,106263,1,0,0:0:0:0:
64,192,106263,1,0,0:0:0:0:
320,192,106391,1,0,0:0:0:0:
64,192,106519,128,0,106648:0:0:0:0:
448,192,106648,128,0,106776:0:0:0:0:
192,192,106776,128,0,107288:0:0:0:0:
320,192,106904,1,0,0:0:0:0:
64,192,107032,1,0,0:0:0:0:
320,192,107288,1,0,0:0:0:0:
448,192,107288,1,0,0:0:0:0:
320,192,107545,1,0,0:0:0:0:
192,192,107673,1,0,0:0:0:0:
320,192,107801,1,0,0:0:0:0:
448,192,107801,1,0,0:0:0:0:
448,192,107929,1,0,0:0:0:0:
64,192,108057,5,0,0:0:0:0:
192,192,108121,1,0,0:0:0:0:
448,192,108185,1,0,0:0:0:0:
320,192,108250,1,0,0:0:0:0:
192,192,108314,5,0,0:0:0:0:
64,192,108314,1,0,0:0:0:0:
192,192,108442,1,0,0:0:0:0:
64,192,108570,1,0,0:0:0:0:
192,192,108634,1,0,0:0:0:0:
320,192,108698,1,0,0:0:0:0:
448,192,108762,1,0,0:0:0:0:
192,192,108826,1,0,0:0:0:0:
64,192,108826,1,0,0:0:0:0:
320,192,108954,1,0,0:0:0:0:
448,192,109083,1,0,0:0:0:0:
320,192,109147,1,0,0:0:0:0:
64,192,109211,5,0,0:0:0:0:
192,192,109253,1,0,0:0:0:0:
320,192,109296,1,0,0:0:0:0:
448,192,109339,5,0,0:0:0:0:
64,192,109339,1,0,0:0:0:0:
64,192,109595,5,0,0:0:0:0:
192,192,109638,1,0,0:0:0:0:
320,192,109681,1,0,0:0:0:0:
448,192,109723,1,0,0:0:0:0:
64,192,109766,1,0,0:0:0:0:
320,192,109809,1,0,0:0:0:0:
192,192,109852,1,0,0:0:0:0:
448,192,109980,5,0,0:0:0:0:
320,192,110022,1,0,0:0:0:0:
192,192,110108,1,0,0:0:0:0:
320,192,110236,1,0,0:0:0:0:
192,192,110364,5,0,0:0:0:0:
64,192,110364,1,0,0:0:0:0:
320,192,110621,5,0,0:0:0:0:
64,192,110621,1,0,0:0:0:0:
192,192,110685,1,0,0:0:0:0:
320,192,110749,1,0,0:0:0:0:
448,192,110877,1,0,0:0:0:0:
192,192,110877,1,0,0:0:0:0:
64,192,110941,1,0,0:0:0:0:
320,192,111005,1,0,0:0:0:0:
448,192,111069,1,0,0:0:0:0:
64,192,111133,1,0,0:0:0:0:
192,192,111176,1,0,0:0:0:0:
320,192,111219,1,0,0:0:0:0:
448,192,111261,1,0,0:0:0:0:
320,192,111390,1,0,0:0:0:0:
192,192,111390,1,0,0:0:0:0:
64,192,111518,1,0,0:0:0:0:
320,192,111646,1,0,0:0:0:0:
192,192,111774,1,0,0:0:0:0:
64,192,111902,1,0,0:0:0:0:
448,192,111902,128,0,112158:0:0:0:0:
320,192,112030,1,0,0:0:0:0:
192,192,112158,1,0,0:0:0:0:
64,192,112287,1,0,0:0:0:0:
320,192,112287,1,0,0:0:0:0:
192,192,112415,128,0,112671:0:0:0:0:
320,192,112543,1,0,0:0:0:0:
64,192,112671,5,0,0:0:0:0:
448,192,112671,1,0,0:0:0:0:
320,192,112799,5,0,0:0:0:0:
448,192,112927,128,0,113184:0:0:0:0:
192,192,112927,1,0,0:0:0:0:
64,192,113056,1,0,0:0:0:0:
320,192,113184,1,0,0:0:0:0:
448,192,113440,1,0,0:0:0:0:
320,192,113483,1,0,0:0:0:0:
64,192,113526,1,0,0:0:0:0:
192,192,113568,1,0,0:0:0:0:
320,192,113696,1,0,0:0:0:0:
448,192,113739,1,0,0:0:0:0:
192,192,113782,1,0,0:0:0:0:
64,192,113825,1,0,0:0:0:0:
320,192,113953,1,0,0:0:0:0:
448,192,114209,1,0,0:0:0:0:
320,192,114252,1,0,0:0:0:0:
64,192,114295,1,0,0:0:0:0:
192,192,114337,1,0,0:0:0:0:
320,192,114465,128,0,114722:0:0:0:0:
64,192,114722,128,0,114850:0:0:0:0:
192,192,114722,128,0,114978:0:0:0:0:
320,192,114978,5,0,0:0:0:0:
64,192,115298,1,0,0:0:0:0:
64,192,115427,1,0,0:0:0:0:
320,192,115619,1,0,0:0:0:0:
320,192,115747,1,0,0:0:0:0:
192,192,115747,1,0,0:0:0:0:
448,192,115811,1,0,0:0:0:0:
64,192,115875,1,0,0:0:0:0:
64,192,116131,1,0,0:0:0:0:
192,192,116260,1,0,0:0:0:0:
320,192,116324,1,0,0:0:0:0:
192,192,116388,1,0,0:0:0:0:
448,192,116516,128,0,116772:0:0:0:0:
320,192,116772,128,0,117029:0:0:0:0:
448,192,117029,128,0,117413:0:0:0:0:
320,192,117541,1,0,0:0:0:0:
192,192,117712,1,0,0:0:0:0:
64,192,117798,128,0,118139:0:0:0:0:
320,192,117883,1,0,0:0:0:0:
448,192,118139,1,0,0:0:0:0:
192,192,118310,1,0,0:0:0:0:
448,192,118438,1,0,0:0:0:0:
192,192,118567,128,0,118823:0:0:0:0:
320,192,118567,1,0,0:0:0:0:
320,192,118823,1,0,0:0:0:0:
320,192,118951,5,0,0:0:0:0:
320,192,119079,1,0,0:0:0:0:
64,192,119079,1,0,0:0:0:0:
192,192,119207,1,0,0:0:0:0:
448,192,119464,1,0,0:0:0:0:
64,192,119592,1,0,0:0:0:0:
320,192,119848,128,0,120104:0:0:0:0:
448,192,120104,5,0,0:0:0:0:
64,192,120104,1,0,0:0:0:0:
192,192,120233,1,0,0:0:0:0:
64,192,120361,1,0,0:0:0:0:
448,192,120361,1,0,0:0:0:0:
320,192,120553,1,0,0:0:0:0:
320,192,120681,1,0,0:0:0:0:
192,192,120745,1,0,0:0:0:0:
320,192,120809,1,0,0:0:0:0:
192,192,120873,1,0,0:0:0:0:
448,192,120938,1,0,0:0:0:0:
64,192,120938,1,0,0:0:0:0:
320,192,121066,1,0,0:0:0:0:
64,192,121130,128,0,121642:0:0:0:0:
448,192,121130,128,0,122668:0:0:0:0:
64,192,121899,128,0,122411:0:0:0:0:
64,192,122668,128,0,123052:0:0:0:0:
320,192,122924,128,0,123180:0:0:0:0:
192,192,123180,128,0,125103:0:0:0:0:
320,192,125103,128,0,125231:0:0:0:0:
448,192,125231,128,0,125615:0:0:0:0:
64,192,125615,1,0,0:0:0:0:
192,192,125658,1,0,0:0:0:0:
320,192,125701,1,0,0:0:0:0:
448,192,126000,1,0,0:0:0:0:
320,192,126043,1,0,0:0:0:0:
64,192,126085,1,0,0:0:0:0:
192,192,126128,1,0,0:0:0:0:
320,192,126171,1,0,0:0:0:0:
448,192,126214,1,0,0:0:0:0:
192,192,126256,1,0,0:0:0:0:
64,192,126299,1,0,0:0:0:0:
320,192,126384,1,0,0:0:0:0:
448,192,126427,1,0,0:0:0:0:
64,192,126513,1,0,0:0:0:0:
192,192,126555,1,0,0:0:0:0:
320,192,126641,1,0,0:0:0:0:
448,192,126683,1,0,0:0:0:0:
192,192,127196,5,0,0:0:0:0:
192,192,127282,5,0,0:0:0:0:
64,192,127282,1,0,0:0:0:0:
320,192,127367,1,0,0:0:0:0:
448,192,127452,1,0,0:0:0:0:
64,192,127538,1,0,0:0:0:0:
192,192,127623,1,0,0:0:0:0:
448,192,127709,1,0,0:0:0:0:
320,192,127794,1,0,0:0:0:0:
192,192,127880,1,0,0:0:0:0:
64,192,127965,1,0,0:0:0:0:
320,192,128050,1,0,0:0:0:0:
448,192,128136,1,0,0:0:0:0:
64,192,128221,1,0,0:0:0:0:
448,192,128307,1,0,0:0:0:0:
192,192,128307,1,0,0:0:0:0:
320,192,128392,1,0,0:0:0:0:
64,192,128478,1,0,0:0:0:0:
192,192,128563,1,0,0:0:0:0:
320,192,128649,1,0,0:0:0:0:
448,192,128734,1,0,0:0:0:0:
320,192,128819,1,0,0:0:0:0:
64,192,128819,1,0,0:0:0:0:
192,192,128905,1,0,0:0:0:0:
448,192,128990,1,0,0:0:0:0:
320,192,129076,1,0,0:0:0:0:
64,192,129161,1,0,0:0:0:0:
192,192,129247,1,0,0:0:0:0:
64,192,129332,128,0,131126:0:0:0:0:
320,192,129332,128,0,129717:0:0:0:0:
320,192,130101,128,0,130486:0:0:0:0:
448,192,130357,128,0,131126:0:0:0:0:
320,192,130870,128,0,131126:0:0:0:0:
192,192,131126,128,0,131383:0:0:0:0:
64,192,131383,5,0,0:0:0:0:
448,192,131383,128,0,131895:0:0:0:0:
320,192,131767,1,0,0:0:0:0:
64,192,131895,5,0,0:0:0:0:
192,192,131895,1,0,0:0:0:0:
320,192,132152,1,0,0:0:0:0:
192,192,132664,1,0,0:0:0:0:
64,192,132921,5,0,0:0:0:0:
448,192,132921,1,0,0:0:0:0:
320,192,133049,1,0,0:0:0:0:
64,192,133113,1,0,0:0:0:0:
448,192,133177,1,0,0:0:0:0:
320,192,133433,1,0,0:0:0:0:
448,192,133818,1,0,0:0:0:0:
64,192,133946,1,0,0:0:0:0:
320,192,133946,1,0,0:0:0:0:
192,192,134459,1,0,0:0:0:0:
192,192,134843,1,0,0:0:0:0:
64,192,135228,1,0,0:0:0:0:
448,192,135228,1,0,0:0:0:0:
320,192,135484,128,0,135548:0:0:0:0:
320,192,135868,128,0,135932:0:0:0:0:
192,192,135996,1,0,0:0:0:0:
448,192,135996,1,0,0:0:0:0:
64,192,136253,1,0,0:0:0:0:
320,192,136509,128,0,136573:0:0:0:0:
320,192,136894,128,0,136958:0:0:0:0:
64,192,137022,1,0,0:0:0:0:
448,192,137022,1,0,0:0:0:0:
192,192,137278,1,0,0:0:0:0:
64,192,137278,1,0,0:0:0:0:
192,192,137406,1,0,0:0:0:0:
320,192,137406,1,0,0:0:0:0:
448,192,137534,128,0,137791:0:0:0:0:
320,192,137791,1,0,0:0:0:0:
192,192,137919,1,0,0:0:0:0:
64,192,138047,1,0,0:0:0:0:
448,192,138047,1,0,0:0:0:0:
320,192,138175,128,0,138239:0:0:0:0:
192,192,138303,128,0,138367:0:0:0:0:
320,192,138432,128,0,138496:0:0:0:0:
448,192,138560,1,0,0:0:0:0:
192,192,138688,128,0,138752:0:0:0:0:
192,192,138816,128,0,138880:0:0:0:0:
192,192,138944,128,0,139008:0:0:0:0:
448,192,139072,128,0,139136:0:0:0:0:
64,192,139072,1,0,0:0:0:0:
320,192,139201,128,0,139265:0:0:0:0:
448,192,139329,1,0,0:0:0:0:
320,192,139393,1,0,0:0:0:0:
192,192,139457,1,0,0:0:0:0:
64,192,139521,1,0,0:0:0:0:
320,192,139585,1,0,0:0:0:0:
448,192,139905,1,0,0:0:0:0:
320,192,139969,1,0,0:0:0:0:
64,192,140034,1,0,0:0:0:0:
448,192,140098,1,0,0:0:0:0:
192,192,140098,1,0,0:0:0:0:
192,192,140610,1,0,0:0:0:0:
448,192,140995,1,0,0:0:0:0:
192,192,141123,1,0,0:0:0:0:
64,192,141251,1,0,0:0:0:0:
192,192,141315,1,0,0:0:0:0:
448,192,141379,1,0,0:0:0:0:
320,192,141379,1,0,0:0:0:0:
192,192,141507,1,0,0:0:0:0:
320,192,141572,1,0,0:0:0:0:
64,192,141636,1,0,0:0:0:0:
448,192,141892,5,0,0:0:0:0:
320,192,141924,1,0,0:0:0:0:
192,192,141956,1,0,0:0:0:0:
64,192,141988,1,0,0:0:0:0:
448,192,142020,1,0,0:0:0:0:
320,192,142052,1,0,0:0:0:0:
64,192,142084,1,0,0:0:0:0:
192,192,142116,1,0,0:0:0:0:
320,192,142148,1,0,0:0:0:0:
448,192,142148,1,0,0:0:0:0:
64,192,142405,1,0,0:0:0:0:
192,192,142437,1,0,0:0:0:0:
448,192,142469,1,0,0:0:0:0:
320,192,142501,1,0,0:0:0:0:
64,192,142533,1,0,0:0:0:0:
192,192,142565,1,0,0:0:0:0:
448,192,142597,1,0,0:0:0:0:
320,192,142629,1,0,0:0:0:0:
192,192,142661,1,0,0:0:0:0:
64,192,142704,1,0,0:0:0:0:
320,192,142789,1,0,0:0:0:0:
192,192,142832,1,0,0:0:0:0:
448,192,142917,1,0,0:0:0:0:
320,192,142960,1,0,0:0:0:0:
64,192,143045,1,0,0:0:0:0:
192,192,143088,1,0,0:0:0:0:
320,192,143174,1,0,0:0:0:0:
448,192,143238,1,0,0:0:0:0:
192,192,143302,1,0,0:0:0:0:
64,192,143366,1,0,0:0:0:0:
448,192,143430,1,0,0:0:0:0:
320,192,143430,1,0,0:0:0:0:
192,192,143558,1,0,0:0:0:0:
320,192,143622,1,0,0:0:0:0:
64,192,143686,1,0,0:0:0:0:
448,192,143686,1,0,0:0:0:0:
192,192,143814,1,0,0:0:0:0:
320,192,143942,1,0,0:0:0:0:
192,192,144071,1,0,0:0:0:0:
64,192,144199,1,0,0:0:0:0:
320,192,144199,1,0,0:0:0:0:
448,192,144327,1,0,0:0:0:0:
192,192,144391,1,0,0:0:0:0:
320,192,144519,1,0,0:0:0:0:
192,192,144647,1,0,0:0:0:0:
320,192,144711,128,0,144968:0:0:0:0:
448,192,144968,1,0,0:0:0:0:
64,192,145096,128,0,145288:0:0:0:0:
192,192,145288,1,0,0:0:0:0:
448,192,145352,1,0,0:0:0:0:
320,192,145416,1,0,0:0:0:0:
192,192,145480,1,0,0:0:0:0:
64,192,145480,1,0,0:0:0:0:
320,192,145609,1,0,0:0:0:0:
192,192,145737,1,0,0:0:0:0:
320,192,145737,1,0,0:0:0:0:
448,192,145993,1,0,0:0:0:0:
64,192,146121,1,0,0:0:0:0:
448,192,146249,1,0,0:0:0:0:
192,192,146249,1,0,0:0:0:0:
320,192,146506,1,0,0:0:0:0:
192,192,146762,1,0,0:0:0:0:
192,192,146890,1,0,0:0:0:0:
448,192,147147,1,0,0:0:0:0:
64,192,147275,1,0,0:0:0:0:
448,192,147275,1,0,0:0:0:0:
192,192,147403,1,0,0:0:0:0:
320,192,147467,1,0,0:0:0:0:
448,192,147531,1,0,0:0:0:0:
64,192,147595,1,0,0:0:0:0:
320,192,147659,1,0,0:0:0:0:
192,192,147787,1,0,0:0:0:0:
64,192,147787,128,0,150863:0:0:0:0:
320,192,148044,1,0,0:0:0:0:
320,192,148172,1,0,0:0:0:0:
448,192,148300,1,0,0:0:0:0:
192,192,148300,1,0,0:0:0:0:
192,192,148556,1,0,0:0:0:0:
320,192,149069,1,0,0:0:0:0:
448,192,149325,1,0,0:0:0:0:
192,192,149325,1,0,0:0:0:0:
320,192,149389,1,0,0:0:0:0:
448,192,149453,1,0,0:0:0:0:
192,192,149518,1,0,0:0:0:0:
320,192,149582,1,0,0:0:0:0:
320,192,149838,1,0,0:0:0:0:
192,192,150222,1,0,0:0:0:0:
448,192,150351,1,0,0:0:0:0:
192,192,150351,1,0,0:0:0:0:
320,192,150436,1,0,0:0:0:0:
448,192,150543,1,0,0:0:0:0:
192,192,150863,1,0,0:0:0:0:
320,192,150863,128,0,151888:0:0:0:0:
192,192,151248,1,0,0:0:0:0:
448,192,151632,1,0,0:0:0:0:
64,192,151632,1,0,0:0:0:0:
448,192,151888,128,0,153939:0:0:0:0:
64,192,151888,128,0,152017:0:0:0:0:
320,192,152273,1,0,0:0:0:0:
192,192,152401,1,0,0:0:0:0:
320,192,152401,1,0,0:0:0:0:
64,192,152657,1,0,0:0:0:0:
320,192,152914,1,0,0:0:0:0:
192,192,153298,1,0,0:0:0:0:
64,192,153426,1,0,0:0:0:0:
192,192,153426,1,0,0:0:0:0:
192,192,153683,1,0,0:0:0:0:
320,192,153683,1,0,0:0:0:0:
64,192,153811,1,0,0:0:0:0:
192,192,153811,1,0,0:0:0:0:
64,192,153939,128,0,154003:0:0:0:0:
320,192,153939,128,0,154195:0:0:0:0:
192,192,154195,1,0,0:0:0:0:
192,192,154324,1,0,0:0:0:0:
64,192,154452,1,0,0:0:0:0:
448,192,154452,1,0,0:0:0:0:
192,192,154708,1,0,0:0:0:0:
320,192,154964,1,0,0:0:0:0:
192,192,155028,1,0,0:0:0:0:
448,192,155221,1,0,0:0:0:0:
320,192,155285,1,0,0:0:0:0:
64,192,155477,1,0,0:0:0:0:
192,192,155477,1,0,0:0:0:0:
192,192,155605,1,0,0:0:0:0:
64,192,155733,1,0,0:0:0:0:
448,192,155797,1,0,0:0:0:0:
64,192,155861,1,0,0:0:0:0:
448,192,155926,1,0,0:0:0:0:
320,192,155990,1,0,0:0:0:0:
64,192,155990,1,0,0:0:0:0:
192,192,156310,1,0,0:0:0:0:
320,192,156374,1,0,0:0:0:0:
192,192,156438,1,0,0:0:0:0:
448,192,156502,128,0,156887:0:0:0:0:
320,192,156502,1,0,0:0:0:0:
192,192,157015,1,0,0:0:0:0:
320,192,157399,1,0,0:0:0:0:
192,192,157528,1,0,0:0:0:0:
64,192,157656,1,0,0:0:0:0:
320,192,157720,1,0,0:0:0:0:
448,192,157784,1,0,0:0:0:0:
64,192,157784,1,0,0:0:0:0:
320,192,157912,1,0,0:0:0:0:
192,192,157976,1,0,0:0:0:0:
64,192,158040,1,0,0:0:0:0:
448,192,158040,1,0,0:0:0:0:
64,192,158297,1,0,0:0:0:0:
192,192,158339,1,0,0:0:0:0:
448,192,158382,1,0,0:0:0:0:
320,192,158425,1,0,0:0:0:0:
192,192,158467,1,0,0:0:0:0:
64,192,158510,1,0,0:0:0:0:
448,192,158553,1,0,0:0:0:0:
320,192,158553,1,0,0:0:0:0:
448,192,158809,1,0,0:0:0:0:
320,192,158852,1,0,0:0:0:0:
192,192,158895,1,0,0:0:0:0:
64,192,158937,1,0,0:0:0:0:
448,192,158980,1,0,0:0:0:0:
320,192,159023,1,0,0:0:0:0:
64,192,159066,1,0,0:0:0:0:
192,192,159108,1,0,0:0:0:0:
448,192,159194,1,0,0:0:0:0:
320,192,159236,1,0,0:0:0:0:
192,192,159322,1,0,0:0:0:0:
64,192,159365,1,0,0:0:0:0:
448,192,159450,1,0,0:0:0:0:
320,192,159493,1,0,0:0:0:0:
64,192,159578,1,0,0:0:0:0:
192,192,159642,1,0,0:0:0:0:
320,192,159706,1,0,0:0:0:0:
192,192,159770,1,0,0:0:0:0:
320,192,159834,5,0,0:0:0:0:
448,192,159834,1,0,0:0:0:0:
192,192,159963,1,0,0:0:0:0:
320,192,160027,1,0,0:0:0:0:
64,192,160091,128,0,160603:0:0:0:0:
192,192,160091,1,0,0:0:0:0:
448,192,160219,1,0,0:0:0:0:
192,192,160347,1,0,0:0:0:0:
320,192,160475,1,0,0:0:0:0:
448,192,160603,128,0,162141:0:0:0:0:
192,192,160603,1,0,0:0:0:0:
320,192,161116,1,0,0:0:0:0:
64,192,161244,1,0,0:0:0:0:
192,192,161372,1,0,0:0:0:0:
64,192,161501,1,0,0:0:0:0:
320,192,161629,1,0,0:0:0:0:
64,192,161693,1,0,0:0:0:0:
192,192,161757,1,0,0:0:0:0:
320,192,161821,1,0,0:0:0:0:
64,192,161885,1,0,0:0:0:0:
192,192,161885,1,0,0:0:0:0:
64,192,162013,1,0,0:0:0:0:
320,192,162141,1,0,0:0:0:0:
192,192,162141,1,0,0:0:0:0:
320,192,162398,1,0,0:0:0:0:
192,192,162526,1,0,0:0:0:0:
448,192,162654,1,0,0:0:0:0:
64,192,162654,1,0,0:0:0:0:
448,192,162910,128,0,163167:0:0:0:0:
192,192,163039,128,0,163167:0:0:0:0:
320,192,163167,128,0,163231:0:0:0:0:
192,192,163295,128,0,163359:0:0:0:0:
320,192,163423,128,0,163487:0:0:0:0:
192,192,163551,128,0,163615:0:0:0:0:
448,192,163679,1,0,0:0:0:0:
64,192,163679,1,0,0:0:0:0:
192,192,163743,1,0,0:0:0:0:
320,192,163807,1,0,0:0:0:0:
64,192,163872,1,0,0:0:0:0:
448,192,163936,1,0,0:0:0:0:
192,192,163936,1,0,0:0:0:0:
320,192,164000,1,0,0:0:0:0:
192,192,164064,1,0,0:0:0:0:
448,192,164192,1,0,0:0:0:0:
64,192,164192,1,0,0:0:0:0:
320,192,164320,1,0,0:0:0:0:
448,192,164448,1,0,0:0:0:0:
320,192,164576,1,0,0:0:0:0:
192,192,164705,1,0,0:0:0:0:
64,192,164705,1,0,0:0:0:0:
320,192,164961,1,0,0:0:0:0:
320,192,165217,1,0,0:0:0:0:
192,192,165474,1,0,0:0:0:0:
448,192,165730,1,0,0:0:0:0:
64,192,165730,1,0,0:0:0:0:
320,192,165858,1,0,0:0:0:0:
192,192,165922,1,0,0:0:0:0:
320,192,165986,1,0,0:0:0:0:
64,192,166243,128,0,166499:0:0:0:0:
448,192,166499,1,0,0:0:0:0:
192,192,166627,1,0,0:0:0:0:
64,192,166755,128,0,167268:0:0:0:0:
448,192,166755,1,0,0:0:0:0:
192,192,167012,1,0,0:0:0:0:
320,192,167268,128,0,167780:0:0:0:0:
448,192,167524,1,0,0:0:0:0:
64,192,167652,1,0,0:0:0:0:
192,192,167780,128,0,168293:0:0:0:0:
448,192,168037,1,0,0:0:0:0:
64,192,168037,1,0,0:0:0:0:
448,192,168293,128,0,168421:0:0:0:0:
320,192,168293,128,0,168806:0:0:0:0:
192,192,168549,1,0,0:0:0:0:
448,192,168678,1,0,0:0:0:0:
192,192,168806,1,0,0:0:0:0:
64,192,168806,1,0,0:0:0:0:
320,192,169062,128,0,169126:0:0:0:0:
192,192,169190,128,0,169254:0:0:0:0:
320,192,169318,128,0,169383:0:0:0:0:
192,192,169447,128,0,169511:0:0:0:0:
320,192,169575,128,0,169639:0:0:0:0:
320,192,169703,128,0,169767:0:0:0:0:
192,192,169831,1,0,0:0:0:0:
320,192,169831,128,0,170087:0:0:0:0:
448,192,170087,1,0,0:0:0:0:
64,192,170087,1,0,0:0:0:0:
64,192,170216,1,0,0:0:0:0:
448,192,170216,1,0,0:0:0:0:
192,192,170280,1,0,0:0:0:0:
448,192,170344,1,0,0:0:0:0:
320,192,170344,1,0,0:0:0:0:
192,192,170386,1,0,0:0:0:0:
64,192,170429,1,0,0:0:0:0:
448,192,170472,1,0,0:0:0:0:
320,192,170515,1,0,0:0:0:0:
192,192,170557,1,0,0:0:0:0:
64,192,170600,1,0,0:0:0:0:
192,192,170728,1,0,0:0:0:0:
448,192,170856,1,0,0:0:0:0:
64,192,170856,1,0,0:0:0:0:
64,192,171113,1,0,0:0:0:0:
192,192,171113,1,0,0:0:0:0:
320,192,171113,1,0,0:0:0:0:
448,192,171113,1,0,0:0:0:0:
320,192,171369,1,0,0:0:0:0:
320,192,171625,1,0,0:0:0:0:
64,192,171753,1,0,0:0:0:0:
192,192,171882,1,0,0:0:0:0:
448,192,171882,1,0,0:0:0:0:
64,192,171882,1,0,0:0:0:0:
320,192,171882,1,0,0:0:0:0:
192,192,172010,1,0,0:0:0:0:
320,192,172138,1,0,0:0:0:0:
192,192,172266,1,0,0:0:0:0:
448,192,172394,128,0,172458:0:0:0:0:
320,192,172651,1,0,0:0:0:0:
64,192,172779,128,0,172843:0:0:0:0:
192,192,172843,1,0,0:0:0:0:
448,192,172907,1,0,0:0:0:0:
320,192,172907,1,0,0:0:0:0:
320,192,173163,128,0,173227:0:0:0:0:
448,192,173291,1,0,0:0:0:0:
64,192,173291,1,0,0:0:0:0:
64,192,173420,1,0,0:0:0:0:
448,192,173676,1,0,0:0:0:0:
192,192,173676,1,0,0:0:0:0:
320,192,173804,1,0,0:0:0:0:
192,192,173932,1,0,0:0:0:0:
192,192,174060,1,0,0:0:0:0:
448,192,174189,1,0,0:0:0:0:
320,192,174189,128,0,174317:0:0:0:0:
192,192,174317,128,0,174445:0:0:0:0:
448,192,174445,128,0,174573:0:0:0:0:
64,192,174445,128,0,174701:0:0:0:0:
448,192,174701,1,0,0:0:0:0:
320,192,174744,1,0,0:0:0:0:
192,192,174787,1,0,0:0:0:0:
64,192,174829,1,0,0:0:0:0:
320,192,174958,128,0,175214:0:0:0:0:
448,192,174958,1,0,0:0:0:0:
192,192,175214,1,0,0:0:0:0:
64,192,175470,128,0,175726:0:0:0:0:
448,192,175470,128,0,175983:0:0:0:0:
192,192,175726,128,0,176239:0:0:0:0:
320,192,175983,128,0,176495:0:0:0:0:
448,192,176239,5,0,0:0:0:0:
64,192,176239,128,0,176495:0:0:0:0:
192,192,176495,5,0,0:0:0:0:
448,192,176495,1,0,0:0:0:0:
320,192,176624,1,0,0:0:0:0:
192,192,176752,1,0,0:0:0:0:
448,192,176880,1,0,0:0:0:0:
64,192,177008,5,0,0:0:0:0:
192,192,177008,1,0,0:0:0:0:
448,192,177264,1,0,0:0:0:0:
192,192,177264,1,0,0:0:0:0:
64,192,177393,1,0,0:0:0:0:
320,192,177393,1,0,0:0:0:0:
192,192,177521,128,0,177585:0:0:0:0:
448,192,177521,128,0,177585:0:0:0:0:
448,192,177649,128,0,177713:0:0:0:0:
192,192,177777,1,0,0:0:0:0:
320,192,177905,1,0,0:0:0:0:
64,192,178033,1,0,0:0:0:0:
448,192,178033,1,0,0:0:0:0:
192,192,178162,1,0,0:0:0:0:
448,192,178226,1,0,0:0:0:0:
320,192,178290,1,0,0:0:0:0:
64,192,178290,1,0,0:0:0:0:
192,192,178418,1,0,0:0:0:0:
320,192,178546,128,0,179059:0:0:0:0:
64,192,178802,1,0,0:0:0:0:
448,192,178931,1,0,0:0:0:0:
192,192,179059,5,0,0:0:0:0:
64,192,179059,1,0,0:0:0:0:
192,192,179315,1,0,0:0:0:0:
320,192,179571,128,0,179699:0:0:0:0:
320,192,179828,128,0,179956:0:0:0:0:
448,192,180084,128,0,180340:0:0:0:0:
320,192,180084,128,0,180212:0:0:0:0:
192,192,180340,128,0,180597:0:0:0:0:
320,192,180340,128,0,180468:0:0:0:0:
64,192,180597,1,0,0:0:0:0:
448,192,180597,128,0,181878:0:0:0:0:
320,192,180725,1,0,0:0:0:0:
64,192,180853,1,0,0:0:0:0:
320,192,180981,1,0,0:0:0:0:
192,192,181109,1,0,0:0:0:0:
64,192,181109,1,0,0:0:0:0:
192,192,181366,1,0,0:0:0:0:
192,192,181622,1,0,0:0:0:0:
192,192,181878,1,0,0:0:0:0:
448,192,182135,1,0,0:0:0:0:
64,192,182135,1,0,0:0:0:0:
320,192,182263,1,0,0:0:0:0:
192,192,182327,1,0,0:0:0:0:
64,192,182391,1,0,0:0:0:0:
192,192,182455,1,0,0:0:0:0:
448,192,182519,1,0,0:0:0:0:
320,192,182583,1,0,0:0:0:0:
192,192,182647,128,0,182904:0:0:0:0:
448,192,182904,1,0,0:0:0:0:
320,192,183032,1,0,0:0:0:0:
192,192,183160,128,0,183672:0:0:0:0:
448,192,183160,1,0,0:0:0:0:
64,192,183416,128,0,183672:0:0:0:0:
448,192,183672,128,0,184441:0:0:0:0:
320,192,183929,1,0,0:0:0:0:
192,192,184057,1,0,0:0:0:0:
64,192,184185,128,0,184698:0:0:0:0:
320,192,184441,128,0,184698:0:0:0:0:
192,192,184441,1,0,0:0:0:0:
448,192,184698,128,0,185210:0:0:0:0:
320,192,184954,1,0,0:0:0:0:
192,192,185082,1,0,0:0:0:0:
320,192,185210,1,0,0:0:0:0:
64,192,185210,1,0,0:0:0:0:
192,192,185467,128,0,185531:0:0:0:0:
320,192,185595,128,0,185659:0:0:0:0:
192,192,185723,128,0,185787:0:0:0:0:
320,192,185851,128,0,185915:0:0:0:0:
192,192,185979,128,0,186043:0:0:0:0:
192,192,186108,128,0,186172:0:0:0:0:
320,192,186236,1,0,0:0:0:0:
192,192,186236,128,0,186492:0:0:0:0:
64,192,186492,1,0,0:0:0:0:
448,192,186492,1,0,0:0:0:0:
448,192,186620,1,0,0:0:0:0:
64,192,186620,1,0,0:0:0:0:
320,192,186684,1,0,0:0:0:0:
64,192,186748,1,0,0:0:0:0:
192,192,186748,1,0,0:0:0:0:
320,192,186791,1,0,0:0:0:0:
448,192,186834,1,0,0:0:0:0:
64,192,186877,1,0,0:0:0:0:
192,192,186919,1,0,0:0:0:0:
320,192,186962,1,0,0:0:0:0:
448,192,187005,1,0,0:0:0:0:
320,192,187133,1,0,0:0:0:0:
448,192,187261,128,0,187389:0:0:0:0:
64,192,187261,128,0,187389:0:0:0:0:
448,192,187517,1,0,0:0:0:0:
320,192,187517,1,0,0:0:0:0:
192,192,187517,1,0,0:0:0:0:
64,192,187517,1,0,0:0:0:0:
192,192,187774,1,0,0:0:0:0:
448,192,188030,1,0,0:0:0:0:
192,192,188158,1,0,0:0:0:0:
320,192,188286,1,0,0:0:0:0:
64,192,188286,1,0,0:0:0:0:
448,192,188286,1,0,0:0:0:0:
192,192,188286,1,0,0:0:0:0:
320,192,188414,1,0,0:0:0:0:
192,192,188543,128,0,188671:0:0:0:0:
448,192,188671,128,0,188799:0:0:0:0:
320,192,188799,128,0,189055:0:0:0:0:
64,192,188927,128,0,189055:0:0:0:0:
192,192,189055,128,0,189119:0:0:0:0:
448,192,189183,128,0,189248:0:0:0:0:
320,192,189248,128,0,189312:0:0:0:0:
192,192,189312,128,0,189440:0:0:0:0:
64,192,189312,128,0,189440:0:0:0:0:
320,192,189568,1,0,0:0:0:0:
448,192,189568,1,0,0:0:0:0:
64,192,189568,1,0,0:0:0:0:
192,192,189568,1,0,0:0:0:0:
320,192,189696,1,0,0:0:0:0:
192,192,189824,128,0,189888:0:0:0:0:
192,192,189952,128,0,190016:0:0:0:0:
448,192,190081,1,0,0:0:0:0:
64,192,190081,1,0,0:0:0:0:
320,192,190209,1,0,0:0:0:0:
192,192,190337,1,0,0:0:0:0:
448,192,190465,1,0,0:0:0:0:
320,192,190593,1,0,0:0:0:0:
64,192,190593,1,0,0:0:0:0:
64,192,190721,1,0,0:0:0:0:
192,192,190785,1,0,0:0:0:0:
448,192,190850,128,0,191106:0:0:0:0:
320,192,190850,1,0,0:0:0:0:
64,192,191106,1,0,0:0:0:0:
192,192,191149,1,0,0:0:0:0:
320,192,191191,1,0,0:0:0:0:
64,192,191234,1,0,0:0:0:0:
448,192,191234,1,0,0:0:0:0:
192,192,191277,1,0,0:0:0:0:
320,192,191319,1,0,0:0:0:0:
64,192,191362,1,0,0:0:0:0:
448,192,191362,1,0,0:0:0:0:
192,192,191490,1,0,0:0:0:0:
448,192,191619,1,0,0:0:0:0:
320,192,191683,1,0,0:0:0:0:
64,192,191747,1,0,0:0:0:0:
192,192,191811,1,0,0:0:0:0:
320,192,191875,128,0,191939:0:0:0:0:
448,192,191875,128,0,191939:0:0:0:0:
192,192,192003,1,0,0:0:0:0:
64,192,192131,128,0,192195:0:0:0:0:
448,192,192131,128,0,192195:0:0:0:0:
320,192,192259,1,0,0:0:0:0:
64,192,192387,128,0,192452:0:0:0:0:
192,192,192387,128,0,192452:0:0:0:0:
320,192,192452,1,0,0:0:0:0:
192,192,192516,1,0,0:0:0:0:
320,192,192580,1,0,0:0:0:0:
64,192,192644,128,0,192708:0:0:0:0:
448,192,192644,128,0,192708:0:0:0:0:
64,192,192772,1,0,0:0:0:0:
192,192,192836,1,0,0:0:0:0:
320,192,192900,128,0,193413:0:0:0:0:
448,192,192900,1,0,0:0:0:0:
192,192,193028,1,0,0:0:0:0:
64,192,193156,1,0,0:0:0:0:
192,192,193285,1,0,0:0:0:0:
64,192,193413,1,0,0:0:0:0:
448,192,193413,1,0,0:0:0:0:
320,192,193669,1,0,0:0:0:0:
192,192,193797,1,0,0:0:0:0:
320,192,193861,1,0,0:0:0:0:
64,192,193925,128,0,193989:0:0:0:0:
192,192,193925,128,0,193989:0:0:0:0:
64,192,194054,128,0,194118:0:0:0:0:
448,192,194182,1,0,0:0:0:0:
320,192,194310,1,0,0:0:0:0:
448,192,194438,1,0,0:0:0:0:
192,192,194438,1,0,0:0:0:0:
320,192,194566,1,0,0:0:0:0:
64,192,194694,1,0,0:0:0:0:
192,192,194758,1,0,0:0:0:0:
448,192,194823,1,0,0:0:0:0:
320,192,194887,1,0,0:0:0:0:
192,192,194951,128,0,195463:0:0:0:0:
64,192,194951,1,0,0:0:0:0:
64,192,195207,1,0,0:0:0:0:
320,192,195335,1,0,0:0:0:0:
448,192,195463,1,0,0:0:0:0:
64,192,195463,1,0,0:0:0:0:
320,192,195592,1,0,0:0:0:0:
192,192,195656,1,0,0:0:0:0:
64,192,195720,1,0,0:0:0:0:
192,192,195848,1,0,0:0:0:0:
320,192,195976,128,0,196104:0:0:0:0:
192,192,196232,128,0,196360:0:0:0:0:
320,192,196489,1,0,0:0:0:0:
192,192,196553,1,0,0:0:0:0:
320,192,196617,1,0,0:0:0:0:
192,192,196681,1,0,0:0:0:0:
64,192,196745,1,0,0:0:0:0:
192,192,196788,1,0,0:0:0:0:
448,192,196830,1,0,0:0:0:0:
320,192,196873,1,0,0:0:0:0:
64,192,196905,1,0,0:0:0:0:
192,192,196937,1,0,0:0:0:0:
320,192,196969,1,0,0:0:0:0:
448,192,197001,1,0,0:0:0:0:
64,192,197001,1,0,0:0:0:0:
320,192,197129,1,0,0:0:0:0:
192,192,197258,1,0,0:0:0:0:
448,192,197386,1,0,0:0:0:0:
64,192,197514,1,0,0:0:0:0:
320,192,197514,1,0,0:0:0:0:
192,192,197642,1,0,0:0:0:0:
64,192,197770,1,0,0:0:0:0:
320,192,197770,1,0,0:0:0:0:
448,192,197770,1,0,0:0:0:0:
320,192,198027,1,0,0:0:0:0:
192,192,198155,1,0,0:0:0:0:
64,192,198283,1,0,0:0:0:0:
448,192,198411,1,0,0:0:0:0:
320,192,198539,1,0,0:0:0:0:
64,192,198539,1,0,0:0:0:0:
192,192,198667,1,0,0:0:0:0:
448,192,198796,1,0,0:0:0:0:
320,192,198796,1,0,0:0:0:0:
192,192,199052,1,0,0:0:0:0:
320,192,199180,1,0,0:0:0:0:
64,192,199308,1,0,0:0:0:0:
448,192,199436,1,0,0:0:0:0:
320,192,199565,1,0,0:0:0:0:
64,192,199565,1,0,0:0:0:0:
448,192,199693,1,0,0:0:0:0:
320,192,199821,1,0,0:0:0:0:
192,192,199821,1,0,0:0:0:0:
64,192,200077,128,0,200590:0:0:0:0:
192,192,200205,1,0,0:0:0:0:
320,192,200333,1,0,0:0:0:0:
448,192,200462,1,0,0:0:0:0:
192,192,200590,1,0,0:0:0:0:
192,192,200718,1,0,0:0:0:0:
448,192,200846,1,0,0:0:0:0:
320,192,200889,1,0,0:0:0:0:
64,192,200932,1,0,0:0:0:0:
192,192,200974,1,0,0:0:0:0:
320,192,201017,1,0,0:0:0:0:
64,192,201102,128,0,201231:0:0:0:0:
448,192,201102,128,0,201615:0:0:0:0:
192,192,201359,1,0,0:0:0:0:
320,192,201487,1,0,0:0:0:0:
64,192,201615,1,0,0:0:0:0:
192,192,201615,1,0,0:0:0:0:
320,192,201871,128,0,201935:0:0:0:0:
192,192,201871,128,0,201935:0:0:0:0:
320,192,202000,128,0,202064:0:0:0:0:
192,192,202000,128,0,202064:0:0:0:0:
320,192,202128,128,0,202192:0:0:0:0:
448,192,202128,128,0,202192:0:0:0:0:
448,192,202256,128,0,202320:0:0:0:0:
64,192,202256,128,0,202320:0:0:0:0:
64,192,202384,128,0,202448:0:0:0:0:
192,192,202384,128,0,202448:0:0:0:0:
64,192,202512,128,0,202576:0:0:0:0:
192,192,202512,128,0,202576:0:0:0:0:
448,192,202640,128,0,202897:0:0:0:0:
64,192,202640,128,0,202897:0:0:0:0:
320,192,202897,1,0,0:0:0:0:
192,192,202897,1,0,0:0:0:0:
448,192,203025,1,0,0:0:0:0:
192,192,203025,1,0,0:0:0:0:
320,192,203089,1,0,0:0:0:0:
64,192,203153,1,0,0:0:0:0:
192,192,203153,1,0,0:0:0:0:
320,192,203196,1,0,0:0:0:0:
448,192,203238,1,0,0:0:0:0:
64,192,203281,1,0,0:0:0:0:
192,192,203324,1,0,0:0:0:0:
320,192,203367,1,0,0:0:0:0:
448,192,203409,1,0,0:0:0:0:
64,192,203538,1,0,0:0:0:0:
448,192,203666,1,0,0:0:0:0:
192,192,203666,1,0,0:0:0:0:
320,192,203794,1,0,0:0:0:0:
64,192,203922,1,0,0:0:0:0:
192,192,203922,1,0,0:0:0:0:
320,192,203922,1,0,0:0:0:0:
448,192,203922,1,0,0:0:0:0:
192,192,204050,1,0,0:0:0:0:
64,192,204178,1,0,0:0:0:0:
448,192,204178,1,0,0:0:0:0:
320,192,204306,1,0,0:0:0:0:
192,192,204435,1,0,0:0:0:0:
64,192,204435,1,0,0:0:0:0:
320,192,204563,1,0,0:0:0:0:
192,192,204691,1,0,0:0:0:0:
448,192,204691,1,0,0:0:0:0:
64,192,204691,1,0,0:0:0:0:
320,192,204691,1,0,0:0:0:0:
448,192,204819,1,0,0:0:0:0:
320,192,204883,1,0,0:0:0:0:
192,192,204947,1,0,0:0:0:0:
64,192,204947,1,0,0:0:0:0:
320,192,205075,1,0,0:0:0:0:
192,192,205140,1,0,0:0:0:0:
448,192,205204,1,0,0:0:0:0:
320,192,205204,1,0,0:0:0:0:
192,192,205332,1,0,0:0:0:0:
448,192,205460,1,0,0:0:0:0:
192,192,205524,1,0,0:0:0:0:
64,192,205588,1,0,0:0:0:0:
320,192,205652,1,0,0:0:0:0:
448,192,205716,1,0,0:0:0:0:
192,192,205716,1,0,0:0:0:0:
320,192,205973,1,0,0:0:0:0:
448,192,206101,1,0,0:0:0:0:
64,192,206101,1,0,0:0:0:0:
64,192,206229,1,0,0:0:0:0:
192,192,206229,1,0,0:0:0:0:
448,192,206357,1,0,0:0:0:0:
320,192,206485,1,0,0:0:0:0:
64,192,206549,1,0,0:0:0:0:
192,192,206613,1,0,0:0:0:0:
448,192,206677,1,0,0:0:0:0:
320,192,206742,1,0,0:0:0:0:
192,192,206806,1,0,0:0:0:0:
64,192,206870,1,0,0:0:0:0:
320,192,206934,1,0,0:0:0:0:
64,192,206998,1,0,0:0:0:0:
448,192,206998,1,0,0:0:0:0:
192,192,207041,1,0,0:0:0:0:
320,192,207083,1,0,0:0:0:0:
448,192,207126,1,0,0:0:0:0:
64,192,207169,1,0,0:0:0:0:
192,192,207211,1,0,0:0:0:0:
320,192,207254,1,0,0:0:0:0:
448,192,207254,1,0,0:0:0:0:
192,192,207382,1,0,0:0:0:0:
448,192,207511,1,0,0:0:0:0:
320,192,207553,1,0,0:0:0:0:
192,192,207596,1,0,0:0:0:0:
64,192,207639,1,0,0:0:0:0:
320,192,207767,1,0,0:0:0:0:
448,192,207767,1,0,0:0:0:0:
192,192,207831,1,0,0:0:0:0:
64,192,207895,1,0,0:0:0:0:
320,192,207959,1,0,0:0:0:0:
192,192,208023,1,0,0:0:0:0:
448,192,208087,1,0,0:0:0:0:
320,192,208151,1,0,0:0:0:0:
64,192,208279,128,0,208344:0:0:0:0:
192,192,208279,128,0,208344:0:0:0:0:
320,192,208408,1,0,0:0:0:0:
64,192,208536,128,0,208600:0:0:0:0:
192,192,208536,128,0,208600:0:0:0:0:
320,192,208600,1,0,0:0:0:0:
448,192,208664,1,0,0:0:0:0:
192,192,208728,1,0,0:0:0:0:
320,192,208792,128,0,208856:0:0:0:0:
64,192,208792,128,0,208856:0:0:0:0:
448,192,208856,1,0,0:0:0:0:
64,192,208920,1,0,0:0:0:0:
448,192,208984,1,0,0:0:0:0:
320,192,209048,128,0,209113:0:0:0:0:
192,192,209048,128,0,209113:0:0:0:0:
448,192,209177,1,0,0:0:0:0:
320,192,209241,1,0,0:0:0:0:
64,192,209305,128,0,209817:0:0:0:0:
192,192,209305,1,0,0:0:0:0:
320,192,209433,1,0,0:0:0:0:
192,192,209561,1,0,0:0:0:0:
320,192,209689,1,0,0:0:0:0:
448,192,209817,1,0,0:0:0:0:
192,192,209817,1,0,0:0:0:0:
448,192,209946,1,0,0:0:0:0:
64,192,210074,1,0,0:0:0:0:
320,192,210074,1,0,0:0:0:0:
64,192,210202,1,0,0:0:0:0:
192,192,210202,1,0,0:0:0:0:
448,192,210330,128,0,210394:0:0:0:0:
320,192,210330,128,0,210394:0:0:0:0:
448,192,210458,128,0,210522:0:0:0:0:
192,192,210586,1,0,0:0:0:0:
320,192,210715,1,0,0:0:0:0:
64,192,210843,1,0,0:0:0:0:
192,192,210843,1,0,0:0:0:0:
320,192,210971,1,0,0:0:0:0:
64,192,211099,1,0,0:0:0:0:
448,192,211099,1,0,0:0:0:0:
192,192,211227,1,0,0:0:0:0:
320,192,211291,1,0,0:0:0:0:
448,192,211355,128,0,211868:0:0:0:0:
64,192,211355,1,0,0:0:0:0:
192,192,211484,1,0,0:0:0:0:
320,192,211612,1,0,0:0:0:0:
192,192,211740,1,0,0:0:0:0:
320,192,211868,1,0,0:0:0:0:
64,192,211996,1,0,0:0:0:0:
448,192,212124,1,0,0:0:0:0:
320,192,212252,1,0,0:0:0:0:
192,192,212381,1,0,0:0:0:0:
64,192,212445,1,0,0:0:0:0:
320,192,212509,1,0,0:0:0:0:
192,192,212573,1,0,0:0:0:0:
448,192,212637,1,0,0:0:0:0:
320,192,212701,1,0,0:0:0:0:
64,192,212765,1,0,0:0:0:0:
192,192,212829,1,0,0:0:0:0:
448,192,212893,128,0,213406:0:0:0:0:
320,192,212893,1,0,0:0:0:0:
64,192,213150,128,0,213406:0:0:0:0:
192,192,213406,1,0,0:0:0:0:
320,192,213406,128,0,213919:0:0:0:0:
448,192,213534,1,0,0:0:0:0:
64,192,213662,1,0,0:0:0:0:
192,192,213790,1,0,0:0:0:0:
64,192,213919,1,0,0:0:0:0:
448,192,213919,1,0,0:0:0:0:
192,192,214047,1,0,0:0:0:0:
64,192,214175,1,0,0:0:0:0:
448,192,214175,1,0,0:0:0:0:
320,192,214175,1,0,0:0:0:0:
192,192,214431,128,0,214688:0:0:0:0:
448,192,214559,128,0,214688:0:0:0:0:
320,192,214688,1,0,0:0:0:0:
320,192,214816,1,0,0:0:0:0:
64,192,214944,1,0,0:0:0:0:
448,192,214944,1,0,0:0:0:0:
192,192,215072,1,0,0:0:0:0:
320,192,215136,1,0,0:0:0:0:
64,192,215200,1,0,0:0:0:0:
192,192,215200,1,0,0:0:0:0:
448,192,215328,1,0,0:0:0:0:
64,192,215457,1,0,0:0:0:0:
320,192,215457,1,0,0:0:0:0:
192,192,215585,1,0,0:0:0:0:
448,192,215649,1,0,0:0:0:0:
320,192,215713,1,0,0:0:0:0:
64,192,215777,1,0,0:0:0:0:
448,192,215841,128,0,215905:0:0:0:0:
320,192,215969,1,0,0:0:0:0:
64,192,215969,1,0,0:0:0:0:
192,192,216097,1,0,0:0:0:0:
448,192,216225,128,0,216290:0:0:0:0:
320,192,216225,1,0,0:0:0:0:
448,192,216482,1,0,0:0:0:0:
64,192,216482,1,0,0:0:0:0:
320,192,216546,1,0,0:0:0:0:
192,192,216610,1,0,0:0:0:0:
448,192,216674,1,0,0:0:0:0:
64,192,216738,1,0,0:0:0:0:
192,192,216802,1,0,0:0:0:0:
448,192,216866,1,0,0:0:0:0:
320,192,216866,1,0,0:0:0:0:
64,192,216994,1,0,0:0:0:0:
320,192,216994,1,0,0:0:0:0:
192,192,217123,1,0,0:0:0:0:
448,192,217251,1,0,0:0:0:0:
320,192,217293,1,0,0:0:0:0:
192,192,217336,1,0,0:0:0:0:
64,192,217379,1,0,0:0:0:0:
320,192,217422,1,0,0:0:0:0:
192,192,217507,1,0,0:0:0:0:
448,192,217507,1,0,0:0:0:0:
320,192,217635,1,0,0:0:0:0:
64,192,217763,1,0,0:0:0:0:
192,192,217763,1,0,0:0:0:0:
320,192,217892,1,0,0:0:0:0:
192,192,217892,1,0,0:0:0:0:
448,192,218020,1,0,0:0:0:0:
64,192,218020,1,0,0:0:0:0:
320,192,218084,1,0,0:0:0:0:
192,192,218148,1,0,0:0:0:0:
320,192,218212,1,0,0:0:0:0:
64,192,218276,128,0,218340:0:0:0:0:
192,192,218276,128,0,218340:0:0:0:0:
320,192,218404,128,0,218468:0:0:0:0:
64,192,218404,128,0,218468:0:0:0:0:
192,192,218532,128,0,218596:0:0:0:0:
64,192,218532,128,0,218596:0:0:0:0:
448,192,218532,128,0,218596:0:0:0:0:
320,192,218661,128,0,218725:0:0:0:0:
192,192,218661,128,0,218725:0:0:0:0:
320,192,218789,128,0,218853:0:0:0:0:
64,192,218789,128,0,218853:0:0:0:0:
320,192,218917,128,0,218981:0:0:0:0:
448,192,218917,128,0,218981:0:0:0:0:
192,192,218917,128,0,218981:0:0:0:0:
448,192,219045,128,0,219301:0:0:0:0:
64,192,219045,128,0,219301:0:0:0:0:
320,192,219301,1,0,0:0:0:0:
192,192,219301,1,0,0:0:0:0:
64,192,219430,1,0,0:0:0:0:
320,192,219430,1,0,0:0:0:0:
192,192,219494,1,0,0:0:0:0:
448,192,219558,1,0,0:0:0:0:
320,192,219558,1,0,0:0:0:0:
192,192,219600,1,0,0:0:0:0:
64,192,219643,1,0,0:0:0:0:
448,192,219686,1,0,0:0:0:0:
320,192,219729,1,0,0:0:0:0:
192,192,219771,1,0,0:0:0:0:
64,192,219814,1,0,0:0:0:0:
320,192,219942,1,0,0:0:0:0:
448,192,220070,1,0,0:0:0:0:
64,192,220070,1,0,0:0:0:0:
192,192,220198,1,0,0:0:0:0:
64,192,220327,1,0,0:0:0:0:
192,192,220327,1,0,0:0:0:0:
320,192,220327,1,0,0:0:0:0:
448,192,220327,1,0,0:0:0:0:
320,192,220455,1,0,0:0:0:0:
64,192,220583,1,0,0:0:0:0:
192,192,220583,1,0,0:0:0:0:
320,192,220711,1,0,0:0:0:0:
448,192,220839,1,0,0:0:0:0:
192,192,220839,1,0,0:0:0:0:
64,192,220967,1,0,0:0:0:0:
192,192,221096,1,0,0:0:0:0:
448,192,221096,1,0,0:0:0:0:
64,192,221096,1,0,0:0:0:0:
320,192,221096,1,0,0:0:0:0:
320,192,221224,1,0,0:0:0:0:
192,192,221288,1,0,0:0:0:0:
64,192,221352,1,0,0:0:0:0:
448,192,221352,1,0,0:0:0:0:
320,192,221416,1,0,0:0:0:0:
192,192,221480,1,0,0:0:0:0:
448,192,221544,1,0,0:0:0:0:
64,192,221608,128,0,221865:0:0:0:0:
192,192,221736,1,0,0:0:0:0:
320,192,221865,128,0,222121:0:0:0:0:
448,192,221993,1,0,0:0:0:0:
64,192,222121,1,0,0:0:0:0:
192,192,222121,1,0,0:0:0:0:
192,192,222377,1,0,0:0:0:0:
448,192,222505,1,0,0:0:0:0:
192,192,222505,1,0,0:0:0:0:
64,192,222634,1,0,0:0:0:0:
448,192,222634,1,0,0:0:0:0:
320,192,222676,1,0,0:0:0:0:
192,192,222719,1,0,0:0:0:0:
64,192,222762,1,0,0:0:0:0:
448,192,222804,1,0,0:0:0:0:
320,192,222890,1,0,0:0:0:0:
64,192,222986,1,0,0:0:0:0:
192,192,223018,1,0,0:0:0:0:
448,192,223146,1,0,0:0:0:0:
320,192,223146,1,0,0:0:0:0:
192,192,223210,1,0,0:0:0:0:
320,192,223274,1,0,0:0:0:0:
192,192,223338,1,0,0:0:0:0:
64,192,223403,1,0,0:0:0:0:
448,192,223403,1,0,0:0:0:0:
320,192,223467,1,0,0:0:0:0:
192,192,223531,1,0,0:0:0:0:
64,192,223531,1,0,0:0:0:0:
320,192,223595,1,0,0:0:0:0:
448,192,223659,128,0,223787:0:0:0:0:
64,192,223659,1,0,0:0:0:0:
192,192,223787,128,0,223915:0:0:0:0:
320,192,223915,1,0,0:0:0:0:
448,192,224001,1,0,0:0:0:0:
64,192,224043,1,0,0:0:0:0:
448,192,224171,1,0,0:0:0:0:
192,192,224171,1,0,0:0:0:0:
320,192,224236,1,0,0:0:0:0:
64,192,224300,1,0,0:0:0:0:
192,192,224364,1,0,0:0:0:0:
320,192,224428,1,0,0:0:0:0:
448,192,224492,1,0,0:0:0:0:
64,192,224556,1,0,0:0:0:0:
192,192,224556,1,0,0:0:0:0:
64,192,224684,128,0,224748:0:0:0:0:
448,192,224684,128,0,224748:0:0:0:0:
320,192,224812,1,0,0:0:0:0:
192,192,224940,128,0,225005:0:0:0:0:
448,192,224940,128,0,225005:0:0:0:0:
64,192,225005,1,0,0:0:0:0:
320,192,225069,1,0,0:0:0:0:
192,192,225133,1,0,0:0:0:0:
320,192,225197,128,0,225261:0:0:0:0:
64,192,225197,128,0,225261:0:0:0:0:
448,192,225261,1,0,0:0:0:0:
192,192,225325,1,0,0:0:0:0:
320,192,225389,1,0,0:0:0:0:
448,192,225453,128,0,225517:0:0:0:0:
64,192,225453,128,0,225517:0:0:0:0:
192,192,225581,1,0,0:0:0:0:
320,192,225645,1,0,0:0:0:0:
448,192,225709,128,0,226222:0:0:0:0:
64,192,225709,1,0,0:0:0:0:
192,192,225838,1,0,0:0:0:0:
320,192,225902,1,0,0:0:0:0:
64,192,225966,1,0,0:0:0:0:
192,192,226094,1,0,0:0:0:0:
192,192,226222,1,0,0:0:0:0:
320,192,226222,1,0,0:0:0:0:
64,192,226350,1,0,0:0:0:0:
448,192,226478,1,0,0:0:0:0:
192,192,226478,1,0,0:0:0:0:
448,192,226607,1,0,0:0:0:0:
320,192,226735,128,0,226799:0:0:0:0:
192,192,226735,128,0,226799:0:0:0:0:
192,192,226863,128,0,226927:0:0:0:0:
64,192,226991,1,0,0:0:0:0:
448,192,226991,1,0,0:0:0:0:
448,192,227119,1,0,0:0:0:0:
320,192,227162,1,0,0:0:0:0:
64,192,227205,1,0,0:0:0:0:
192,192,227247,1,0,0:0:0:0:
448,192,227376,1,0,0:0:0:0:
320,192,227376,1,0,0:0:0:0:
64,192,227504,1,0,0:0:0:0:
448,192,227504,1,0,0:0:0:0:
320,192,227632,1,0,0:0:0:0:
192,192,227696,1,0,0:0:0:0:
448,192,227760,128,0,228273:0:0:0:0:
64,192,227760,1,0,0:0:0:0:
320,192,227888,1,0,0:0:0:0:
64,192,228016,1,0,0:0:0:0:
192,192,228144,1,0,0:0:0:0:
320,192,228273,1,0,0:0:0:0:
320,192,228401,1,0,0:0:0:0:
64,192,228401,1,0,0:0:0:0:
192,192,228529,1,0,0:0:0:0:
192,192,228657,1,0,0:0:0:0:
320,192,228785,1,0,0:0:0:0:
448,192,228849,1,0,0:0:0:0:
192,192,228913,1,0,0:0:0:0:
64,192,228978,1,0,0:0:0:0:
192,192,229042,1,0,0:0:0:0:
448,192,229106,1,0,0:0:0:0:
320,192,229170,1,0,0:0:0:0:
192,192,229234,1,0,0:0:0:0:
448,192,229298,128,0,229554:0:0:0:0:
64,192,229298,128,0,229811:0:0:0:0:
192,192,229554,128,0,229811:0:0:0:0:
320,192,229811,1,0,0:0:0:0:
448,192,229811,128,0,230323:0:0:0:0:
192,192,229939,1,0,0:0:0:0:
320,192,230003,1,0,0:0:0:0:
64,192,230067,1,0,0:0:0:0:
192,192,230195,1,0,0:0:0:0:
320,192,230259,1,0,0:0:0:0:
64,192,230323,1,0,0:0:0:0:
192,192,230323,1,0,0:0:0:0:
448,192,230580,1,0,0:0:0:0:
320,192,230580,128,0,230836:0:0:0:0:
64,192,230836,1,0,0:0:0:0:
448,192,230836,1,0,0:0:0:0:
192,192,230996,1,0,0:0:0:0:
64,192,231092,128,0,231220:0:0:0:0:
448,192,231092,1,0,0:0:0:0:
320,192,231220,128,0,231349:0:0:0:0:
64,192,231349,1,0,0:0:0:0:
192,192,231349,1,0,0:0:0:0:
320,192,231477,1,0,0:0:0:0:
448,192,231605,128,0,231733:0:0:0:0:
192,192,231669,128,0,231733:0:0:0:0:
64,192,231733,128,0,231797:0:0:0:0:
320,192,231797,128,0,231861:0:0:0:0:
448,192,231861,5,0,0:0:0:0:
192,192,231861,1,0,0:0:0:0:
192,192,231989,1,0,0:0:0:0:
448,192,231989,1,0,0:0:0:0:
64,192,232117,1,0,0:0:0:0:
320,192,232117,1,0,0:0:0:0:
192,192,232182,1,0,0:0:0:0:
64,192,232246,1,0,0:0:0:0:
448,192,232246,1,0,0:0:0:0:
320,192,232310,1,0,0:0:0:0:
448,192,232374,128,0,232758:0:0:0:0:
64,192,232374,1,0,0:0:0:0:
192,192,232630,1,0,0:0:0:0:
320,192,232758,128,0,232822:0:0:0:0:
64,192,232822,128,0,232886:0:0:0:0:
192,192,232886,1,0,0:0:0:0:
448,192,232886,1,0,0:0:0:0:
320,192,233015,1,0,0:0:0:0:
192,192,233079,1,0,0:0:0:0:
64,192,233143,1,0,0:0:0:0:
448,192,233143,1,0,0:0:0:0:
192,192,233207,1,0,0:0:0:0:
448,192,233271,1,0,0:0:0:0:
320,192,233271,1,0,0:0:0:0:
192,192,233335,1,0,0:0:0:0:
448,192,233399,1,0,0:0:0:0:
64,192,233399,1,0,0:0:0:0:
320,192,233527,1,0,0:0:0:0:
192,192,233655,1,0,0:0:0:0:
448,192,233655,1,0,0:0:0:0:
320,192,233912,1,0,0:0:0:0:
448,192,233912,1,0,0:0:0:0:
192,192,233976,1,0,0:0:0:0:
64,192,234040,1,0,0:0:0:0:
448,192,234104,1,0,0:0:0:0:
320,192,234168,1,0,0:0:0:0:
192,192,234296,1,0,0:0:0:0:
64,192,234296,1,0,0:0:0:0:
448,192,234424,1,0,0:0:0:0:
64,192,234424,1,0,0:0:0:0:
320,192,234553,1,0,0:0:0:0:
64,192,234681,128,0,234745:0:0:0:0:
192,192,234681,128,0,234745:0:0:0:0:
448,192,234809,128,0,234873:0:0:0:0:
64,192,234809,128,0,234873:0:0:0:0:
320,192,234937,128,0,235001:0:0:0:0:
64,192,234937,128,0,235001:0:0:0:0:
448,192,234937,128,0,235001:0:0:0:0:
320,192,235065,128,0,235129:0:0:0:0:
192,192,235065,128,0,235129:0:0:0:0:
448,192,235193,128,0,235257:0:0:0:0:
64,192,235193,128,0,235257:0:0:0:0:
64,192,235322,128,0,235386:0:0:0:0:
448,192,235322,128,0,235386:0:0:0:0:
320,192,235322,128,0,235386:0:0:0:0:
192,192,235450,128,0,235706:0:0:0:0:
64,192,235450,128,0,235706:0:0:0:0:
320,192,235706,1,0,0:0:0:0:
448,192,235706,1,0,0:0:0:0:
448,192,235834,1,0,0:0:0:0:
320,192,235834,1,0,0:0:0:0:
192,192,235898,1,0,0:0:0:0:
64,192,235962,1,0,0:0:0:0:
448,192,235962,1,0,0:0:0:0:
320,192,236005,1,0,0:0:0:0:
192,192,236048,1,0,0:0:0:0:
64,192,236090,1,0,0:0:0:0:
448,192,236133,1,0,0:0:0:0:
320,192,236176,1,0,0:0:0:0:
192,192,236219,1,0,0:0:0:0:
320,192,236347,1,0,0:0:0:0:
448,192,236475,1,0,0:0:0:0:
64,192,236475,1,0,0:0:0:0:
64,192,236731,1,0,0:0:0:0:
192,192,236731,1,0,0:0:0:0:
320,192,236731,1,0,0:0:0:0:
448,192,236731,1,0,0:0:0:0:
192,192,236859,1,0,0:0:0:0:
64,192,236988,1,0,0:0:0:0:
320,192,236988,1,0,0:0:0:0:
192,192,237116,1,0,0:0:0:0:
320,192,237244,1,0,0:0:0:0:
448,192,237244,1,0,0:0:0:0:
320,192,237372,1,0,0:0:0:0:
192,192,237500,1,0,0:0:0:0:
448,192,237500,1,0,0:0:0:0:
64,192,237500,1,0,0:0:0:0:
320,192,237500,1,0,0:0:0:0:
64,192,237628,1,0,0:0:0:0:
448,192,237757,1,0,0:0:0:0:
192,192,237757,128,0,237885:0:0:0:0:
320,192,237885,128,0,238013:0:0:0:0:
192,192,238013,1,0,0:0:0:0:
64,192,238056,1,0,0:0:0:0:
448,192,238098,1,0,0:0:0:0:
320,192,238141,1,0,0:0:0:0:
192,192,238184,1,0,0:0:0:0:
64,192,238226,1,0,0:0:0:0:
448,192,238269,1,0,0:0:0:0:
320,192,238333,1,0,0:0:0:0:
64,192,238397,1,0,0:0:0:0:
192,192,238440,1,0,0:0:0:0:
320,192,238483,1,0,0:0:0:0:
64,192,238526,1,0,0:0:0:0:
448,192,238526,1,0,0:0:0:0:
192,192,238654,1,0,0:0:0:0:
320,192,238782,128,0,238910:0:0:0:0:
64,192,238782,1,0,0:0:0:0:
448,192,238782,1,0,0:0:0:0:
192,192,238910,128,0,239038:0:0:0:0:
448,192,239038,1,0,0:0:0:0:
64,192,239038,1,0,0:0:0:0:
320,192,239166,1,0,0:0:0:0:
192,192,239295,1,0,0:0:0:0:
320,192,239423,1,0,0:0:0:0:
320,192,239551,1,0,0:0:0:0:
64,192,239679,1,0,0:0:0:0:
448,192,239679,1,0,0:0:0:0:
64,192,239807,1,0,0:0:0:0:
320,192,239807,1,0,0:0:0:0:
448,192,239935,1,0,0:0:0:0:
192,192,239935,1,0,0:0:0:0:
320,192,240063,128,0,240320:0:0:0:0:
64,192,240320,1,0,0:0:0:0:
192,192,240363,1,0,0:0:0:0:
448,192,240405,1,0,0:0:0:0:
320,192,240448,1,0,0:0:0:0:
192,192,240512,1,0,0:0:0:0:
448,192,240576,1,0,0:0:0:0:
64,192,240576,1,0,0:0:0:0:
192,192,240704,1,0,0:0:0:0:
64,192,240704,1,0,0:0:0:0:
320,192,240832,1,0,0:0:0:0:
448,192,240897,1,0,0:0:0:0:
64,192,240961,1,0,0:0:0:0:
192,192,241025,1,0,0:0:0:0:
320,192,241089,128,0,241153:0:0:0:0:
448,192,241089,128,0,241153:0:0:0:0:
192,192,241217,1,0,0:0:0:0:
64,192,241345,128,0,241409:0:0:0:0:
448,192,241345,128,0,241409:0:0:0:0:
320,192,241473,1,0,0:0:0:0:
192,192,241601,128,0,241665:0:0:0:0:
320,192,241601,128,0,241665:0:0:0:0:
64,192,241730,1,0,0:0:0:0:
448,192,241794,1,0,0:0:0:0:
192,192,241858,128,0,241922:0:0:0:0:
64,192,241858,128,0,241922:0:0:0:0:
320,192,241986,1,0,0:0:0:0:
192,192,242050,1,0,0:0:0:0:
320,192,242114,128,0,242627:0:0:0:0:
448,192,242114,1,0,0:0:0:0:
64,192,242242,1,0,0:0:0:0:
448,192,242370,1,0,0:0:0:0:
192,192,242499,1,0,0:0:0:0:
64,192,242627,1,0,0:0:0:0:
448,192,242627,1,0,0:0:0:0:
448,192,242883,1,0,0:0:0:0:
192,192,242883,1,0,0:0:0:0:
320,192,243011,1,0,0:0:0:0:
192,192,243075,1,0,0:0:0:0:
64,192,243139,128,0,243203:0:0:0:0:
320,192,243139,128,0,243203:0:0:0:0:
64,192,243268,128,0,243332:0:0:0:0:
320,192,243396,1,0,0:0:0:0:
448,192,243396,1,0,0:0:0:0:
192,192,243524,1,0,0:0:0:0:
64,192,243652,1,0,0:0:0:0:
320,192,243652,1,0,0:0:0:0:
320,192,243780,128,0,243908:0:0:0:0:
64,192,243908,1,0,0:0:0:0:
448,192,243908,1,0,0:0:0:0:
192,192,243972,1,0,0:0:0:0:
448,192,244036,1,0,0:0:0:0:
320,192,244101,1,0,0:0:0:0:
192,192,244165,128,0,244677:0:0:0:0:
64,192,244165,1,0,0:0:0:0:
448,192,244421,1,0,0:0:0:0:
64,192,244549,1,0,0:0:0:0:
448,192,244677,1,0,0:0:0:0:
320,192,244677,1,0,0:0:0:0:
320,192,244805,1,0,0:0:0:0:
64,192,244934,1,0,0:0:0:0:
448,192,245062,1,0,0:0:0:0:
64,192,245190,1,0,0:0:0:0:
192,192,245190,128,0,245318:0:0:0:0:
320,192,245318,1,0,0:0:0:0:
448,192,245446,1,0,0:0:0:0:
192,192,245446,128,0,245574:0:0:0:0:
320,192,245510,1,0,0:0:0:0:
64,192,245574,1,0,0:0:0:0:
448,192,245703,128,0,245959:0:0:0:0:
192,192,245703,128,0,245831:0:0:0:0:
320,192,245831,1,0,0:0:0:0:
64,192,245959,128,0,246215:0:0:0:0:
192,192,245959,128,0,246087:0:0:0:0:
320,192,246215,128,0,247241:0:0:0:0:
448,192,246215,1,0,0:0:0:0:
192,192,246343,1,0,0:0:0:0:
64,192,246407,1,0,0:0:0:0:
448,192,246472,1,0,0:0:0:0:
64,192,246600,1,0,0:0:0:0:
192,192,246664,1,0,0:0:0:0:
64,192,246728,1,0,0:0:0:0:
448,192,246728,1,0,0:0:0:0:
192,192,246984,1,0,0:0:0:0:
64,192,246984,1,0,0:0:0:0:
448,192,247112,128,0,247241:0:0:0:0:
64,192,247241,1,0,0:0:0:0:
320,192,247369,1,0,0:0:0:0:
64,192,247497,128,0,247753:0:0:0:0:
192,192,247497,1,0,0:0:0:0:
448,192,247753,1,0,0:0:0:0:
192,192,247753,1,0,0:0:0:0:
320,192,247881,1,0,0:0:0:0:
64,192,248009,128,0,248138:0:0:0:0:
192,192,248074,128,0,248138:0:0:0:0:
320,192,248138,128,0,248266:0:0:0:0:
192,192,248266,128,0,248522:0:0:0:0:
448,192,248266,1,0,0:0:0:0:
64,192,248394,1,0,0:0:0:0:
320,192,248522,1,0,0:0:0:0:
448,192,248650,1,0,0:0:0:0:
192,192,248778,128,0,249291:0:0:0:0:
64,192,248778,1,0,0:0:0:0:
320,192,249035,1,0,0:0:0:0:
448,192,249163,1,0,0:0:0:0:
320,192,249291,1,0,0:0:0:0:
64,192,249291,128,0,249804:0:0:0:0:
448,192,249419,1,0,0:0:0:0:
192,192,249547,1,0,0:0:0:0:
320,192,249676,1,0,0:0:0:0:
192,192,249804,1,0,0:0:0:0:
448,192,249804,128,0,250316:0:0:0:0:
320,192,249932,1,0,0:0:0:0:
64,192,250060,1,0,0:0:0:0:
192,192,250060,1,0,0:0:0:0:
192,192,250316,128,0,251085:0:0:0:0:
320,192,250316,128,0,250445:0:0:0:0:
64,192,250573,1,0,0:0:0:0:
448,192,250701,1,0,0:0:0:0:
320,192,250829,1,0,0:0:0:0:
64,192,250829,1,0,0:0:0:0:
320,192,251085,1,0,0:0:0:0:
448,192,251085,128,0,251149:0:0:0:0:
64,192,251214,128,0,251278:0:0:0:0:
192,192,251342,1,0,0:0:0:0:
320,192,251342,128,0,251406:0:0:0:0:
320,192,251470,128,0,251534:0:0:0:0:
64,192,251598,1,0,0:0:0:0:
192,192,251598,128,0,251662:0:0:0:0:
448,192,251726,1,0,0:0:0:0:
192,192,251726,128,0,251790:0:0:0:0:
448,192,251854,128,0,252111:0:0:0:0:
192,192,251854,128,0,252111:0:0:0:0:
320,192,252111,1,0,0:0:0:0:
64,192,252111,1,0,0:0:0:0:
64,192,252239,1,0,0:0:0:0:
320,192,252239,1,0,0:0:0:0:
192,192,252303,1,0,0:0:0:0:
448,192,252367,1,0,0:0:0:0:
320,192,252367,1,0,0:0:0:0:
192,192,252410,1,0,0:0:0:0:
64,192,252452,1,0,0:0:0:0:
448,192,252495,1,0,0:0:0:0:
320,192,252538,1,0,0:0:0:0:
192,192,252581,1,0,0:0:0:0:
64,192,252623,1,0,0:0:0:0:
320,192,252751,1,0,0:0:0:0:
448,192,252880,128,0,253008:0:0:0:0:
64,192,252880,128,0,253008:0:0:0:0:
64,192,253136,1,0,0:0:0:0:
192,192,253136,1,0,0:0:0:0:
320,192,253136,1,0,0:0:0:0:
448,192,253136,1,0,0:0:0:0:
320,192,253264,1,0,0:0:0:0:
448,192,253392,128,0,253649:0:0:0:0:
192,192,253392,1,0,0:0:0:0:
192,192,253649,1,0,0:0:0:0:
64,192,253649,1,0,0:0:0:0:
320,192,253777,1,0,0:0:0:0:
192,192,253905,1,0,0:0:0:0:
448,192,253905,1,0,0:0:0:0:
64,192,253905,1,0,0:0:0:0:
320,192,253905,1,0,0:0:0:0:
192,192,254033,1,0,0:0:0:0:
448,192,254161,1,0,0:0:0:0:
64,192,254161,1,0,0:0:0:0:
320,192,254289,1,0,0:0:0:0:
192,192,254418,1,0,0:0:0:0:
64,192,254418,1,0,0:0:0:0:
320,192,254482,1,0,0:0:0:0:
448,192,254546,1,0,0:0:0:0:
320,192,254674,1,0,0:0:0:0:
192,192,254738,1,0,0:0:0:0:
64,192,254802,1,0,0:0:0:0:
448,192,254930,1,0,0:0:0:0:
320,192,254930,1,0,0:0:0:0:
192,192,255058,1,0,0:0:0:0:
448,192,255187,1,0,0:0:0:0:
64,192,255187,1,0,0:0:0:0:
320,192,255187,1,0,0:0:0:0:
192,192,255315,1,0,0:0:0:0:
64,192,255443,1,0,0:0:0:0:
448,192,255443,1,0,0:0:0:0:
320,192,255571,1,0,0:0:0:0:
192,192,255699,1,0,0:0:0:0:
320,192,255827,1,0,0:0:0:0:
448,192,255955,1,0,0:0:0:0:
64,192,255955,1,0,0:0:0:0:
192,192,256084,1,0,0:0:0:0:
448,192,256212,1,0,0:0:0:0:
320,192,256212,1,0,0:0:0:0:
448,192,256340,1,0,0:0:0:0:
64,192,256340,1,0,0:0:0:0:
192,192,256468,128,0,256724:0:0:0:0:
320,192,256596,1,0,0:0:0:0:
64,192,256724,128,0,256853:0:0:0:0:
448,192,256853,128,0,256981:0:0:0:0:
192,192,256981,1,0,0:0:0:0:
320,192,256981,1,0,0:0:0:0:
320,192,257109,1,0,0:0:0:0:
64,192,257109,1,0,0:0:0:0:
192,192,257237,1,0,0:0:0:0:
448,192,257301,1,0,0:0:0:0:
320,192,257365,1,0,0:0:0:0:
64,192,257429,1,0,0:0:0:0:
192,192,257493,128,0,257750:0:0:0:0:
320,192,257622,1,0,0:0:0:0:
448,192,257750,128,0,258006:0:0:0:0:
64,192,257878,1,0,0:0:0:0:
320,192,258006,128,0,258262:0:0:0:0:
192,192,258134,1,0,0:0:0:0:
64,192,258262,128,0,258519:0:0:0:0:
448,192,258391,1,0,0:0:0:0:
320,192,258455,1,0,0:0:0:0:
192,192,258519,128,0,259031:0:0:0:0:
448,192,258647,1,0,0:0:0:0:
64,192,258775,1,0,0:0:0:0:
448,192,258903,1,0,0:0:0:0:
64,192,259031,1,0,0:0:0:0:
320,192,259031,1,0,0:0:0:0:
320,192,259288,1,0,0:0:0:0:
64,192,259416,1,0,0:0:0:0:
192,192,259480,1,0,0:0:0:0:
448,192,259544,128,0,259672:0:0:0:0:
320,192,259544,1,0,0:0:0:0:
64,192,259672,128,0,259800:0:0:0:0:
192,192,259800,128,0,260057:0:0:0:0:
448,192,259928,1,0,0:0:0:0:
64,192,260057,1,0,0:0:0:0:
320,192,260057,1,0,0:0:0:0:
448,192,260313,1,0,0:0:0:0:
320,192,260377,1,0,0:0:0:0:
64,192,260441,1,0,0:0:0:0:
192,192,260505,1,0,0:0:0:0:
320,192,260569,128,0,261082:0:0:0:0:
448,192,260569,1,0,0:0:0:0:
64,192,260826,1,0,0:0:0:0:
448,192,260954,1,0,0:0:0:0:
64,192,261082,1,0,0:0:0:0:
192,192,261082,1,0,0:0:0:0:
448,192,261210,1,0,0:0:0:0:
192,192,261338,1,0,0:0:0:0:
320,192,261466,1,0,0:0:0:0:
64,192,261595,1,0,0:0:0:0:
448,192,261595,128,0,261723:0:0:0:0:
192,192,261723,1,0,0:0:0:0:
320,192,261851,1,0,0:0:0:0:
448,192,261851,128,0,261979:0:0:0:0:
192,192,261915,1,0,0:0:0:0:
64,192,261979,1,0,0:0:0:0:
192,192,262107,1,0,0:0:0:0:
448,192,262107,128,0,262235:0:0:0:0:
320,192,262235,1,0,0:0:0:0:
192,192,262299,1,0,0:0:0:0:
320,192,262364,1,0,0:0:0:0:
448,192,262364,128,0,262492:0:0:0:0:
64,192,262428,1,0,0:0:0:0:
192,192,262492,1,0,0:0:0:0:
192,192,262620,1,0,0:0:0:0:
448,192,262751,1,0,0:0:0:0:
64,192,262882,1,0,0:0:0:0:
192,192,263014,1,0,0:0:0:0:
448,192,263145,1,0,0:0:0:0:
320,192,263145,1,0,0:0:0:0:
320,192,263280,1,0,0:0:0:0:
192,192,263415,1,0,0:0:0:0:
192,192,263550,1,0,0:0:0:0:
64,192,263685,1,0,0:0:0:0:
448,192,263685,1,0,0:0:0:0:
192,192,263821,1,0,0:0:0:0:
448,192,263957,128,0,264230:0:0:0:0:
320,192,264094,1,0,0:0:0:0:
64,192,264230,1,0,0:0:0:0:
192,192,264230,1,0,0:0:0:0:
192,192,264370,1,0,0:0:0:0:
320,192,264510,128,0,264650:0:0:0:0:
64,192,264650,1,0,0:0:0:0:
192,192,264790,1,0,0:0:0:0:
448,192,264792,1,0,0:0:0:0:
320,192,264937,1,0,0:0:0:0:
64,192,265083,1,0,0:0:0:0:
192,192,265228,1,0,0:0:0:0:
320,192,265374,1,0,0:0:0:0:
192,192,265374,1,0,0:0:0:0:
448,192,265521,1,0,0:0:0:0:
192,192,265557,1,0,0:0:0:0:
64,192,265668,1,0,0:0:0:0:
320,192,265668,1,0,0:0:0:0:
448,192,265815,1,0,0:0:0:0:
64,192,265961,1,0,0:0:0:0:
192,192,265961,128,0,266037:0:0:0:0:
320,192,266114,1,0,0:0:0:0:
64,192,266267,1,0,0:0:0:0:
448,192,266267,128,0,266343:0:0:0:0:
448,192,266420,128,0,266496:0:0:0:0:
192,192,266573,128,0,266652:0:0:0:0:
320,192,266573,1,0,0:0:0:0:
448,192,266732,128,0,266812:0:0:0:0:
192,192,266812,128,0,266892:0:0:0:0:
448,192,266892,128,0,266976:0:0:0:0:
64,192,266976,128,0,267060:0:0:0:0:
320,192,267060,1,0,0:0:0:0:
192,192,267144,1,0,0:0:0:0:
320,192,267229,128,0,267537:0:0:0:0:
64,192,267846,1,0,0:0:0:0:
448,192,267846,1,0,0:0:0:0:
64,192,268007,1,0,0:0:0:0:
320,192,268168,1,0,0:0:0:0:
192,192,268329,1,0,0:0:0:0:
448,192,268490,1,0,0:0:0:0:
320,192,268490,1,0,0:0:0:0:
192,192,268651,1,0,0:0:0:0:
448,192,268732,1,0,0:0:0:0:
64,192,268812,1,0,0:0:0:0:
320,192,268812,1,0,0:0:0:0:
64,192,269014,1,0,0:0:0:0:
192,192,269054,1,0,0:0:0:0:
320,192,269094,1,0,0:0:0:0:
448,192,269135,1,0,0:0:0:0:
64,192,269135,1,0,0:0:0:0:
320,192,269215,1,0,0:0:0:0:
192,192,269296,1,0,0:0:0:0:
64,192,269377,1,0,0:0:0:0:
320,192,269457,1,0,0:0:0:0:
320,192,269618,1,0,0:0:0:0:
448,192,269779,1,0,0:0:0:0:
192,192,269779,1,0,0:0:0:0:
64,192,269941,1,0,0:0:0:0:
192,192,270102,1,0,0:0:0:0:
320,192,270102,1,0,0:0:0:0:
320,192,270424,1,0,0:0:0:0:
448,192,270424,1,0,0:0:0:0:
320,192,270746,1,0,0:0:0:0:
192,192,270908,1,0,0:0:0:0:
64,192,271069,1,0,0:0:0:0:
448,192,271069,1,0,0:0:0:0:
192,192,271230,1,0,0:0:0:0:
320,192,271391,128,0,271713:0:0:0:0:
448,192,271391,1,0,0:0:0:0:
64,192,271713,128,0,272358:0:0:0:0:
448,192,271713,1,0,0:0:0:0:
320,192,272036,1,0,0:0:0:0:
320,192,272197,1,0,0:0:0:0:
448,192,272358,128,0,272680:0:0:0:0:
192,192,272358,1,0,0:0:0:0:
320,192,272519,1,0,0:0:0:0:
192,192,272680,1,0,0:0:0:0:
64,192,272680,1,0,0:0:0:0:
64,192,273003,1,0,0:0:0:0:
320,192,273003,1,0,0:0:0:0:
320,192,273164,1,0,0:0:0:0:
192,192,273325,1,0,0:0:0:0:
448,192,273325,1,0,0:0:0:0:
192,192,273486,1,0,0:0:0:0:
64,192,273647,1,0,0:0:0:0:
448,192,273647,1,0,0:0:0:0:
320,192,273808,1,0,0:0:0:0:
64,192,273889,1,0,0:0:0:0:
192,192,273970,1,0,0:0:0:0:
448,192,273970,1,0,0:0:0:0:
64,192,274131,1,0,0:0:0:0:
192,192,274171,1,0,0:0:0:0:
448,192,274211,1,0,0:0:0:0:
320,192,274252,1,0,0:0:0:0:
192,192,274292,1,0,0:0:0:0:
64,192,274292,1,0,0:0:0:0:
320,192,274372,1,0,0:0:0:0:
448,192,274453,1,0,0:0:0:0:
64,192,274534,1,0,0:0:0:0:
192,192,274614,1,0,0:0:0:0:
448,192,274614,1,0,0:0:0:0:
320,192,274695,1,0,0:0:0:0:
192,192,274775,1,0,0:0:0:0:
320,192,274856,1,0,0:0:0:0:
448,192,274936,1,0,0:0:0:0:
64,192,274936,1,0,0:0:0:0:
192,192,275098,1,0,0:0:0:0:
64,192,275259,1,0,0:0:0:0:
320,192,275259,1,0,0:0:0:0:
192,192,275581,1,0,0:0:0:0:
448,192,275581,1,0,0:0:0:0:
320,192,275742,1,0,0:0:0:0:
64,192,275903,1,0,0:0:0:0:
192,192,275903,1,0,0:0:0:0:
448,192,276226,1,0,0:0:0:0:
320,192,276226,1,0,0:0:0:0:
192,192,276306,1,0,0:0:0:0:
448,192,276387,1,0,0:0:0:0:
320,192,276467,1,0,0:0:0:0:
64,192,276548,1,0,0:0:0:0:
192,192,276548,1,0,0:0:0:0:
320,192,276629,1,0,0:0:0:0:
192,192,276709,1,0,0:0:0:0:
320,192,276790,1,0,0:0:0:0:
64,192,276870,1,0,0:0:0:0:
448,192,276870,1,0,0:0:0:0:
64,192,277032,1,0,0:0:0:0:
448,192,277112,1,0,0:0:0:0:
192,192,277193,1,0,0:0:0:0:
192,192,277354,1,0,0:0:0:0:
320,192,277515,128,0,277837:0:0:0:0:
448,192,277515,1,0,0:0:0:0:
64,192,277676,1,0,0:0:0:0:
448,192,277837,1,0,0:0:0:0:
192,192,277837,1,0,0:0:0:0:
192,192,277998,1,0,0:0:0:0:
64,192,278160,1,0,0:0:0:0:
448,192,278160,1,0,0:0:0:0:
448,192,278321,1,0,0:0:0:0:
64,192,278482,1,0,0:0:0:0:
192,192,278482,1,0,0:0:0:0:
192,192,278643,1,0,0:0:0:0:
64,192,278804,1,0,0:0:0:0:
448,192,278804,1,0,0:0:0:0:
320,192,278965,1,0,0:0:0:0:
192,192,279046,1,0,0:0:0:0:
320,192,279127,1,0,0:0:0:0:
448,192,279127,1,0,0:0:0:0:
64,192,279288,1,0,0:0:0:0:
192,192,279328,1,0,0:0:0:0:
320,192,279368,1,0,0:0:0:0:
448,192,279409,1,0,0:0:0:0:
192,192,279449,1,0,0:0:0:0:
64,192,279449,1,0,0:0:0:0:
320,192,279530,1,0,0:0:0:0:
448,192,279610,1,0,0:0:0:0:
64,192,279691,1,0,0:0:0:0:
320,192,279771,1,0,0:0:0:0:
192,192,279932,1,0,0:0:0:0:
448,192,280094,1,0,0:0:0:0:
64,192,280094,1,0,0:0:0:0:
320,192,280255,1,0,0:0:0:0:
64,192,280416,1,0,0:0:0:0:
192,192,280416,1,0,0:0:0:0:
320,192,280523,1,0,0:0:0:0:
448,192,280577,1,0,0:0:0:0:
64,192,280631,1,0,0:0:0:0:
192,192,280684,1,0,0:0:0:0:
320,192,280738,1,0,0:0:0:0:
448,192,280738,1,0,0:0:0:0:
192,192,281061,1,0,0:0:0:0:
320,192,281141,1,0,0:0:0:0:
192,192,281222,1,0,0:0:0:0:
64,192,281383,1,0,0:0:0:0:
448,192,281383,1,0,0:0:0:0:
320,192,281544,1,0,0:0:0:0:
192,192,281625,1,0,0:0:0:0:
320,192,281705,1,0,0:0:0:0:
64,192,281705,1,0,0:0:0:0:
192,192,281866,1,0,0:0:0:0:
320,192,281947,1,0,0:0:0:0:
192,192,282027,1,0,0:0:0:0:
448,192,282027,1,0,0:0:0:0:
320,192,282189,1,0,0:0:0:0:
192,192,282269,1,0,0:0:0:0:
448,192,282350,1,0,0:0:0:0:
64,192,282511,1,0,0:0:0:0:
192,192,282592,1,0,0:0:0:0:
320,192,282672,128,0,282994:0:0:0:0:
448,192,282672,1,0,0:0:0:0:
192,192,282833,1,0,0:0:0:0:
64,192,282914,1,0,0:0:0:0:
192,192,282994,1,0,0:0:0:0:
448,192,282994,1,0,0:0:0:0:
448,192,283317,1,0,0:0:0:0:
64,192,283317,1,0,0:0:0:0:
192,192,283478,1,0,0:0:0:0:
320,192,283558,1,0,0:0:0:0:
64,192,283639,1,0,0:0:0:0:
64,192,283800,1,0,0:0:0:0:
192,192,283961,1,0,0:0:0:0:
448,192,283961,1,0,0:0:0:0:
320,192,284123,1,0,0:0:0:0:
64,192,284203,1,0,0:0:0:0:
192,192,284284,1,0,0:0:0:0:
320,192,284284,1,0,0:0:0:0:
448,192,284445,1,0,0:0:0:0:
320,192,284485,1,0,0:0:0:0:
64,192,284525,1,0,0:0:0:0:
192,192,284566,1,0,0:0:0:0:
320,192,284606,1,0,0:0:0:0:
448,192,284606,1,0,0:0:0:0:
192,192,284687,1,0,0:0:0:0:
64,192,284767,1,0,0:0:0:0:
448,192,284848,1,0,0:0:0:0:
192,192,284928,1,0,0:0:0:0:
192,192,285089,1,0,0:0:0:0:
320,192,285170,1,0,0:0:0:0:
448,192,285251,1,0,0:0:0:0:
64,192,285251,1,0,0:0:0:0:
192,192,285412,1,0,0:0:0:0:
320,192,285573,1,0,0:0:0:0:
448,192,285573,1,0,0:0:0:0:
448,192,285895,1,0,0:0:0:0:
64,192,285895,1,0,0:0:0:0:
192,192,286056,1,0,0:0:0:0:
320,192,286137,1,0,0:0:0:0:
192,192,286218,1,0,0:0:0:0:
64,192,286218,1,0,0:0:0:0:
320,192,286379,1,0,0:0:0:0:
192,192,286459,1,0,0:0:0:0:
448,192,286540,1,0,0:0:0:0:
320,192,286540,1,0,0:0:0:0:
64,192,286701,1,0,0:0:0:0:
320,192,286782,1,0,0:0:0:0:
192,192,286862,128,0,286943:0:0:0:0:
448,192,286862,1,0,0:0:0:0:
192,192,287023,128,0,287104:0:0:0:0:
320,192,287185,128,0,287265:0:0:0:0:
64,192,287185,1,0,0:0:0:0:
320,192,287346,128,0,287426:0:0:0:0:
64,192,287426,128,0,287507:0:0:0:0:
448,192,287507,128,0,287587:0:0:0:0:
192,192,287587,128,0,287668:0:0:0:0:
320,192,287668,1,0,0:0:0:0:
64,192,287749,1,0,0:0:0:0:
448,192,287829,128,0,288151:0:0:0:0:
192,192,287829,1,0,0:0:0:0:
320,192,287990,1,0,0:0:0:0:
192,192,288151,1,0,0:0:0:0:
64,192,288151,1,0,0:0:0:0:
320,192,288474,1,0,0:0:0:0:
192,192,288474,1,0,0:0:0:0:
320,192,288635,1,0,0:0:0:0:
448,192,288796,1,0,0:0:0:0:
64,192,288796,1,0,0:0:0:0:
64,192,288957,1,0,0:0:0:0:
448,192,289118,1,0,0:0:0:0:
192,192,289118,1,0,0:0:0:0:
320,192,289280,1,0,0:0:0:0:
192,192,289360,1,0,0:0:0:0:
448,192,289441,1,0,0:0:0:0:
64,192,289441,1,0,0:0:0:0:
320,192,289602,128,0,289763:0:0:0:0:
192,192,289763,1,0,0:0:0:0:
448,192,289763,1,0,0:0:0:0:
64,192,289844,1,0,0:0:0:0:
320,192,289924,1,0,0:0:0:0:
192,192,290005,1,0,0:0:0:0:
448,192,290085,1,0,0:0:0:0:
64,192,290247,1,0,0:0:0:0:
320,192,290408,1,0,0:0:0:0:
192,192,290408,1,0,0:0:0:0:
64,192,290569,1,0,0:0:0:0:
448,192,290730,1,0,0:0:0:0:
192,192,290730,1,0,0:0:0:0:
448,192,290891,1,0,0:0:0:0:
64,192,291052,1,0,0:0:0:0:
448,192,291052,1,0,0:0:0:0:
192,192,291375,1,0,0:0:0:0:
192,192,291536,1,0,0:0:0:0:
192,192,291697,1,0,0:0:0:0:
320,192,291697,1,0,0:0:0:0:
448,192,291778,1,0,0:0:0:0:
64,192,291939,1,0,0:0:0:0:
320,192,292019,128,0,292342:0:0:0:0:
448,192,292019,1,0,0:0:0:0:
64,192,292342,128,0,292986:0:0:0:0:
192,192,292342,1,0,0:0:0:0:
448,192,292422,1,0,0:0:0:0:
192,192,292503,1,0,0:0:0:0:
320,192,292664,1,0,0:0:0:0:
448,192,292825,1,0,0:0:0:0:
320,192,292986,1,0,0:0:0:0:
192,192,292986,1,0,0:0:0:0:
320,192,293147,1,0,0:0:0:0:
64,192,293309,1,0,0:0:0:0:
448,192,293309,1,0,0:0:0:0:
192,192,293631,1,0,0:0:0:0:
64,192,293631,1,0,0:0:0:0:
192,192,293792,1,0,0:0:0:0:
448,192,293953,1,0,0:0:0:0:
448,192,294114,1,0,0:0:0:0:
64,192,294276,1,0,0:0:0:0:
320,192,294276,1,0,0:0:0:0:
192,192,294437,1,0,0:0:0:0:
448,192,294517,1,0,0:0:0:0:
320,192,294598,1,0,0:0:0:0:
64,192,294598,1,0,0:0:0:0:
192,192,294678,1,0,0:0:0:0:
320,192,294759,1,0,0:0:0:0:
448,192,294799,1,0,0:0:0:0:
64,192,294840,1,0,0:0:0:0:
192,192,294880,1,0,0:0:0:0:
320,192,294920,1,0,0:0:0:0:
448,192,294920,1,0,0:0:0:0:
192,192,295001,1,0,0:0:0:0:
64,192,295081,1,0,0:0:0:0:
448,192,295162,1,0,0:0:0:0:
192,192,295242,1,0,0:0:0:0:
320,192,295404,1,0,0:0:0:0:
448,192,295565,1,0,0:0:0:0:
64,192,295565,1,0,0:0:0:0:
320,192,295726,1,0,0:0:0:0:
64,192,295887,1,0,0:0:0:0:
192,192,295887,1,0,0:0:0:0:
448,192,296209,1,0,0:0:0:0:
64,192,296209,1,0,0:0:0:0:
192,192,296371,1,0,0:0:0:0:
320,192,296532,1,0,0:0:0:0:
448,192,296532,1,0,0:0:0:0:
64,192,296854,1,0,0:0:0:0:
320,192,296854,1,0,0:0:0:0:
192,192,297015,1,0,0:0:0:0:
448,192,297176,128,0,297257:0:0:0:0:
64,192,297176,1,0,0:0:0:0:
448,192,297338,128,0,297418:0:0:0:0:
320,192,297499,1,0,0:0:0:0:
192,192,297499,128,0,297579:0:0:0:0:
64,192,297660,128,0,297740:0:0:0:0:
448,192,297740,128,0,297821:0:0:0:0:
192,192,297821,128,0,297902:0:0:0:0:
320,192,297902,128,0,297982:0:0:0:0:
192,192,297982,1,0,0:0:0:0:
448,192,298143,1,0,0:0:0:0:
64,192,298143,128,0,298466:0:0:0:0:
192,192,298304,1,0,0:0:0:0:
448,192,298466,1,0,0:0:0:0:
320,192,298466,1,0,0:0:0:0:
448,192,298788,1,0,0:0:0:0:
64,192,298788,1,0,0:0:0:0:
64,192,298949,1,0,0:0:0:0:
448,192,299110,1,0,0:0:0:0:
320,192,299110,1,0,0:0:0:0:
320,192,299271,1,0,0:0:0:0:
448,192,299433,1,0,0:0:0:0:
192,192,299433,1,0,0:0:0:0:
64,192,299594,1,0,0:0:0:0:
320,192,299674,1,0,0:0:0:0:
64,192,299755,1,0,0:0:0:0:
192,192,299755,1,0,0:0:0:0:
448,192,299916,1,0,0:0:0:0:
320,192,299956,1,0,0:0:0:0:
64,192,299997,1,0,0:0:0:0:
192,192,300037,1,0,0:0:0:0:
448,192,300077,1,0,0:0:0:0:
320,192,300077,1,0,0:0:0:0:
192,192,300158,1,0,0:0:0:0:
64,192,300238,1,0,0:0:0:0:
448,192,300319,1,0,0:0:0:0:
192,192,300400,1,0,0:0:0:0:
448,192,300561,1,0,0:0:0:0:
192,192,300722,1,0,0:0:0:0:
320,192,300722,1,0,0:0:0:0:
192,192,300883,1,0,0:0:0:0:
448,192,301044,1,0,0:0:0:0:
64,192,301044,1,0,0:0:0:0:
320,192,301366,1,0,0:0:0:0:
448,192,301366,1,0,0:0:0:0:
192,192,301689,1,0,0:0:0:0:
192,192,301850,1,0,0:0:0:0:
320,192,302011,1,0,0:0:0:0:
64,192,302011,1,0,0:0:0:0:
192,192,302333,128,0,302656:0:0:0:0:
448,192,302333,1,0,0:0:0:0:
448,192,302656,128,0,302978:0:0:0:0:
64,192,302656,1,0,0:0:0:0:
320,192,302978,128,0,303300:0:0:0:0:
192,192,303139,1,0,0:0:0:0:
64,192,303300,128,0,303623:0:0:0:0:
448,192,303300,1,0,0:0:0:0:
192,192,303462,1,0,0:0:0:0:
448,192,303623,1,0,0:0:0:0:
320,192,303623,1,0,0:0:0:0:
192,192,303945,1,0,0:0:0:0:
448,192,303945,1,0,0:0:0:0:
192,192,304106,1,0,0:0:0:0:
320,192,304267,1,0,0:0:0:0:
320,192,304429,1,0,0:0:0:0:
192,192,304590,1,0,0:0:0:0:
64,192,304590,1,0,0:0:0:0:
192,192,304751,1,0,0:0:0:0:
448,192,304831,1,0,0:0:0:0:
64,192,304912,1,0,0:0:0:0:
320,192,304912,1,0,0:0:0:0:
192,192,305073,1,0,0:0:0:0:
64,192,305113,1,0,0:0:0:0:
448,192,305154,1,0,0:0:0:0:
320,192,305194,1,0,0:0:0:0:
64,192,305234,1,0,0:0:0:0:
192,192,305234,1,0,0:0:0:0:
320,192,305315,1,0,0:0:0:0:
448,192,305395,1,0,0:0:0:0:
64,192,305476,1,0,0:0:0:0:
192,192,305557,1,0,0:0:0:0:
448,192,305718,1,0,0:0:0:0:
192,192,305879,1,0,0:0:0:0:
320,192,305879,1,0,0:0:0:0:
64,192,306040,1,0,0:0:0:0:
448,192,306201,1,0,0:0:0:0:
192,192,306201,1,0,0:0:0:0:
320,192,306524,1,0,0:0:0:0:
448,192,306524,1,0,0:0:0:0:
192,192,306685,1,0,0:0:0:0:
448,192,306846,1,0,0:0:0:0:
64,192,306846,1,0,0:0:0:0:
64,192,307168,1,0,0:0:0:0:
192,192,307168,1,0,0:0:0:0:
320,192,307329,1,0,0:0:0:0:
192,192,307491,128,0,307571:0:0:0:0:
448,192,307491,1,0,0:0:0:0:
192,192,307652,128,0,307732:0:0:0:0:
320,192,307813,128,0,307893:0:0:0:0:
448,192,307813,1,0,0:0:0:0:
64,192,307974,128,0,308055:0:0:0:0:
192,192,308055,128,0,308135:0:0:0:0:
448,192,308135,1,0,0:0:0:0:
320,192,308189,1,0,0:0:0:0:
64,192,308243,1,0,0:0:0:0:
192,192,308296,1,0,0:0:0:0:
320,192,308337,1,0,0:0:0:0:
448,192,308377,1,0,0:0:0:0:
64,192,308417,1,0,0:0:0:0:
192,192,308457,1,0,0:0:0:0:
320,192,308457,1,0,0:0:0:0:
192,192,308740,1,0,0:0:0:0:
320,192,309102,1,0,0:0:0:0:
448,192,309102,1,0,0:0:0:0:
448,192,309263,1,0,0:0:0:0:
64,192,309263,1,0,0:0:0:0:
64,192,309424,1,0,0:0:0:0:
320,192,309424,1,0,0:0:0:0:
192,192,309586,1,0,0:0:0:0:
320,192,309586,1,0,0:0:0:0:
192,192,309747,1,0,0:0:0:0:
320,192,309908,1,0,0:0:0:0:
64,192,309988,1,0,0:0:0:0:
448,192,310069,1,0,0:0:0:0:
192,192,310230,128,0,310391:0:0:0:0:
448,192,310391,1,0,0:0:0:0:
320,192,310391,1,0,0:0:0:0:
64,192,310472,1,0,0:0:0:0:
448,192,310553,1,0,0:0:0:0:
192,192,310633,1,0,0:0:0:0:
192,192,310875,1,0,0:0:0:0:
448,192,311681,128,0,314259:0:0:0:0:
64,192,312648,128,0,313937:0:0:0:0:
320,192,313615,128,0,313937:0:0:0:0:
192,192,313937,128,0,314098:0:0:0:0:
320,192,314098,128,0,314259:0:0:0:0:
64,192,314259,1,0,0:0:0:0:
192,192,314259,128,0,316193:0:0:0:0:
320,192,314420,1,0,0:0:0:0:
64,192,314582,1,0,0:0:0:0:
448,192,314743,1,0,0:0:0:0:
320,192,314904,1,0,0:0:0:0:
64,192,315065,1,0,0:0:0:0:
448,192,315119,1,0,0:0:0:0:
320,192,315226,1,0,0:0:0:0:
64,192,315387,128,0,315468:0:0:0:0:
448,192,315548,1,0,0:0:0:0:
320,192,315548,1,0,0:0:0:0:
64,192,315629,1,0,0:0:0:0:
448,192,315710,1,0,0:0:0:0:
320,192,316032,1,0,0:0:0:0:
448,192,316193,128,0,318127:0:0:0:0:
192,192,317805,128,0,317885:0:0:0:0:
192,192,317966,128,0,318046:0:0:0:0:
64,192,318127,128,0,318208:0:0:0:0:
448,192,318288,128,0,318369:0:0:0:0:
192,192,318369,128,0,318449:0:0:0:0:
320,192,318449,128,0,318530:0:0:0:0:
64,192,318530,128,0,318610:0:0:0:0:
64,192,318772,128,0,320706:0:0:0:0:
320,192,318772,128,0,318933:0:0:0:0:
448,192,318772,128,0,319094:0:0:0:0:
192,192,318933,128,0,319094:0:0:0:0:
320,192,319094,128,0,319255:0:0:0:0:
192,192,319255,128,0,319416:0:0:0:0:
192,192,319739,128,0,319900:0:0:0:0:
448,192,319900,128,0,320061:0:0:0:0:
320,192,320061,128,0,320222:0:0:0:0:
192,192,320222,128,0,320383:0:0:0:0:
448,192,320383,128,0,320544:0:0:0:0:
320,192,320544,128,0,320706:0:0:0:0:
192,192,320706,128,0,321995:0:0:0:0:
448,192,320867,128,0,321995:0:0:0:0:
320,192,321995,128,0,324573:0:0:0:0:
448,192,322639,128,0,324573:0:0:0:0:
64,192,323123,128,0,324896:0:0:0:0:
192,192,324573,128,0,324734:0:0:0:0:
448,192,324734,128,0,324896:0:0:0:0:
192,192,324896,128,0,327797:0:0:0:0:
320,192,326507,128,0,328441:0:0:0:0:
64,192,329086,128,0,329408:0:0:0:0:
448,192,329408,128,0,331020:0:0:0:0:
192,192,331020,128,0,331342:0:0:0:0:
320,192,331342,128,0,334887:0:0:0:0:
448,192,332309,128,0,335532:0:0:0:0:
64,192,334887,128,0,336821:0:0:0:0:
320,192,336821,128,0,337466:0:0:0:0:
64,192,337144,128,0,337788:0:0:0:0:
448,192,337466,128,0,338111:0:0:0:0:
192,192,337788,128,0,340850:0:0:0:0:
