osu file format v14

[General]
AudioFilename: Kohaku no Yume.mp3
AudioLeadIn: 0
PreviewTime: 66391
Countdown: 0
SampleSet: Soft
StackLeniency: 0.7
Mode: 3
LetterboxInBreaks: 0
SpecialStyle: 0
WidescreenStoryboard: 0

[Editor]
Bookmarks: 10724,18724,32058,42724,53391,58724,61391,66724,77391,96391
DistanceSpacing: 1.2
BeatDivisor: 4
GridSize: 4
TimelineZoom: 0.8999999

[Metadata]
Title:Kohaku no Yume
TitleUnicode:虚白ノ夢
Artist:Teriyaki Tomato
ArtistUnicode:てりやきトマト
Creator:[RhythmSoul]
Version:Easy
Source:虚白ノ夢
Tags:カナヲ ミシロ ユズ リョウタロウ 彩人 Blank Dream
BeatmapID:908074
BeatmapSetID:399808

[Difficulty]
HPDrainRate:6
CircleSize:4
OverallDifficulty:7
ApproachRate:5
SliderMultiplier:1.4
SliderTickRate:1

[Events]
//Background and Video events
0,0,"BG.jpg",0,0
//Break Periods
//Storyboard Layer 0 (Background)
//Storyboard Layer 1 (Fail)
//Storyboard Layer 2 (Pass)
//Storyboard Layer 3 (Foreground)
//Storyboard Layer 4 (Overlay)
//Storyboard Sound Samples

[TimingPoints]
58,666.666666666667,4,2,0,5,1,0
10724,-100,4,2,0,20,0,0
18724,-100,4,2,0,5,0,0
32058,-100,4,2,0,20,0,0
42724,-100,4,2,0,5,0,0
58724,-100,4,2,0,20,0,0
61391,-100,4,2,0,5,0,0
66724,-100,4,2,0,40,0,1
82724,-100,4,2,0,5,0,1
86391,-100,4,2,0,20,0,0
93391,750,4,2,0,20,1,0
96391,-100,4,2,0,5,0,0

[HitObjects]
320,192,58,128,0,724:0:0:0:0:
192,192,891,1,0,0:0:0:0:
64,192,1058,128,0,2724:0:0:0:0:
192,192,1724,1,0,0:0:0:0:
320,192,2058,1,0,0:0:0:0:
448,192,2391,1,0,0:0:0:0:
192,192,2724,128,0,3391:0:0:0:0:
320,192,3558,1,0,0:0:0:0:
448,192,3724,128,0,5391:0:0:0:0:
64,192,4391,1,0,0:0:0:0:
192,192,4724,1,0,0:0:0:0:
320,192,5058,1,0,0:0:0:0:
192,192,5391,1,0,0:0:0:0:
64,192,5891,1,0,0:0:0:0:
64,192,6391,128,0,8058:0:0:0:0:
448,192,7058,1,0,0:0:0:0:
192,192,7724,1,0,0:0:0:0:
448,192,8058,128,0,9724:0:0:0:0:
320,192,8391,1,0,0:0:0:0:
192,192,8558,1,0,0:0:0:0:
64,192,8724,1,0,0:0:0:0:
64,192,9724,1,0,0:0:0:0:
192,192,9891,1,0,0:0:0:0:
320,192,10058,1,0,0:0:0:0:
448,192,10724,1,0,0:0:0:0:
64,192,11058,1,0,0:0:0:0:
320,192,11391,1,0,0:0:0:0:
448,192,11391,1,0,0:0:0:0:
192,192,11724,1,8,0:0:0:0:
448,192,12058,1,0,0:0:0:0:
64,192,12391,1,0,0:0:0:0:
320,192,12724,1,0,0:0:0:0:
448,192,12724,1,0,0:0:0:0:
64,192,13058,1,8,0:0:0:0:
448,192,13391,1,0,0:0:0:0:
64,192,13724,1,0,0:0:0:0:
448,192,14058,1,0,0:0:0:0:
320,192,14058,1,0,0:0:0:0:
192,192,14391,1,8,0:0:0:0:
448,192,14724,1,0,0:0:0:0:
320,192,15058,1,0,0:0:0:0:
192,192,15391,1,0,0:0:0:0:
64,192,15724,1,8,0:0:0:0:
448,192,16058,1,0,0:0:0:0:
64,192,16391,1,0,0:0:0:0:
320,192,16724,1,0,0:0:0:0:
448,192,16724,1,0,0:0:0:0:
192,192,17058,1,8,0:0:0:0:
448,192,17391,1,0,0:0:0:0:
64,192,17724,1,0,0:0:0:0:
320,192,18058,1,0,0:0:0:0:
448,192,18058,1,0,0:0:0:0:
64,192,18391,1,8,0:0:0:0:
448,192,18724,128,0,21391:0:0:0:0:
192,192,18724,128,0,20058:0:0:0:0:
64,192,20058,128,0,21391:0:0:0:0:
320,192,21391,128,0,22058:0:0:0:0:
192,192,22224,1,0,0:0:0:0:
64,192,22391,128,0,24058:0:0:0:0:
192,192,24058,128,0,24724:0:0:0:0:
320,192,24891,1,0,0:0:0:0:
448,192,25058,128,0,26058:0:0:0:0:
64,192,26391,1,0,0:0:0:0:
192,192,26558,1,0,0:0:0:0:
320,192,26724,128,0,27391:0:0:0:0:
64,192,27558,1,0,0:0:0:0:
448,192,27724,1,0,0:0:0:0:
320,192,28224,1,0,0:0:0:0:
192,192,28391,1,0,0:0:0:0:
64,192,29058,1,0,0:0:0:0:
192,192,29224,1,0,0:0:0:0:
320,192,29391,128,0,30058:0:0:0:0:
448,192,30224,1,0,0:0:0:0:
64,192,30391,128,0,31058:0:0:0:0:
192,192,31058,1,0,0:0:0:0:
320,192,31224,1,0,0:0:0:0:
448,192,31391,1,0,0:0:0:0:
64,192,31724,1,0,0:0:0:0:
192,192,31891,1,0,0:0:0:0:
320,192,32058,1,0,0:0:0:0:
448,192,32724,1,0,0:0:0:0:
192,192,32724,1,0,0:0:0:0:
64,192,33058,1,8,0:0:0:0:
448,192,33724,1,0,0:0:0:0:
64,192,34058,1,0,0:0:0:0:
192,192,34058,1,0,0:0:0:0:
448,192,34391,1,8,0:0:0:0:
320,192,34558,1,0,0:0:0:0:
192,192,34724,1,0,0:0:0:0:
64,192,35391,1,0,0:0:0:0:
320,192,35391,1,0,0:0:0:0:
448,192,35724,1,8,0:0:0:0:
64,192,36391,1,0,0:0:0:0:
448,192,36724,1,0,0:0:0:0:
192,192,36724,1,0,0:0:0:0:
320,192,37058,1,8,0:0:0:0:
192,192,37224,1,0,0:0:0:0:
64,192,37391,1,0,0:0:0:0:
448,192,38058,1,0,0:0:0:0:
320,192,38058,1,0,0:0:0:0:
192,192,38391,1,8,0:0:0:0:
192,192,39058,1,0,0:0:0:0:
448,192,39391,1,0,0:0:0:0:
64,192,39391,1,0,0:0:0:0:
320,192,39724,1,8,0:0:0:0:
448,192,40058,1,0,0:0:0:0:
64,192,40724,1,0,0:0:0:0:
192,192,40724,1,0,0:0:0:0:
320,192,41058,1,8,0:0:0:0:
320,192,41724,1,0,0:0:0:0:
192,192,42058,1,0,0:0:0:0:
448,192,42058,1,0,0:0:0:0:
64,192,42724,1,0,0:0:0:0:
320,192,42724,1,0,0:0:0:0:
64,192,43391,1,0,0:0:0:0:
64,192,44058,1,0,0:0:0:0:
64,192,44724,1,0,0:0:0:0:
192,192,45391,1,0,0:0:0:0:
192,192,46058,1,0,0:0:0:0:
192,192,46724,1,0,0:0:0:0:
192,192,47391,1,0,0:0:0:0:
320,192,48058,1,0,0:0:0:0:
64,192,48058,1,0,0:0:0:0:
320,192,48724,1,0,0:0:0:0:
320,192,49391,1,0,0:0:0:0:
320,192,50058,1,0,0:0:0:0:
448,192,50724,1,0,0:0:0:0:
448,192,51391,1,0,0:0:0:0:
448,192,52058,128,0,52724:0:0:0:0:
320,192,52724,128,0,53391:0:0:0:0:
192,192,53391,128,0,54724:0:0:0:0:
64,192,54724,128,0,56058:0:0:0:0:
192,192,56058,128,0,57391:0:0:0:0:
448,192,57391,128,0,58058:0:0:0:0:
320,192,58058,128,0,58724:0:0:0:0:
64,192,58724,1,0,0:0:0:0:
320,192,59058,1,0,0:0:0:0:
64,192,59391,1,0,0:0:0:0:
192,192,59391,1,0,0:0:0:0:
448,192,59724,1,8,0:0:0:0:
64,192,60391,1,0,0:0:0:0:
320,192,60724,1,0,0:0:0:0:
448,192,60724,1,0,0:0:0:0:
192,192,61058,1,8,0:0:0:0:
64,192,61391,128,0,62724:0:0:0:0:
192,192,62724,128,0,64058:0:0:0:0:
448,192,64058,128,0,65391:0:0:0:0:
320,192,64058,128,0,65391:0:0:0:0:
64,192,66391,1,0,0:0:0:0:
192,192,66558,1,0,0:0:0:0:
448,192,66724,1,0,0:0:0:0:
192,192,67058,1,0,0:0:0:0:
320,192,67224,1,0,0:0:0:0:
448,192,67558,1,0,0:0:0:0:
64,192,67724,1,8,0:0:0:0:
64,192,68391,1,0,0:0:0:0:
320,192,68724,1,0,0:0:0:0:
192,192,68724,1,0,0:0:0:0:
448,192,69058,1,8,0:0:0:0:
64,192,69391,128,0,69891:0:0:0:0:
192,192,69891,128,0,70391:0:0:0:0:
448,192,70391,128,0,71058:0:0:0:0:
320,192,70391,128,8,71058:0:0:0:0:
64,192,71391,1,0,0:0:0:0:
192,192,71391,1,0,0:0:0:0:
320,192,71558,1,0,0:0:0:0:
448,192,71724,1,8,0:0:0:0:
64,192,72058,1,0,0:0:0:0:
320,192,72724,1,0,0:0:0:0:
448,192,72724,1,0,0:0:0:0:
64,192,73058,1,8,0:0:0:0:
448,192,73391,1,0,0:0:0:0:
320,192,73724,1,0,0:0:0:0:
192,192,73891,1,0,0:0:0:0:
64,192,74224,1,0,0:0:0:0:
448,192,74391,1,8,0:0:0:0:
64,192,74558,1,0,0:0:0:0:
448,192,74724,128,0,75224:0:0:0:0:
320,192,75224,128,0,75724:0:0:0:0:
64,192,75724,128,0,76391:0:0:0:0:
192,192,75724,128,8,76391:0:0:0:0:
448,192,76724,1,0,0:0:0:0:
320,192,76724,1,0,0:0:0:0:
192,192,77058,1,8,0:0:0:0:
64,192,77391,1,0,0:0:0:0:
192,192,77724,1,0,0:0:0:0:
320,192,77891,1,0,0:0:0:0:
448,192,78224,1,0,0:0:0:0:
64,192,78391,1,8,0:0:0:0:
64,192,79058,1,0,0:0:0:0:
320,192,79391,1,0,0:0:0:0:
192,192,79391,1,0,0:0:0:0:
448,192,79724,1,8,0:0:0:0:
64,192,80058,128,0,80558:0:0:0:0:
192,192,80558,128,0,81058:0:0:0:0:
448,192,81058,128,0,81724:0:0:0:0:
320,192,81058,128,8,81724:0:0:0:0:
192,192,82058,1,0,0:0:0:0:
64,192,82058,1,0,0:0:0:0:
320,192,82224,1,0,0:0:0:0:
448,192,82391,1,8,0:0:0:0:
64,192,82724,1,0,0:0:0:0:
192,192,83058,1,0,0:0:0:0:
320,192,83391,1,0,0:0:0:0:
448,192,83724,1,0,0:0:0:0:
448,192,84391,1,0,0:0:0:0:
320,192,84724,1,0,0:0:0:0:
192,192,85058,1,0,0:0:0:0:
320,192,85391,1,0,0:0:0:0:
64,192,85724,1,0,0:0:0:0:
448,192,86058,1,0,0:0:0:0:
448,192,86391,1,0,0:0:0:0:
320,192,87058,1,0,0:0:0:0:
64,192,87391,1,0,0:0:0:0:
448,192,87391,1,0,0:0:0:0:
192,192,87724,1,0,0:0:0:0:
320,192,88058,1,0,0:0:0:0:
320,192,88391,1,0,0:0:0:0:
448,192,88724,1,0,0:0:0:0:
192,192,88724,1,0,0:0:0:0:
64,192,89058,1,8,0:0:0:0:
320,192,89391,1,0,0:0:0:0:
320,192,89724,1,0,0:0:0:0:
192,192,90058,1,0,0:0:0:0:
448,192,90058,1,0,0:0:0:0:
64,192,90391,1,8,0:0:0:0:
320,192,90724,1,0,0:0:0:0:
320,192,91058,1,0,0:0:0:0:
192,192,91391,1,0,0:0:0:0:
448,192,91391,1,0,0:0:0:0:
64,192,91724,1,8,0:0:0:0:
448,192,92058,1,0,0:0:0:0:
320,192,92391,1,0,0:0:0:0:
192,192,92724,1,0,0:0:0:0:
64,192,93058,1,8,0:0:0:0:
192,192,93391,1,0,0:0:0:0:
64,192,93766,1,0,0:0:0:0:
448,192,94141,1,0,0:0:0:0:
320,192,94141,1,0,0:0:0:0:
64,192,94516,1,8,0:0:0:0:
192,192,94891,1,0,0:0:0:0:
64,192,95266,1,0,0:0:0:0:
448,192,95641,1,0,0:0:0:0:
320,192,95641,1,0,0:0:0:0:
64,192,96016,1,8,0:0:0:0:
448,192,96391,128,0,100703:0:0:0:0:
320,192,96391,128,0,97891:0:0:0:0:
192,192,97891,128,0,100703:0:0:0:0:
64,192,100891,128,0,105391:0:0:0:0:
