osu file format v14

[General]
AudioFilename: audio.mp3
AudioLeadIn: 0
PreviewTime: 566
Countdown: 1
SampleSet: Normal
StackLeniency: 0.8
Mode: 0
LetterboxInBreaks: 0
WidescreenStoryboard: 0

[Editor]
Bookmarks: 11444,41668,57140,71668,87613,102258,147967
DistanceSpacing: 1.2
BeatDivisor: 4
GridSize: 16
TimelineZoom: 1

[Metadata]
Title:Tokyo Drift
TitleUnicode:Tokyo Drift
Artist:Teriyaki Boyz
ArtistUnicode:Teriyaki Boyz
Creator:Jude
Version:Normal
Source:
Tags:
BeatmapID:1125229
BeatmapSetID:530886

[Difficulty]
HPDrainRate:5
CircleSize:4
OverallDifficulty:5
ApproachRate:5
SliderMultiplier:1.2
SliderTickRate:1

[Events]
//Background and Video events
0,0,"wallpaper-anime-fantasy-animewallpaper-click-yasumori-japan-image-123596.jpg",0,0
//Break Periods
//Storyboard Layer 0 (Background)
//Storyboard Layer 1 (Fail)
//Storyboard Layer 2 (Pass)
//Storyboard Layer 3 (Foreground)
//Storyboard Sound Samples

[TimingPoints]
566,472.44094488189,4,1,0,60,1,0
86634,-100,4,1,0,60,0,1
98361,-100,4,1,0,60,0,0

[HitObjects]
64,90,11432,6,0,P|96:58|156:90,1,120,4|0,0:3|0:3,0:3:0:0:
164,160,12140,2,0,P|190:182|228:189,1,60,0|0,3:0|3:0,3:0:0:0:
200,260,12613,2,0,P|173:237|135:230,1,60,0|0,3:0|3:0,3:0:0:0:
128,300,13085,1,0,0:0:0:0:
84,244,13321,6,0,P|52:212|73:167,1,90,0|0,3:0|3:0,3:0:0:0:
140,96,14030,2,0,L|211:31,1,90,4|0,0:3|0:3,0:3:0:0:
316,36,14739,1,0,0:0:0:0:
100,212,15684,6,0,L|100:84,1,120,12|0,1:1|1:1,1:1:0:0:
172,96,16392,2,0,L|172:224,1,120,0|0,3:0|3:0,3:0:0:0:
244,216,17101,2,0,L|244:88,1,120,4|0,1:3|1:3,1:3:0:0:
128,176,18046,1,4,0:3:0:0:
128,176,18518,1,8,0:1:0:0:
272,208,18991,2,0,B|266:245|271:273|299:296|334:304,1,120,4|0,0:3|0:3,0:3:0:0:
368,240,19936,2,0,B|294:284|227:218|147:283,1,210,2|0,0:1|0:1,0:1:0:0:
48,144,21353,5,8,0:1:0:0:
144,32,22062,1,0,3:0:0:0:
208,160,22534,1,0,3:0:0:0:
240,224,22770,2,0,B|304:224,1,60,4|0,0:3|0:3,0:3:0:0:
368,224,23243,2,0,B|432:223|432:223|496:191,2,120,10|0|10,0:1|0:1|0:1,0:1:0:0:
128,160,25132,1,8,0:1:0:0:
224,288,25841,1,0,3:0:0:0:
224,160,26314,1,0,3:0:0:0:
224,160,26550,1,0,0:0:0:0:
288,256,27022,6,0,P|192:288|163:205,1,180,12|8,0:1|0:1,0:1:0:0:
320,80,28440,1,4,0:3:0:0:
160,80,28912,6,0,P|68:123|96:192,1,180,8|0,0:1|0:1,0:1:0:0:
304,208,30329,2,0,L|224:128,2,90,4|0|4,0:0|0:0|0:0,0:0:0:0:
304,208,31510,2,0,L|224:288,2,90,0|0|0,3:0|3:0|3:0,3:0:0:0:
304,208,32691,2,0,L|384:128,2,90,8|0|8,0:0|0:0|0:0,0:0:0:0:
224,208,33636,1,8,0:0:0:0:
432,32,34581,6,0,B|423:69|426:97|452:123|486:133,1,120,8|0,0:0|0:0,0:0:0:0:
512,64,35290,2,0,B|438:108|371:42|313:89,1,180,2|0,3:1|3:0,3:0:0:0:
208,144,36471,1,8,0:0:0:0:
32,32,37180,1,0,3:0:0:0:
64,176,37652,1,0,3:0:0:0:
256,272,38361,6,0,B|320:271|320:271|384:239,2,120,10|0|10,0:1|0:1|0:1,0:1:0:0:
128,16,40251,1,8,0:0:0:0:
64,224,40959,1,0,0:0:0:0:
176,128,41432,1,0,3:0:0:0:
176,128,41668,1,0,0:0:0:0:
276,176,42140,6,0,B|485:242|508:99|367:-10|293:127|334:255|531:178,1,480,12|0,0:0|0:0,0:0:0:0:
392,268,44503,1,4,0:3:0:0:
248,244,44975,6,0,B|39:178|16:321|157:430|231:293|190:165|-7:242,1,480,12|0,0:0|0:0,0:0:0:0:
116,132,47337,1,4,0:3:0:0:
248,76,47810,2,0,B|344:76|344:76|344:172,3,180,8|0|8|0,0:0|0:0|0:0|0:0,0:0:0:0:
432,272,50408,1,0,3:0:0:0:
288,272,50880,6,0,L|160:272,1,120,0|0,3:0|3:0,3:0:0:0:
96,272,51589,1,12,0:0:0:0:
16,272,51825,2,0,P|46:211|133:233,1,120,0|0,3:0|3:0,3:0:0:0:
332,40,53243,1,0,3:0:0:0:
396,8,53479,2,0,P|396:72|332:104,1,120,8|0,0:0|0:0,0:0:0:0:
148,44,54660,2,0,P|148:108|148:180,1,120,0|0,3:0|3:0,3:0:0:0:
200,212,55369,2,0,L|304:272,3,120,8|0|8|0,0:0|0:0|0:0|0:0,0:0:0:0:
424,156,57258,5,12,0:0:0:0:
424,156,57495,2,0,B|488:92|488:92|488:60,1,120,0|0,3:0|3:0,3:0:0:0:
416,60,58203,1,8,0:0:0:0:
344,56,58440,2,0,B|280:120|280:120|280:152,1,120,0|0,3:0|3:0,3:0:0:0:
276,220,59148,2,0,L|372:220,4,90,8|0|8|0|8,0:0|0:0|0:0|0:0|0:0,0:0:0:0:
132,200,61038,5,8,0:0:0:0:
224,240,61274,2,0,L|320:320,1,120,0|0,3:0|3:0,3:0:0:0:
304,240,61983,2,0,L|208:304,1,90,8|0,0:0|0:0,0:0:0:0:
400,256,62928,2,0,L|496:256,4,90,8|0|8|0|8,0:0|0:0|0:0|0:0|0:0,0:0:0:0:
280,328,64817,5,8,0:0:0:0:
360,208,65290,1,4,0:3:0:0:
240,128,65762,1,8,0:0:0:0:
352,64,66235,1,4,0:3:0:0:
208,48,66707,6,0,L|144:80,1,60,8|0,0:0|0:0,0:0:0:0:
156,148,67180,2,0,L|220:180,1,60,4|0,0:3|0:3,0:3:0:0:
208,248,67652,2,0,L|144:280,1,60,8|8,0:0|0:0,0:0:0:0:
156,348,68125,2,0,L|220:380,1,60,4|0,0:3|0:3,0:3:0:0:
280,372,68597,6,0,P|344:308|280:244,1,180,8|0,0:0|0:0,0:0:0:0:
164,296,69778,1,0,3:0:0:0:
72,184,70251,1,0,3:0:0:0:
72,184,70487,2,0,P|40:120|120:48,1,180,8|0,0:0|0:0,0:0:0:0:
328,232,72140,5,0,3:0:0:0:
184,252,72613,2,0,L|56:188,1,120,0|0,2:0|2:0,2:0:0:0:
128,64,73558,1,0,3:0:0:0:
300,192,74266,5,8,2:0:0:0:
192,96,74739,1,4,2:3:0:0:
192,168,74975,2,0,B|192:232|192:232|224:296,1,120,0|0,2:0|2:0,2:0:0:0:
217,282,75920,1,0,2:0:0:0:
252,220,76156,6,0,B|252:156|252:156|252:156|220:92,1,120,8|0,2:0|2:0,2:0:0:0:
92,60,77101,1,0,2:0:0:0:
56,200,77573,1,4,2:3:0:0:
200,192,78046,2,0,L|296:192,2,90,8|0|8,2:0|2:0|2:0,2:0:0:0:
160,128,78991,1,12,2:0:0:0:
160,128,79463,1,0,0:0:0:0:
304,120,79936,6,0,B|324:40|324:40|432:56,1,180,8|0,2:0|2:0,2:0:0:0:
376,192,81117,1,0,2:0:0:0:
376,192,81353,2,0,P|376:224|376:320,2,120,4|0|4,2:3|2:3|2:3,2:3:0:0:
320,60,82770,1,8,2:0:0:0:
200,140,83243,1,4,2:0:0:0:
200,140,83715,5,8,0:0:0:0:
320,208,84188,2,0,B|352:252|352:252|384:316,1,120,4|0,2:3|2:3,2:3:0:0:
304,288,84896,1,0,2:0:0:0:
304,288,85369,1,0,0:0:0:0:
240,272,85605,2,0,B|208:240|208:240|208:176,1,90,8|0,2:0|2:0,2:0:0:0:
320,192,86314,2,0,B|318:126|318:126|260:92,1,120,0|0,2:0|2:0,2:0:0:0:
8,100,87613,6,0,P|40:68|100:100,1,120,4|0,0:3|0:3,0:3:0:0:
76,204,88440,2,0,P|102:226|144:236,1,60,0|0,3:0|3:0,3:0:0:0:
264,188,89148,2,0,P|320:188|372:224,1,120
312,264,89857,2,0,P|347:306|408:323,1,120
428,180,90802,6,0,L|428:244,2,60,4|0|4,0:0|0:0|0:0,0:0:0:0:
428,180,91510,2,0,L|508:180,2,60,4|4|4,3:3|3:3|3:3,3:0:0:0:
428,180,92219,2,0,L|364:180,2,60,8|0|8,0:0|0:0|0:0,0:0:0:0:
428,180,92928,2,0,L|428:116,2,60,0|0|0,3:0|3:0|3:0,3:0:0:0:
364,148,93636,1,0,0:0:0:0:
220,148,94109,1,0,0:0:0:0:
176,284,94581,6,0,B|256:236|256:236|256:332|256:332|304:236|304:236|304:332|304:332|400:284,1,480,2|0,0:0|0:0,0:0:0:0:
348,152,96943,1,8,0:0:0:0:
188,8,97652,1,0,3:0:0:0:
128,140,98125,1,0,3:0:0:0:
256,320,98833,6,0,B|384:272|384:368|496:320,1,240,8|0,0:0|0:0,0:0:0:0:
336,80,100723,1,8,0:0:0:0:
352,288,101432,1,0,3:0:0:0:
224,224,101904,1,0,3:0:0:0:
