osu file format v14

[General]
AudioFilename: audio.mp3
AudioLeadIn: 0
PreviewTime: 163855
Countdown: 0
SampleSet: Soft
StackLeniency: 0.7
Mode: 1
LetterboxInBreaks: 0
StoryFireInFront: 0
EpilepsyWarning: 1
WidescreenStoryboard: 1

[Editor]
Bookmarks: 78502,101359,112788,164217,242788
DistanceSpacing: 0.8
BeatDivisor: 4
GridSize: 32
TimelineZoom: 1

[Metadata]
Title:Love Song
TitleUnicode:ラブソング
Artist:Teresa Wagner (CV: Iwami Manaka)
ArtistUnicode:テレサ・ワーグナー (CV:石見舞菜香)
Creator:Faputa
Version:Yes! Love.
Source:多田くんは恋をしない
Tags:Tada-kun wa Koi wo Shinai Tada Doesn't Fall in Love Ending ED ARGENTINE DREAM
BeatmapID:1666821
BeatmapSetID:793721

[Difficulty]
HPDrainRate:5
CircleSize:5
OverallDifficulty:5
ApproachRate:5
SliderMultiplier:1.4
SliderTickRate:1

[Events]
//Background and Video events
0,0,"Tadakun.jpg",0,60
//Break Periods
2,297070,302784
//Storyboard Layer 0 (Background)
//Storyboard Layer 1 (Fail)
//Storyboard Layer 2 (Pass)
//Storyboard Layer 3 (Foreground)
//Storyboard Sound Samples

[TimingPoints]
1356,714.285714285714,4,2,0,50,1,0
32784,-100,4,2,0,60,0,0
52070,-100,4,2,0,61,0,0
52784,-100,4,2,0,62,0,0
53141,-100,4,2,0,63,0,0
53498,-100,4,2,0,64,0,0
53855,-100,4,2,0,65,0,0
54213,-100,4,2,0,66,0,0
54927,-100,4,2,0,67,0,0
55105,-100,4,2,0,68,0,0
55284,-100,4,2,0,69,0,0
55641,-100,4,2,0,70,0,0
74570,-100,4,2,0,71,0,0
74927,-100,4,2,0,72,0,0
75284,-100,4,2,0,73,0,0
75463,-100,4,2,0,74,0,0
75641,-100,4,2,0,75,0,0
76355,-100,4,2,0,76,0,0
76713,-100,4,2,0,78,0,0
78498,-100,4,2,0,80,0,1
87427,-98.7654320987654,4,2,0,80,0,1
87784,-97.5609756097561,4,2,0,80,0,1
88141,-96.3855421686747,4,2,0,80,0,1
88320,-95.8083832335329,4,2,0,80,0,1
88498,-95.2380952380952,4,2,0,80,0,1
88677,-94.6745562130178,4,2,0,80,0,1
88855,-94.1176470588235,4,2,0,80,0,1
89213,-93.0232558139535,4,2,0,80,0,1
89391,-92.485549132948,4,2,0,80,0,1
89570,-91.9540229885058,4,2,0,80,0,1
89927,-90.9090909090909,4,2,0,80,0,1
98855,-89.8876404494382,4,2,0,80,0,1
99213,-88.8888888888889,4,2,0,80,0,1
99570,-87.9120879120879,4,2,0,80,0,1
99927,-86.9565217391304,4,2,0,80,0,1
100105,-86.4864864864865,4,2,0,80,0,1
100195,-86.2533692722372,4,2,0,80,0,1
100284,-86.0215053763441,4,2,0,80,0,1
100463,-85.5614973262032,4,2,0,80,0,1
100641,-85.1063829787234,4,2,0,80,0,1
100820,-84.6560846560847,4,2,0,80,0,1
100998,-84.2105263157895,4,2,0,80,0,1
101355,-83.3333333333333,4,2,0,80,0,1
110284,-81.9672131147541,4,2,0,80,0,1
110641,-80.6451612903226,4,2,0,80,0,1
110998,-79.3650793650794,4,2,0,80,0,1
111355,-78.125,4,2,0,80,0,1
112248,-77.5193798449612,4,2,0,80,0,1
112784,-76.9230769230769,4,2,0,80,0,0
115641,-90.9090909090909,4,2,0,70,0,0
161713,-90.9090909090909,4,2,0,72,0,0
162070,-90.9090909090909,4,2,0,74,0,0
162427,-90.9090909090909,4,2,0,76,0,0
162784,-90.9090909090909,4,2,0,78,0,0
164213,-90.9090909090909,4,2,0,80,0,1
172963,-90.3954802259887,4,2,0,80,0,1
173141,-89.8876404494382,4,2,0,80,0,1
173498,-88.8888888888889,4,2,0,80,0,1
173855,-87.9120879120879,4,2,0,80,0,1
174034,-87.431693989071,4,2,0,80,0,1
174213,-86.9565217391304,4,2,0,80,0,1
174391,-86.4864864864865,4,2,0,80,0,1
174570,-86.0215053763441,4,2,0,80,0,1
174748,-85.5614973262032,4,2,0,80,0,1
174927,-85.1063829787234,4,2,0,80,0,1
175105,-84.6560846560847,4,2,0,80,0,1
175284,-84.2105263157895,4,2,0,80,0,1
175641,-83.3333333333333,4,2,0,80,0,1
184391,-82.9015544041451,4,2,0,80,0,1
184570,-82.4742268041237,4,2,0,80,0,1
184927,-81.6326530612245,4,2,0,80,0,1
185284,-80.8080808080808,4,2,0,80,0,1
185463,-80.4020100502513,4,2,0,80,0,1
185641,-80,4,2,0,80,0,1
185820,-79.6019900497512,4,2,0,80,0,1
185909,-79.4044665012407,4,2,0,80,0,1
185998,-79.2079207920792,4,2,0,80,0,1
186177,-78.8177339901478,4,2,0,80,0,1
186355,-78.4313725490196,4,2,0,80,0,1
186534,-78.0487804878049,4,2,0,80,0,1
186713,-77.6699029126214,4,2,0,80,0,1
187070,-76.9230769230769,4,2,0,80,0,1
198498,-76.9230769230769,4,2,0,70,0,0
200998,-77.5193798449612,4,2,0,70,0,0
201713,-78.734453882081,4,2,0,70,0,0
202070,-79.3563879511609,4,2,0,70,0,0
202248,-79.6710541516188,4,2,0,70,0,0
202427,-79.9882257331721,4,2,0,70,0,0
202605,-80.3079327372879,4,2,0,70,0,0
202784,-80.6302056876547,4,2,0,70,0,0
203141,-81.2825739915271,4,2,0,70,0,0
203320,-81.6126662858075,4,2,0,71,0,0
203498,-81.9455177030999,4,2,0,72,0,0
203855,-82.6194325862609,4,2,0,73,0,0
204034,-82.9605638663605,4,2,0,74,0,0
204213,-83.3045238521678,4,2,0,75,0,0
230284,-90.9090909090909,4,2,0,75,0,0
231356,714.285714285714,4,2,0,60,1,0
231356,-90.9090909090909,4,2,0,60,0,0
234213,-100,4,2,0,60,0,0
240641,-95.2380952380952,4,2,0,70,0,0
240998,-93.0232558139535,4,2,0,70,0,0
241356,-90.9090909090909,4,2,0,71,0,0
241534,-89.8876404494382,4,2,0,72,0,0
241713,-88.8888888888889,4,2,0,73,0,0
241891,-87.9120879120879,4,2,0,74,0,0
242070,-86.9565217391304,4,2,0,75,0,0
242248,-86.0215053763441,4,2,0,76,0,0
242427,-85.1063829787234,4,2,0,77,0,0
242606,-84.2105263157895,4,2,0,78,0,0
242695,-83.7696335078534,4,2,0,79,0,0
242784,-83.3333333333333,4,2,0,80,0,1
251534,-82.9015544041451,4,2,0,80,0,1
251713,-82.4742268041237,4,2,0,80,0,1
252070,-81.6326530612245,4,2,0,80,0,1
252427,-80.8080808080808,4,2,0,80,0,1
252606,-80.4020100502513,4,2,0,80,0,1
252784,-80,4,2,0,80,0,1
252873,-79.8004987531172,4,2,0,80,0,1
252963,-79.6019900497512,4,2,0,80,0,1
253141,-79.2079207920792,4,2,0,80,0,1
253320,-78.8177339901478,4,2,0,80,0,1
253498,-78.4313725490196,4,2,0,80,0,1
253677,-78.0487804878049,4,2,0,80,0,1
253856,-77.6699029126214,4,2,0,80,0,1
253945,-77.4818401937046,4,2,0,80,0,1
254034,-77.2946859903382,4,2,0,80,0,1
254213,-76.9230769230769,4,2,0,80,0,1
265998,-75.952693624303,4,2,0,80,0,1
266177,-75.4766539387869,4,2,0,80,0,1
266356,-75.0064880612173,4,2,0,80,0,1
266713,-74.0835677460889,4,2,0,80,0,1
266891,-73.6305996991454,4,2,0,80,0,1
267070,-73.1830835838634,4,2,0,80,0,1
267427,-72.3042272666471,4,2,0,80,0,1
267606,-71.8726933357483,4,2,0,80,0,1
267784,-71.4462288537024,4,2,0,80,0,1
268141,-70.6083545217237,4,2,0,80,0,1
268320,-70.196768561956,4,2,0,80,0,1
268498,-69.7899044715788,4,2,0,80,0,1
268856,-68.9902109789642,4,2,0,80,0,1
269213,-68.2086365775635,4,2,0,80,0,1
269570,-67.4445723643167,4,2,0,80,0,1
269927,-66.6974364173339,4,2,0,80,0,1
271356,-66.6974364173339,4,2,0,80,0,0
271713,-68.9655172413793,4,2,0,80,0,0
274213,-74.0740740740741,4,2,0,80,0,0
276356,-81.3008130081301,4,2,0,80,0,0
277070,-83.3333333333333,4,2,0,78,0,0
278141,-84.2911619030921,4,2,0,77,0,0
278498,-84.6153976331381,4,2,0,75,0,0
279570,-85.6030995170273,4,2,0,74,0,0
279927,-85.9375268554771,4,2,0,72,0,0
280998,-86.9565217391304,4,2,0,71,0,0
281177,-87.1287335751446,4,2,0,69,0,0
281356,-87.301552658114,4,2,0,68,0,0
282427,-88.3534278479402,4,2,0,66,0,0
282784,-88.7096559573413,4,2,0,65,0,0
283856,-89.7959476884727,4,2,0,63,0,0
284213,-90.1639270357437,4,2,0,62,0,0
285284,-91.2862691758219,4,2,0,60,0,0
285641,-91.6666743055562,4,2,0,58,0,0
286713,-92.8269807189078,4,2,0,57,0,0
286891,-93.0232558139535,4,2,0,55,0,0
287070,-93.2203626831431,4,2,0,54,0,0
288141,-94.4205927535972,4,2,0,52,0,0
288498,-94.8276270808737,4,2,0,51,0,0
289570,-96.0698773860155,4,2,0,49,0,0
289927,-96.4911942136161,4,2,0,48,0,0
290998,-97.7778038518588,4,2,0,46,0,0
291356,-98.2142681760236,4,2,0,45,0,0
292427,-99.5475563563603,4,2,0,43,0,0
292606,-99.7732154812112,4,2,0,42,0,0
292784,-100,4,2,0,40,0,0
305641,-100,4,2,0,30,0,0
308498,-100,4,2,0,20,0,0
309927,-100,4,2,0,10,0,0
310641,-100,4,2,0,5,0,0

[HitObjects]
256,192,641,5,0,0:0:0:0:
256,192,1356,1,8,0:0:0:0:
256,192,2427,1,8,0:0:0:0:
256,192,2605,1,8,0:0:0:0:
256,192,2784,1,0,0:0:0:0:
256,192,3855,1,8,0:0:0:0:
256,192,4034,1,0,0:0:0:0:
256,192,4213,1,0,0:0:0:0:
256,192,5284,1,8,0:0:0:0:
256,192,5463,1,0,0:0:0:0:
256,192,5641,1,8,0:0:0:0:
256,192,6713,1,0,0:0:0:0:
256,192,7070,1,8,0:0:0:0:
256,192,7784,1,0,0:0:0:0:
256,192,8141,1,8,0:0:0:0:
256,192,8320,1,8,0:0:0:0:
256,192,8498,1,0,0:0:0:0:
256,192,9213,1,0,0:0:0:0:
256,192,9927,1,8,0:0:0:0:
256,192,10463,1,8,0:0:0:0:
256,192,10998,1,0,0:0:0:0:
256,192,11713,1,8,0:0:0:0:
256,192,12070,1,8,0:0:0:0:
256,192,12784,1,0,0:0:0:0:
256,192,13141,1,0,0:0:0:0:
256,192,13498,1,8,0:0:0:0:
256,192,13855,1,8,0:0:0:0:
256,192,14034,1,8,0:0:0:0:
256,192,14213,1,0,0:0:0:0:
256,192,14927,1,0,0:0:0:0:
256,192,15284,1,8,0:0:0:0:
256,192,15463,1,8,0:0:0:0:
256,192,15641,1,8,0:0:0:0:
256,192,15998,1,0,0:0:0:0:
256,192,16355,1,8,0:0:0:0:
256,192,16713,1,8,0:0:0:0:
256,192,16891,1,0,0:0:0:0:
256,192,17070,1,0,0:0:0:0:
256,192,17784,1,8,0:0:0:0:
256,192,18141,1,0,0:0:0:0:
256,192,18498,1,8,0:0:0:0:
256,192,19213,1,0,0:0:0:0:
256,192,19570,1,8,0:0:0:0:
256,192,20284,1,0,0:0:0:0:
256,192,20998,1,0,0:0:0:0:
256,192,21713,1,8,0:0:0:0:
256,192,22070,1,8,0:0:0:0:
256,192,23498,1,8,0:0:0:0:
256,192,23677,1,0,0:0:0:0:
256,192,23855,1,0,0:0:0:0:
256,192,24213,1,0,0:0:0:0:
256,192,24927,1,8,0:0:0:0:
256,192,25284,1,0,0:0:0:0:
256,192,25998,1,0,0:0:0:0:
256,192,26713,1,8,0:0:0:0:
256,192,27427,1,0,0:0:0:0:
256,192,27784,1,0,0:0:0:0:
256,192,28320,1,0,0:0:0:0:
256,192,28409,1,0,0:0:0:0:
256,192,28498,1,8,0:0:0:0:
256,192,29927,1,8,0:0:0:0:
256,192,30284,1,8,0:0:0:0:
256,192,30641,1,0,0:0:0:0:
256,192,30998,1,0,0:0:0:0:
256,192,31355,1,8,0:0:0:0:
256,192,32784,1,8,0:0:0:0:
256,192,33498,1,8,0:0:0:0:
256,192,33855,1,0,0:0:0:0:
256,192,34213,1,8,0:0:0:0:
256,192,34927,1,0,0:0:0:0:
256,192,35641,1,8,0:0:0:0:
256,192,36355,1,8,0:0:0:0:
256,192,36713,1,0,0:0:0:0:
256,192,37070,1,8,0:0:0:0:
256,192,37784,1,8,0:0:0:0:
256,192,38498,1,0,0:0:0:0:
256,192,39213,1,0,0:0:0:0:
256,192,39927,1,8,0:0:0:0:
256,192,40284,1,8,0:0:0:0:
256,192,40641,1,0,0:0:0:0:
256,192,41355,1,8,0:0:0:0:
256,192,42070,1,8,0:0:0:0:
256,192,42427,1,0,0:0:0:0:
256,192,42784,1,8,0:0:0:0:
256,192,43498,1,0,0:0:0:0:
256,192,43677,1,0,0:0:0:0:
256,192,43855,1,8,0:0:0:0:
256,192,44213,1,8,0:0:0:0:
256,192,44927,1,8,0:0:0:0:
256,192,45284,1,0,0:0:0:0:
256,192,45641,1,8,0:0:0:0:
256,192,46355,1,8,0:0:0:0:
256,192,47070,1,8,0:0:0:0:
256,192,47784,1,8,0:0:0:0:
256,192,48141,1,0,0:0:0:0:
256,192,48498,1,0,0:0:0:0:
256,192,49213,1,8,0:0:0:0:
256,192,49927,1,0,0:0:0:0:
256,192,50641,1,0,0:0:0:0:
256,192,50998,1,0,0:0:0:0:
256,160,51177,1,0,0:0:0:0:
256,192,51355,1,8,0:0:0:0:
256,192,52070,1,0,0:0:0:0:
256,192,52784,1,8,0:0:0:0:
256,192,53141,1,0,0:0:0:0:
256,192,53498,1,0,0:0:0:0:
256,192,53855,1,8,0:0:0:0:
256,192,54213,1,0,0:0:0:0:
256,192,54927,1,0,0:0:0:0:
256,192,55105,1,0,0:0:0:0:
256,192,55284,1,8,0:0:0:0:
256,192,55641,1,0,0:0:0:0:
256,192,56355,1,8,0:0:0:0:
256,192,56713,1,0,0:0:0:0:
256,192,57070,1,8,0:0:0:0:
256,192,57784,1,8,0:0:0:0:
256,192,58141,1,0,0:0:0:0:
256,192,58498,1,0,0:0:0:0:
256,192,59213,1,8,0:0:0:0:
256,192,59927,1,0,0:0:0:0:
256,192,60284,1,8,0:0:0:0:
256,192,60641,1,8,0:0:0:0:
256,192,60998,1,0,0:0:0:0:
256,192,61177,1,0,0:0:0:0:
256,192,61355,1,8,0:0:0:0:
256,192,61713,1,0,0:0:0:0:
256,192,62070,1,8,0:0:0:0:
256,192,62605,1,8,0:0:0:0:
256,192,62784,1,0,0:0:0:0:
256,192,63141,1,0,0:0:0:0:
256,192,63498,1,8,0:0:0:0:
256,192,64034,1,0,0:0:0:0:
256,192,64213,1,0,0:0:0:0:
256,192,64927,1,0,0:0:0:0:
256,192,65284,1,8,0:0:0:0:
256,192,65641,1,8,0:0:0:0:
256,192,65998,1,0,0:0:0:0:
256,192,66355,1,8,0:0:0:0:
256,192,66713,1,0,0:0:0:0:
256,192,67070,1,8,0:0:0:0:
256,192,67784,1,0,0:0:0:0:
256,192,68141,1,0,0:0:0:0:
256,192,68320,1,0,0:0:0:0:
256,192,68498,1,8,0:0:0:0:
256,192,68855,1,8,0:0:0:0:
256,192,69213,1,0,0:0:0:0:
256,192,69570,1,8,0:0:0:0:
256,192,69927,1,0,0:0:0:0:
256,192,70641,1,8,0:0:0:0:
256,192,70998,1,0,0:0:0:0:
256,192,71177,1,8,0:0:0:0:
256,192,71355,1,0,0:0:0:0:
256,192,71713,1,0,0:0:0:0:
256,192,72070,1,8,0:0:0:0:
256,192,72427,1,0,0:0:0:0:
256,192,72605,1,8,0:0:0:0:
256,192,72784,1,0,0:0:0:0:
256,192,73141,1,0,0:0:0:0:
256,192,73498,1,8,0:0:0:0:
256,192,73855,1,0,0:0:0:0:
256,192,74034,1,8,0:0:0:0:
256,192,74213,1,8,0:0:0:0:
256,192,74570,1,0,0:0:0:0:
256,192,74927,1,8,0:0:0:0:
256,192,75284,1,0,0:0:0:0:
256,192,75463,1,0,0:0:0:0:
256,192,75641,1,8,0:0:0:0:
256,192,76355,1,8,0:0:0:0:
256,192,76713,1,8,0:0:0:0:
256,192,78498,1,4,0:0:0:0:
256,192,78855,1,0,0:0:0:0:
256,192,79034,1,0,0:0:0:0:
256,192,79213,1,8,0:0:0:0:
256,192,79570,1,0,0:0:0:0:
256,192,79927,1,8,0:0:0:0:
256,192,80105,1,0,0:0:0:0:
256,192,80284,1,0,0:0:0:0:
256,192,80641,1,8,0:0:0:0:
256,192,80998,1,0,0:0:0:0:
256,192,81355,1,8,0:0:0:0:
256,192,81713,1,0,0:0:0:0:
256,192,81891,1,0,0:0:0:0:
256,192,82070,1,8,0:0:0:0:
256,192,82427,1,0,0:0:0:0:
256,192,83141,1,0,0:0:0:0:
256,192,83498,1,8,0:0:0:0:
256,192,83855,1,0,0:0:0:0:
256,192,84213,1,8,0:0:0:0:
256,192,84570,1,0,0:0:0:0:
256,192,84748,1,0,0:0:0:0:
256,192,84927,1,8,0:0:0:0:
256,192,85284,1,0,0:0:0:0:
256,192,85641,1,8,0:0:0:0:
256,192,85998,1,8,0:0:0:0:
256,192,86355,1,0,0:0:0:0:
256,192,86713,1,8,0:0:0:0:
256,192,87070,1,0,0:0:0:0:
256,192,87427,1,8,0:0:0:0:
256,192,87784,1,8,0:0:0:0:
256,192,88141,1,0,0:0:0:0:
256,192,88320,1,0,0:0:0:0:
256,192,88498,1,8,0:0:0:0:
256,192,88677,1,8,0:0:0:0:
256,192,88855,1,0,0:0:0:0:
256,192,89213,1,8,0:0:0:0:
256,192,89391,1,0,0:0:0:0:
256,192,89570,1,0,0:0:0:0:
256,192,89927,1,4,0:0:0:0:
256,192,90284,1,8,0:0:0:0:
256,192,90463,1,8,0:0:0:0:
256,192,90641,1,0,0:0:0:0:
256,192,90998,1,8,0:0:0:0:
256,192,91355,1,0,0:0:0:0:
256,192,91534,1,8,0:0:0:0:
256,192,91713,1,8,0:0:0:0:
256,192,92070,1,0,0:0:0:0:
256,192,92427,1,8,0:0:0:0:
256,192,92784,1,0,0:0:0:0:
256,192,93141,1,8,0:0:0:0:
256,192,93498,1,8,0:0:0:0:
256,192,93855,1,0,0:0:0:0:
256,192,94570,1,0,0:0:0:0:
256,192,94927,1,8,0:0:0:0:
256,192,95284,1,0,0:0:0:0:
256,192,95641,1,8,0:0:0:0:
256,192,95998,1,0,0:0:0:0:
256,192,96177,1,0,0:0:0:0:
256,192,96355,1,8,0:0:0:0:
256,192,96713,1,8,0:0:0:0:
256,192,97070,1,0,0:0:0:0:
256,192,97427,1,0,0:0:0:0:
256,192,97784,1,8,0:0:0:0:
256,192,98141,1,0,0:0:0:0:
256,192,98498,1,8,0:0:0:0:
256,192,98855,1,0,0:0:0:0:
256,192,99213,1,12,0:0:0:0:
256,192,99570,1,0,0:0:0:0:
256,192,99927,1,0,0:0:0:0:
256,192,100105,1,8,0:0:0:0:
256,192,100195,1,8,0:0:0:0:
256,192,100284,1,8,0:0:0:0:
256,192,100463,1,0,0:0:0:0:
256,192,100641,1,8,0:0:0:0:
256,192,100820,1,0,0:0:0:0:
256,192,100998,1,0,0:0:0:0:
256,192,101355,1,4,0:0:0:0:
256,192,101713,1,0,0:0:0:0:
256,192,102070,1,8,0:0:0:0:
256,192,102427,1,0,0:0:0:0:
256,192,102605,1,8,0:0:0:0:
256,192,102784,1,0,0:0:0:0:
256,192,102963,1,8,0:0:0:0:
256,192,103141,1,0,0:0:0:0:
256,192,103498,1,8,0:0:0:0:
256,192,103677,1,0,0:0:0:0:
256,192,103855,1,0,0:0:0:0:
256,192,104034,1,0,0:0:0:0:
256,192,104213,1,12,0:0:0:0:
256,192,104570,1,8,0:0:0:0:
256,192,104748,1,0,0:0:0:0:
256,192,104927,1,8,0:0:0:0:
256,192,105284,1,4,0:0:0:0:
256,192,105820,1,8,0:0:0:0:
256,192,105998,1,0,0:0:0:0:
256,192,106177,1,0,0:0:0:0:
256,192,106355,1,8,0:0:0:0:
256,192,106534,1,8,0:0:0:0:
256,192,106713,1,0,0:0:0:0:
256,192,107070,1,4,0:0:0:0:
256,192,107784,1,8,0:0:0:0:
256,192,108141,1,0,0:0:0:0:
256,192,108498,1,8,0:0:0:0:
256,192,108855,1,0,0:0:0:0:
256,192,109213,1,8,0:0:0:0:
256,192,109570,1,0,0:0:0:0:
256,192,109748,1,0,0:0:0:0:
256,192,109927,1,12,0:0:0:0:
256,192,110284,1,0,0:0:0:0:
256,192,110641,1,0,0:0:0:0:
256,192,110998,1,0,0:0:0:0:
256,192,111355,1,4,0:0:0:0:
256,192,112248,1,0,0:0:0:0:
256,192,112427,1,0,0:0:0:0:
256,192,112784,1,12,0:0:0:0:
256,192,117070,1,8,0:0:0:0:
256,192,117427,1,0,0:0:0:0:
256,192,117605,1,8,0:0:0:0:
256,192,117784,1,8,0:0:0:0:
256,192,118141,1,0,0:0:0:0:
256,192,118320,1,8,0:0:0:0:
256,192,118409,1,8,0:0:0:0:
256,192,118498,1,0,0:0:0:0:
256,192,118855,1,0,0:0:0:0:
256,192,119213,1,8,0:0:0:0:
256,192,119570,1,0,0:0:0:0:
256,192,119748,1,8,0:0:0:0:
256,192,119927,1,8,0:0:0:0:
256,192,120105,1,8,0:0:0:0:
256,192,120284,1,0,0:0:0:0:
256,192,120641,1,8,0:0:0:0:
256,192,120998,1,0,0:0:0:0:
256,192,121177,1,0,0:0:0:0:
256,192,121355,1,8,0:0:0:0:
256,192,121534,1,8,0:0:0:0:
256,192,121713,1,0,0:0:0:0:
256,192,122070,1,8,0:0:0:0:
256,192,122427,1,0,0:0:0:0:
256,192,122605,1,8,0:0:0:0:
256,192,122784,1,0,0:0:0:0:
256,192,122963,1,8,0:0:0:0:
256,192,123141,1,0,0:0:0:0:
256,192,123498,1,8,0:0:0:0:
256,192,123855,1,0,0:0:0:0:
256,192,124213,1,8,0:0:0:0:
256,192,124391,1,8,0:0:0:0:
256,192,124570,1,0,0:0:0:0:
256,192,124927,1,8,0:0:0:0:
256,192,125284,1,0,0:0:0:0:
256,192,125463,1,0,0:0:0:0:
256,192,125641,1,8,0:0:0:0:
256,192,125820,1,8,0:0:0:0:
256,192,126177,1,0,0:0:0:0:
256,192,126355,1,8,0:0:0:0:
256,192,126713,1,0,0:0:0:0:
256,192,126891,1,8,0:0:0:0:
256,192,127070,1,0,0:0:0:0:
256,192,127248,1,8,0:0:0:0:
256,192,127605,1,0,0:0:0:0:
256,192,127784,1,8,0:0:0:0:
256,192,128141,1,0,0:0:0:0:
256,192,128320,1,8,0:0:0:0:
256,192,128498,1,8,0:0:0:0:
256,192,128677,1,8,0:0:0:0:
256,192,128855,1,0,0:0:0:0:
256,192,129034,1,0,0:0:0:0:
256,192,129213,1,8,0:0:0:0:
256,192,129570,1,8,0:0:0:0:
256,192,129927,1,0,0:0:0:0:
256,192,130105,1,0,0:0:0:0:
256,192,130284,1,0,0:0:0:0:
256,192,130641,1,8,0:0:0:0:
256,192,130998,1,0,0:0:0:0:
256,192,131177,1,8,0:0:0:0:
256,192,131355,1,8,0:0:0:0:
256,192,131534,1,8,0:0:0:0:
256,192,131713,1,0,0:0:0:0:
256,192,132070,1,8,0:0:0:0:
256,192,132427,1,8,0:0:0:0:
256,192,132605,1,0,0:0:0:0:
256,192,132784,1,8,0:0:0:0:
256,192,132963,1,0,0:0:0:0:
256,192,133141,1,0,0:0:0:0:
256,192,133498,1,8,0:0:0:0:
256,192,133855,1,0,0:0:0:0:
256,192,134034,1,0,0:0:0:0:
256,192,134213,1,8,0:0:0:0:
256,192,134391,1,8,0:0:0:0:
256,192,134570,1,0,0:0:0:0:
256,192,134927,1,8,0:0:0:0:
256,192,135105,1,0,0:0:0:0:
256,192,135284,1,8,0:0:0:0:
256,192,135641,1,0,0:0:0:0:
256,192,135820,1,0,0:0:0:0:
256,192,135998,1,0,0:0:0:0:
256,192,136355,1,8,0:0:0:0:
256,192,136713,1,8,0:0:0:0:
256,192,136891,1,0,0:0:0:0:
256,192,137070,1,0,0:0:0:0:
256,192,137248,1,8,0:0:0:0:
256,192,137605,1,0,0:0:0:0:
256,192,137784,1,8,0:0:0:0:
256,192,138141,1,0,0:0:0:0:
256,192,138320,1,8,0:0:0:0:
256,192,138498,1,0,0:0:0:0:
256,192,138855,1,0,0:0:0:0:
256,192,139213,1,8,0:0:0:0:
256,192,139570,1,8,0:0:0:0:
256,192,139927,1,0,0:0:0:0:
256,192,140105,1,8,0:0:0:0:
256,192,140463,1,0,0:0:0:0:
256,192,140641,1,8,0:0:0:0:
256,192,140820,1,8,0:0:0:0:
256,192,140998,1,0,0:0:0:0:
256,192,141177,1,0,0:0:0:0:
256,192,141266,1,0,0:0:0:0:
256,192,141355,1,8,0:0:0:0:
256,192,141534,1,8,0:0:0:0:
256,192,141713,1,0,0:0:0:0:
256,192,142070,1,8,0:0:0:0:
256,192,142427,1,0,0:0:0:0:
256,192,142605,1,0,0:0:0:0:
256,192,142784,1,8,0:0:0:0:
256,192,142963,1,8,0:0:0:0:
256,192,143141,1,0,0:0:0:0:
256,192,143498,1,8,0:0:0:0:
256,192,143855,1,0,0:0:0:0:
256,192,144034,1,0,0:0:0:0:
256,192,144213,1,0,0:0:0:0:
256,192,144570,1,0,0:0:0:0:
256,192,144927,1,8,0:0:0:0:
256,192,145105,1,0,0:0:0:0:
256,192,145463,1,0,0:0:0:0:
256,192,145641,1,8,0:0:0:0:
256,192,145820,1,0,0:0:0:0:
256,192,145998,1,8,0:0:0:0:
256,192,146355,1,8,0:0:0:0:
256,192,146713,1,0,0:0:0:0:
256,192,146891,1,0,0:0:0:0:
256,192,147070,1,8,0:0:0:0:
256,192,147427,1,0,0:0:0:0:
256,192,147605,1,8,0:0:0:0:
256,192,147784,1,0,0:0:0:0:
256,192,148141,1,8,0:0:0:0:
256,192,148320,1,8,0:0:0:0:
256,192,148498,1,0,0:0:0:0:
256,192,148855,1,8,0:0:0:0:
256,192,149034,1,0,0:0:0:0:
256,192,149213,1,8,0:0:0:0:
256,192,149570,1,0,0:0:0:0:
256,192,149748,1,8,0:0:0:0:
256,192,149927,1,8,0:0:0:0:
256,192,150105,1,8,0:0:0:0:
256,192,150284,1,0,0:0:0:0:
256,192,150641,1,8,0:0:0:0:
256,192,150998,1,0,0:0:0:0:
256,192,151177,1,8,0:0:0:0:
256,192,151355,1,0,0:0:0:0:
256,192,151534,1,8,0:0:0:0:
256,192,151713,1,0,0:0:0:0:
256,192,152070,1,8,0:0:0:0:
256,192,152427,1,8,0:0:0:0:
256,192,152784,1,4,0:0:0:0:
256,192,153141,1,0,0:0:0:0:
256,192,153320,1,0,0:0:0:0:
256,192,153498,1,8,0:0:0:0:
256,192,153677,1,8,0:0:0:0:
256,192,153855,1,0,0:0:0:0:
256,192,154034,1,8,0:0:0:0:
256,192,154391,1,8,0:0:0:0:
256,192,154570,1,0,0:0:0:0:
256,192,154927,1,8,0:0:0:0:
256,192,155284,1,8,0:0:0:0:
256,192,155463,1,8,0:0:0:0:
256,192,155641,1,0,0:0:0:0:
256,192,155820,1,8,0:0:0:0:
256,192,156177,1,0,0:0:0:0:
256,192,156355,1,8,0:0:0:0:
256,192,156713,1,0,0:0:0:0:
256,192,156891,1,8,0:0:0:0:
256,192,157070,1,0,0:0:0:0:
256,192,157248,1,8,0:0:0:0:
256,192,157427,1,8,0:0:0:0:
256,192,157605,1,8,0:0:0:0:
256,192,157784,1,0,0:0:0:0:
256,192,158141,1,0,0:0:0:0:
256,192,158498,1,12,0:0:0:0:
256,192,158855,1,0,0:0:0:0:
256,192,159213,1,8,0:0:0:0:
256,192,159570,1,0,0:0:0:0:
256,192,159748,1,0,0:0:0:0:
256,192,159927,1,8,0:0:0:0:
256,192,160284,1,8,0:0:0:0:
256,192,160463,1,0,0:0:0:0:
256,192,160641,1,8,0:0:0:0:
256,192,160998,1,8,0:0:0:0:
256,192,161177,1,8,0:0:0:0:
256,192,161355,1,0,0:0:0:0:
256,192,161713,1,0,0:0:0:0:
256,192,162070,1,0,0:0:0:0:
256,192,162427,1,0,0:0:0:0:
256,192,162784,1,12,0:0:0:0:
256,192,164213,1,4,0:0:0:0:
256,192,164570,1,8,0:0:0:0:
256,192,164927,1,8,0:0:0:0:
256,192,165284,1,0,0:0:0:0:
256,192,165463,1,8,0:0:0:0:
256,192,165641,1,0,0:0:0:0:
256,192,165820,1,8,0:0:0:0:
256,192,165998,1,0,0:0:0:0:
256,192,166355,1,8,0:0:0:0:
256,192,166713,1,0,0:0:0:0:
256,192,166891,1,0,0:0:0:0:
256,192,167070,1,8,0:0:0:0:
256,192,167427,1,0,0:0:0:0:
256,192,167605,1,8,0:0:0:0:
256,192,167784,1,0,0:0:0:0:
256,192,168141,1,12,0:0:0:0:
256,192,168677,1,8,0:0:0:0:
256,192,168855,1,0,0:0:0:0:
256,192,169213,1,8,0:0:0:0:
256,192,169391,1,8,0:0:0:0:
256,192,169570,1,0,0:0:0:0:
256,192,169748,1,8,0:0:0:0:
256,192,169927,1,0,0:0:0:0:
256,192,170105,1,0,0:0:0:0:
256,192,170284,1,0,0:0:0:0:
256,192,170641,1,8,0:0:0:0:
256,192,170998,1,0,0:0:0:0:
256,192,171177,1,0,0:0:0:0:
256,192,171355,1,0,0:0:0:0:
256,192,171534,1,8,0:0:0:0:
256,192,171713,1,0,0:0:0:0:
256,192,172070,1,8,0:0:0:0:
256,192,172427,1,0,0:0:0:0:
256,192,172605,1,8,0:0:0:0:
256,192,172784,1,0,0:0:0:0:
256,192,172963,1,8,0:0:0:0:
256,192,173141,1,0,0:0:0:0:
256,192,173498,1,12,0:0:0:0:
256,192,173855,1,0,0:0:0:0:
256,192,174034,1,8,0:0:0:0:
256,192,174213,1,0,0:0:0:0:
256,192,174391,1,0,0:0:0:0:
256,192,174570,1,0,0:0:0:0:
256,192,174748,1,8,0:0:0:0:
256,192,174927,1,8,0:0:0:0:
256,192,175105,1,8,0:0:0:0:
256,192,175284,1,0,0:0:0:0:
256,192,175641,1,4,0:0:0:0:
256,192,175998,1,0,0:0:0:0:
256,192,176355,1,8,0:0:0:0:
256,192,176713,1,0,0:0:0:0:
256,192,176891,1,8,0:0:0:0:
256,192,177070,1,8,0:0:0:0:
256,192,177248,1,8,0:0:0:0:
256,192,177427,1,0,0:0:0:0:
256,192,177784,1,8,0:0:0:0:
256,192,178141,1,0,0:0:0:0:
256,192,178320,1,0,0:0:0:0:
256,192,178498,1,8,0:0:0:0:
256,192,178855,1,0,0:0:0:0:
256,192,179034,1,8,0:0:0:0:
256,192,179213,1,0,0:0:0:0:
256,192,179570,1,12,0:0:0:0:
256,192,180105,1,8,0:0:0:0:
256,192,180284,1,0,0:0:0:0:
256,192,180463,1,0,0:0:0:0:
256,192,180641,1,8,0:0:0:0:
256,192,180820,1,0,0:0:0:0:
256,192,180998,1,8,0:0:0:0:
256,192,181355,1,4,0:0:0:0:
256,192,181713,1,0,0:0:0:0:
256,192,181891,1,0,0:0:0:0:
256,192,182070,1,8,0:0:0:0:
256,192,182427,1,0,0:0:0:0:
256,192,182605,1,8,0:0:0:0:
256,192,182784,1,0,0:0:0:0:
256,192,182963,1,8,0:0:0:0:
256,192,183141,1,0,0:0:0:0:
256,192,183320,1,0,0:0:0:0:
256,192,183498,1,8,0:0:0:0:
256,192,183855,1,0,0:0:0:0:
256,192,184034,1,8,0:0:0:0:
256,192,184213,1,0,0:0:0:0:
256,192,184391,1,8,0:0:0:0:
256,192,184570,1,0,0:0:0:0:
256,192,184927,1,12,0:0:0:0:
256,192,185284,1,0,0:0:0:0:
256,192,185463,1,8,0:0:0:0:
256,192,185641,1,0,0:0:0:0:
256,192,185820,1,0,0:0:0:0:
256,192,185909,1,0,0:0:0:0:
256,192,185998,1,0,0:0:0:0:
256,192,186177,1,8,0:0:0:0:
256,192,186355,1,8,0:0:0:0:
256,192,186534,1,0,0:0:0:0:
256,192,186713,1,0,0:0:0:0:
256,192,187070,1,4,0:0:0:0:
256,192,187427,1,0,0:0:0:0:
256,192,187605,1,8,0:0:0:0:
256,192,187784,1,8,0:0:0:0:
256,192,188141,1,0,0:0:0:0:
256,192,188320,1,8,0:0:0:0:
256,192,188498,1,8,0:0:0:0:
256,192,188677,1,0,0:0:0:0:
256,192,188855,1,8,0:0:0:0:
256,192,189213,1,8,0:0:0:0:
256,192,189391,1,8,0:0:0:0:
256,192,189570,1,0,0:0:0:0:
256,192,189748,1,8,0:0:0:0:
256,192,189927,1,0,0:0:0:0:
256,192,190105,1,8,0:0:0:0:
256,192,190284,1,8,0:0:0:0:
256,192,190463,1,0,0:0:0:0:
256,192,190641,1,8,0:0:0:0:
256,192,190998,1,12,0:0:0:0:
256,192,191534,1,0,0:0:0:0:
256,192,191713,1,0,0:0:0:0:
256,192,191891,1,0,0:0:0:0:
256,192,192070,1,8,0:0:0:0:
256,192,192248,1,8,0:0:0:0:
256,192,192427,1,0,0:0:0:0:
256,192,192784,1,4,0:0:0:0:
256,192,193141,1,0,0:0:0:0:
256,192,193498,1,8,0:0:0:0:
256,192,193855,1,0,0:0:0:0:
256,192,194034,1,0,0:0:0:0:
256,192,194213,1,8,0:0:0:0:
256,192,194570,1,0,0:0:0:0:
256,192,194927,1,8,0:0:0:0:
256,192,195284,1,0,0:0:0:0:
256,192,195463,1,0,0:0:0:0:
256,192,195641,1,12,0:0:0:0:
256,192,195998,1,8,0:0:0:0:
256,192,196177,1,8,0:0:0:0:
256,192,196355,1,0,0:0:0:0:
256,192,196534,1,0,0:0:0:0:
256,192,196713,1,0,0:0:0:0:
256,192,197070,1,0,0:0:0:0:
256,192,197248,1,8,0:0:0:0:
256,192,197338,1,8,0:0:0:0:
256,192,197427,1,8,0:0:0:0:
256,192,197605,1,8,0:0:0:0:
256,192,197784,1,8,0:0:0:0:
256,192,197963,1,0,0:0:0:0:
256,192,198141,1,0,0:0:0:0:
256,192,198320,1,0,0:0:0:0:
256,192,198498,12,0,200641,0:0:0:0:
256,192,200998,5,12,0:0:0:0:
256,192,201713,1,0,0:0:0:0:
256,192,202070,1,8,0:0:0:0:
256,192,202248,1,8,0:0:0:0:
256,192,202427,1,0,0:0:0:0:
256,192,202605,1,8,0:0:0:0:
256,192,202784,1,0,0:0:0:0:
256,192,203141,1,8,0:0:0:0:
256,192,203320,1,0,0:0:0:0:
256,192,203498,1,8,0:0:0:0:
256,192,203855,1,0,0:0:0:0:
256,192,204034,1,0,0:0:0:0:
256,192,204213,1,12,0:0:0:0:
256,192,204570,1,0,0:0:0:0:
256,192,204927,1,8,0:0:0:0:
256,192,205284,1,0,0:0:0:0:
256,192,205463,1,0,0:0:0:0:
256,192,205641,1,8,0:0:0:0:
256,192,205820,1,8,0:0:0:0:
256,192,205998,1,0,0:0:0:0:
256,192,206355,1,8,0:0:0:0:
256,192,206713,1,0,0:0:0:0:
256,192,206891,1,0,0:0:0:0:
256,192,207070,1,8,0:0:0:0:
256,192,207427,1,0,0:0:0:0:
256,192,207784,1,8,0:0:0:0:
256,192,208141,1,8,0:0:0:0:
256,192,208320,1,0,0:0:0:0:
256,192,208498,1,8,0:0:0:0:
256,192,208677,1,8,0:0:0:0:
256,192,208855,1,0,0:0:0:0:
256,192,209213,1,8,0:0:0:0:
256,192,209391,1,8,0:0:0:0:
256,192,209570,1,0,0:0:0:0:
256,192,209748,1,8,0:0:0:0:
256,192,209927,1,8,0:0:0:0:
256,192,210284,1,0,0:0:0:0:
256,192,210641,1,8,0:0:0:0:
256,192,210998,1,0,0:0:0:0:
256,192,211177,1,8,0:0:0:0:
256,192,211355,1,8,0:0:0:0:
256,192,211534,1,8,0:0:0:0:
256,192,211713,1,0,0:0:0:0:
256,192,212070,1,8,0:0:0:0:
256,192,212427,1,0,0:0:0:0:
256,192,212605,1,0,0:0:0:0:
256,192,212784,1,8,0:0:0:0:
256,192,213141,1,8,0:0:0:0:
256,192,213320,1,0,0:0:0:0:
256,192,213498,1,8,0:0:0:0:
256,192,213855,1,0,0:0:0:0:
256,192,214034,1,0,0:0:0:0:
256,192,214213,1,8,0:0:0:0:
256,192,214391,1,8,0:0:0:0:
256,192,214570,1,0,0:0:0:0:
256,192,214927,1,8,0:0:0:0:
256,192,215105,1,8,0:0:0:0:
256,192,215284,1,8,0:0:0:0:
256,192,215463,1,8,0:0:0:0:
256,192,215641,1,4,0:0:0:0:
256,192,215998,1,0,0:0:0:0:
256,192,216355,1,0,0:0:0:0:
256,192,216713,1,0,0:0:0:0:
256,192,216891,1,8,0:0:0:0:
256,192,217070,1,8,0:0:0:0:
256,192,217248,1,0,0:0:0:0:
256,192,217427,1,8,0:0:0:0:
256,192,217784,1,8,0:0:0:0:
256,192,218141,1,8,0:0:0:0:
256,192,218498,1,0,0:0:0:0:
256,192,218855,1,0,0:0:0:0:
256,192,219213,1,8,0:0:0:0:
256,192,219570,1,0,0:0:0:0:
256,192,219748,1,8,0:0:0:0:
256,192,219927,1,0,0:0:0:0:
256,192,220105,1,8,0:0:0:0:
256,192,220284,1,0,0:0:0:0:
256,192,220641,1,8,0:0:0:0:
256,192,220998,1,8,0:0:0:0:
256,192,221355,1,0,0:0:0:0:
256,192,221534,1,0,0:0:0:0:
256,192,221713,1,0,0:0:0:0:
256,192,222070,1,8,0:0:0:0:
256,192,222427,1,0,0:0:0:0:
256,192,222605,1,8,0:0:0:0:
256,192,222784,1,0,0:0:0:0:
256,192,222963,1,8,0:0:0:0:
256,192,223141,1,0,0:0:0:0:
256,192,223498,1,8,0:0:0:0:
256,192,223855,1,8,0:0:0:0:
256,192,224034,1,0,0:0:0:0:
256,192,224213,1,12,0:0:0:0:
256,192,224570,1,8,0:0:0:0:
256,192,224927,1,0,0:0:0:0:
256,192,225284,1,0,0:0:0:0:
256,192,225463,1,8,0:0:0:0:
256,192,225552,1,8,0:0:0:0:
288,160,225641,1,0,0:0:0:0:
256,192,225820,1,8,0:0:0:0:
256,192,225998,1,0,0:0:0:0:
256,192,226355,1,8,0:0:0:0:
256,192,226713,1,8,0:0:0:0:
256,192,226891,1,8,0:0:0:0:
256,192,227070,1,4,0:0:0:0:
256,192,227427,1,0,0:0:0:0:
256,192,227784,1,0,0:0:0:0:
256,192,228141,1,0,0:0:0:0:
256,192,228320,1,8,0:0:0:0:
256,192,228498,1,0,0:0:0:0:
256,192,228855,1,0,0:0:0:0:
256,192,229213,1,0,0:0:0:0:
256,192,229570,1,12,0:0:0:0:
256,192,231355,1,8,0:0:0:0:
256,192,234213,5,0,0:0:0:0:
256,192,237070,5,8,0:0:0:0:
256,192,238498,5,0,0:0:0:0:
256,192,239927,5,0,0:0:0:0:
256,192,240641,1,0,0:0:0:0:
256,192,240998,1,12,0:0:0:0:
256,192,241356,1,8,0:0:0:0:
256,192,241534,1,8,0:0:0:0:
256,192,241713,1,0,0:0:0:0:
256,192,241891,1,8,0:0:0:0:
256,192,242070,1,0,0:0:0:0:
256,192,242248,1,0,0:0:0:0:
256,192,242427,1,0,0:0:0:0:
256,192,242606,1,8,0:0:0:0:
256,192,242695,1,8,0:0:0:0:
256,192,242784,1,0,0:0:0:0:
256,192,242963,1,0,0:0:0:0:
256,192,243141,1,8,0:0:0:0:
256,192,243320,1,8,0:0:0:0:
256,192,243498,1,0,0:0:0:0:
256,192,243856,1,0,0:0:0:0:
256,192,244034,1,8,0:0:0:0:
256,192,244213,1,0,0:0:0:0:
256,192,244391,1,8,0:0:0:0:
256,192,244570,1,0,0:0:0:0:
256,192,244927,1,8,0:0:0:0:
256,192,245106,1,8,0:0:0:0:
256,192,245284,1,0,0:0:0:0:
256,192,245463,1,0,0:0:0:0:
256,192,245641,1,8,0:0:0:0:
256,192,245998,1,0,0:0:0:0:
256,192,246177,1,0,0:0:0:0:
256,192,246356,1,8,0:0:0:0:
256,192,246713,1,12,0:0:0:0:
256,192,247070,1,0,0:0:0:0:
256,192,247248,1,8,0:0:0:0:
256,192,247427,1,0,0:0:0:0:
256,192,247784,1,8,0:0:0:0:
256,192,247963,1,0,0:0:0:0:
256,192,248141,1,0,0:0:0:0:
256,192,248320,1,0,0:0:0:0:
256,192,248498,1,12,0:0:0:0:
256,192,248856,1,8,0:0:0:0:
256,192,249034,1,8,0:0:0:0:
256,192,249213,1,0,0:0:0:0:
256,192,249570,1,0,0:0:0:0:
256,192,249748,1,8,0:0:0:0:
256,192,249927,1,0,0:0:0:0:
256,192,250106,1,8,0:0:0:0:
256,192,250284,1,0,0:0:0:0:
256,192,250641,1,8,0:0:0:0:
256,192,250998,1,0,0:0:0:0:
256,192,251177,1,0,0:0:0:0:
256,192,251356,1,0,0:0:0:0:
256,192,251534,1,8,0:0:0:0:
256,192,251713,1,0,0:0:0:0:
256,192,252070,1,12,0:0:0:0:
256,192,252427,1,0,0:0:0:0:
256,192,252606,1,8,0:0:0:0:
256,192,252784,1,0,0:0:0:0:
256,192,252873,1,0,0:0:0:0:
256,192,252963,1,0,0:0:0:0:
256,192,253141,1,0,0:0:0:0:
256,192,253320,1,8,0:0:0:0:
256,192,253498,1,8,0:0:0:0:
256,192,253677,1,0,0:0:0:0:
256,192,253856,1,8,0:0:0:0:
256,192,253945,1,0,0:0:0:0:
256,192,254034,1,0,0:0:0:0:
256,192,254213,1,8,0:0:0:0:
256,192,254391,1,8,0:0:0:0:
256,192,254570,1,0,0:0:0:0:
256,192,254748,1,0,0:0:0:0:
256,192,254927,1,8,0:0:0:0:
256,192,255284,1,0,0:0:0:0:
256,192,255463,1,8,0:0:0:0:
256,192,255641,1,8,0:0:0:0:
256,192,255820,1,0,0:0:0:0:
256,192,255998,1,0,0:0:0:0:
256,192,256177,1,8,0:0:0:0:
256,192,256356,1,8,0:0:0:0:
256,192,256534,1,8,0:0:0:0:
256,192,256713,1,0,0:0:0:0:
256,192,257070,1,0,0:0:0:0:
256,192,257427,1,8,0:0:0:0:
256,192,257606,1,8,0:0:0:0:
256,192,257784,1,0,0:0:0:0:
256,192,258141,1,12,0:0:0:0:
256,192,258498,1,0,0:0:0:0:
256,192,258677,1,8,0:0:0:0:
256,192,258856,1,0,0:0:0:0:
256,192,259034,1,0,0:0:0:0:
256,192,259213,1,8,0:0:0:0:
256,192,259391,1,8,0:0:0:0:
256,192,259748,1,8,0:0:0:0:
256,192,259927,1,4,0:0:0:0:
256,192,260284,1,0,0:0:0:0:
256,192,260641,1,8,0:0:0:0:
256,192,260998,1,0,0:0:0:0:
256,192,261177,1,0,0:0:0:0:
256,192,261356,1,8,0:0:0:0:
256,192,261713,1,0,0:0:0:0:
256,192,262070,1,8,0:0:0:0:
256,192,262427,1,0,0:0:0:0:
256,192,262784,1,4,0:0:0:0:
256,192,263141,1,0,0:0:0:0:
256,192,263320,1,8,0:0:0:0:
256,192,263498,1,8,0:0:0:0:
256,192,263856,1,8,0:0:0:0:
256,192,264034,1,0,0:0:0:0:
256,192,264213,1,8,0:0:0:0:
256,192,264570,1,0,0:0:0:0:
256,192,264927,1,8,0:0:0:0:
256,192,265106,1,0,0:0:0:0:
256,192,265284,1,0,0:0:0:0:
256,192,265641,1,12,0:0:0:0:
256,192,265998,1,0,0:0:0:0:
256,192,266177,1,8,0:0:0:0:
256,192,266356,1,0,0:0:0:0:
256,192,266713,1,0,0:0:0:0:
256,160,266891,1,0,0:0:0:0:
256,192,267070,1,8,0:0:0:0:
256,192,267427,1,8,0:0:0:0:
256,192,267606,1,0,0:0:0:0:
256,192,267784,1,8,0:0:0:0:
256,192,268141,1,8,0:0:0:0:
256,192,268320,1,0,0:0:0:0:
256,192,268498,1,12,0:0:0:0:
256,192,268856,1,0,0:0:0:0:
256,192,269213,1,0,0:0:0:0:
256,192,269570,1,0,0:0:0:0:
256,192,269927,1,4,0:0:0:0:
256,192,270820,1,0,0:0:0:0:
256,192,270998,1,0,0:0:0:0:
256,192,271356,1,12,0:0:0:0:
256,192,271713,12,12,274213,0:0:0:0:
256,192,276356,5,0,0:0:0:0:
256,192,277070,1,8,0:0:0:0:
256,192,278141,1,8,0:0:0:0:
256,192,278498,1,0,0:0:0:0:
256,192,279570,1,8,0:0:0:0:
256,192,279927,1,0,0:0:0:0:
256,192,280998,1,8,0:0:0:0:
256,192,281177,1,8,0:0:0:0:
256,192,281356,1,0,0:0:0:0:
256,192,282427,1,0,0:0:0:0:
256,192,282784,1,8,0:0:0:0:
256,192,283856,1,8,0:0:0:0:
256,192,284213,1,0,0:0:0:0:
256,192,285284,1,8,0:0:0:0:
256,192,285641,1,0,0:0:0:0:
256,192,286713,1,8,0:0:0:0:
256,192,286891,1,8,0:0:0:0:
256,192,287070,1,0,0:0:0:0:
256,192,288141,1,0,0:0:0:0:
256,192,288498,1,8,0:0:0:0:
256,192,289570,1,8,0:0:0:0:
256,192,289927,1,0,0:0:0:0:
256,192,290998,1,8,0:0:0:0:
256,192,291356,1,0,0:0:0:0:
256,192,292427,1,8,0:0:0:0:
256,192,292606,1,8,0:0:0:0:
253,164,292784,2,8,P|317:164|166:283,1,560
256,192,305641,12,0,314927,0:0:0:0:
