osu file format v14

[General]
AudioFilename: audio.mp3
AudioLeadIn: 0
PreviewTime: 197335
Countdown: 0
SampleSet: Soft
StackLeniency: 0.8
Mode: 0
LetterboxInBreaks: 0
WidescreenStoryboard: 0

[Editor]
DistanceSpacing: 0.8
BeatDivisor: 4
GridSize: 4
TimelineZoom: 2.6

[Metadata]
Title:Nameless Story
TitleUnicode:Nameless Story
Artist:Terashima Takuma
ArtistUnicode:寺島拓篤
Creator:Yudragen
Version:Innominate
Source:転生したらスライムだった件
Tags:tensei slime shitara datta ken that time I got reincarnated as a slime opening op tensura iljaaz [_l_u_k_a_s_] lukas nevlr anime japanese jp male vocal seolv nevir pop jpop chaoticred
BeatmapID:2167561
BeatmapSetID:1036720

[Difficulty]
HPDrainRate:6
CircleSize:4.3
OverallDifficulty:9.4
ApproachRate:9.4
SliderMultiplier:1.77
SliderTickRate:1

[Events]
//Background and Video events
0,0,"979350.jpg",0,0
//Break Periods
//Storyboard Layer 0 (Background)
//Storyboard Layer 1 (Fail)
//Storyboard Layer 2 (Pass)
//Storyboard Layer 3 (Foreground)
//Storyboard Layer 4 (Overlay)
//Storyboard Sound Samples

[TimingPoints]
80,307.692307692308,4,2,1,35,1,0
1156,-133.333333333333,4,2,1,55,0,0
8541,-88.4955752212389,4,2,1,75,0,0
18541,-111.111111111111,4,2,1,60,0,0
23464,-125,4,2,1,60,0,0
30849,-181.818181818182,4,2,1,60,0,0
32080,-142.857142857143,4,2,1,60,0,0
32695,-117.647058823529,4,2,1,60,0,0
33310,-125,4,2,1,60,0,0
43156,-106.382978723404,4,2,1,60,0,0
47618,-71.4285714285714,4,2,1,60,0,0
47772,-210.526315789474,4,2,1,60,0,0
48080,-106.382978723404,4,2,1,60,0,0
53003,-123.456790123457,4,2,1,60,0,0
56695,-123.456790123457,4,2,2,70,0,0
57003,-123.456790123457,4,2,3,75,0,0
57464,-123.456790123457,4,2,1,60,0,0
57772,-83.3333333333333,4,2,1,75,0,1
79926,-100,4,2,1,60,0,0
84849,-142.857142857143,4,2,1,50,0,0
92387,-106.382978723404,4,2,1,60,0,0
94849,-117.647058823529,4,2,1,60,0,0
104695,-100,4,2,1,60,0,0
107156,-112.359550561798,4,2,1,60,0,0
117003,-100,4,2,1,60,0,0
121464,-71.4285714285714,4,2,1,60,0,0
121618,-210.526315789474,4,2,1,60,0,0
121926,-100,4,2,1,60,0,0
128849,-83.3333333333333,4,2,1,60,0,0
131156,-123.456790123457,4,2,2,70,0,0
131618,-80,4,2,1,85,0,1
151618,-133.333333333333,4,2,1,75,0,1
152695,-80,4,2,1,85,0,1
153772,-108.695652173913,4,2,1,75,0,0
156695,-66.6666666666667,4,2,1,75,0,0
157310,-108.695652173913,4,2,1,75,0,0
157618,-66.6666666666667,4,2,1,75,0,0
158233,-108.695652173913,4,2,1,75,0,0
158541,-66.6666666666667,4,2,1,75,0,0
158849,-108.695652173913,4,2,1,75,0,0
161618,-66.6666666666667,4,2,1,75,0,0
162233,-108.695652173913,4,2,1,75,0,0
162541,-66.6666666666667,4,2,1,75,0,0
163156,-108.695652173913,4,2,1,75,0,0
163772,-95.2380952380952,4,2,1,75,0,0
171156,-88.4955752212389,4,2,1,75,0,0
173618,-95.2380952380952,4,2,1,75,0,0
176080,-83.3333333333333,4,2,1,75,0,0
178387,-140.845070422535,4,2,1,45,0,0
188387,-175.438596491228,4,2,1,55,0,0
197618,-100,4,2,1,45,0,0
197695,-100,4,2,1,5,0,0
197772,-100,4,2,1,60,0,0
197849,-100,4,2,1,5,0,0
197926,-100,4,2,1,75,0,0
198003,-100,4,2,1,5,0,0
198080,-76.9230769230769,4,2,1,85,0,1
217772,-133.333333333333,4,2,1,85,0,1
219156,-76.9230769230769,4,2,1,85,0,1
220233,-86.9565217391304,4,2,1,70,0,0
232541,-95.2380952380952,4,2,1,70,0,0

[Colours]
Combo1 : 123,130,206
Combo2 : 137,194,194
Combo3 : 210,188,100
Combo4 : 202,82,79

[HitObjects]
85,45,695,5,2,0:0:0:0:
92,55,849,1,2,0:0:0:0:
31,137,1156,6,0,B|105:130|82:182|168:173,1,132.750005064011,2|0,0:2|0:0,0:0:0:0:
221,231,1618,2,0,P|240:179|228:142,1,66.3750025320054,2|0,0:0|0:0,0:0:0:0:
287,36,1926,1,2,0:0:0:0:
279,42,2080,2,0,P|280:74|296:103,1,66.3750025320054,2|0,0:0|0:0,0:0:0:0:
419,146,2387,6,0,P|356:168|340:244,1,132.750005064011,2|0,0:0|0:0,0:0:0:0:
404,277,2849,2,0,P|450:267|478:258,1,66.3750025320054,2|0,0:0|0:0,0:0:0:0:
351,339,3156,2,0,P|319:329|286:323,1,66.3750025320054,2|0,0:0|0:0,0:0:0:0:
209,342,3464,2,0,P|201:361|214:378,2,44.2500016880036,2|0|0,0:0|0:0|0:0,0:0:0:0:
159,280,3772,5,2,0:0:0:0:
148,289,3926,2,0,L|62:274,1,66.3750025320054,2|0,0:0|0:0,0:0:0:0:
26,217,4233,2,0,P|54:152|57:90,1,132.750005064011,2|0,0:0|0:0,0:0:0:0:
107,15,4695,2,0,P|129:39|142:70,1,66.3750025320054
208,126,5003,5,0,0:0:0:0:
208,126,5105,2,0,L|304:107,1,88.5000033760072
481,37,5618,5,2,0:0:0:0:
392,1,5772,2,0,P|406:65|416:131,1,132.750005064011,2|2,0:0|0:0,0:0:0:0:
325,254,6387,5,2,0:0:0:0:
384,306,6541,2,0,P|394:274|413:247,1,66.3750025320054,2|0,0:0|0:0,0:0:0:0:
288,373,6849,1,2,0:0:0:0:
219,317,7003,1,2,0:2:0:0:
223,313,7080,1,2,0:0:0:0:
317,246,7310,1,2,0:0:0:0:
153,115,7464,5,2,3:1:0:0:
146,125,8541,6,0,P|206:118|328:104,1,150.007500457787,6|0,1:2|0:0,0:0:0:0:
359,63,8849,1,0,3:0:0:0:
413,211,9003,2,0,P|403:148|439:107,1,100.005000305191,2|0,3:0|0:0,0:0:0:0:
338,264,9310,1,0,3:0:0:0:
486,169,9464,1,0,3:0:0:0:
353,70,9618,1,2,3:0:0:0:
492,309,9772,6,0,B|382:288|428:376|303:353,1,200.010000610382,4|0,3:2|3:0,0:0:0:0:
188,203,10233,1,2,3:3:0:0:
338,273,10387,1,2,0:0:0:0:
138,353,10541,5,2,3:2:0:0:
347,264,10695,1,2,3:2:0:0:
140,126,10849,1,2,3:2:0:0:
235,384,11003,6,0,P|218:316|204:258,1,100.005000305191,6|0,3:2|0:0,0:0:0:0:
316,185,11310,1,0,3:0:0:0:
127,116,11464,2,0,P|182:105|218:66,1,100.005000305191,2|0,3:0|0:0,0:0:0:0:
59,221,11772,5,2,3:2:0:0:
210,67,11926,1,2,3:2:0:0:
206,296,12080,5,2,0:3:0:0:
129,26,12233,1,6,1:2:0:0:
118,32,12541,5,0,3:3:0:0:
347,114,12695,1,2,3:3:0:0:
48,230,12849,1,6,1:2:0:0:
39,238,13156,5,2,3:2:0:0:
206,58,13310,1,2,3:0:0:0:
220,375,13464,6,0,P|199:300|172:214,1,150.007500457787,4|0,3:2|0:0,0:0:0:0:
210,161,13772,1,2,3:2:0:0:
374,273,13926,2,0,P|313:285|282:332,1,100.005000305191,2|0,3:0|0:0,0:0:0:0:
435,206,14233,1,0,3:0:0:0:
298,138,14387,1,0,3:0:0:0:
439,337,14541,1,2,3:0:0:0:
512,137,14695,6,0,P|451:124|417:60,1,100.005000305191,2|0,3:2|0:0,0:0:0:0:
196,25,15003,1,2,3:2:0:0:
320,231,15156,1,2,3:3:0:0:
381,14,15310,2,0,P|353:39|345:56,1,50.0025001525955,2|2,3:2|0:0,0:0:0:0:
213,284,15464,5,2,3:2:0:0:
405,186,15618,1,2,3:2:0:0:
143,114,15772,5,2,3:3:0:0:
475,265,15926,2,0,B|372:249|413:345|271:311,1,200.010000610382,6|0,3:2|3:0,0:0:0:0:
131,123,16387,2,0,P|176:174|172:240,1,100.005000305191,2|0,3:0|0:0,0:0:0:0:
107,355,16695,1,0,3:0:0:0:
274,207,16849,1,0,3:0:0:0:
56,87,17003,1,2,3:0:0:0:
281,326,17156,6,0,P|300:219|322:121,1,200.010000610382,6|2,3:2|3:2,0:0:0:0:
467,184,17618,5,2,3:3:0:0:
209,281,17772,1,2,0:0:0:0:
442,265,17926,5,6,3:2:0:0:
255,77,18080,1,2,0:0:0:0:
292,336,18233,6,2,P|304:296|338:265,1,50.0025001525955,2|2,3:0|0:0,0:0:0:0:
392,75,18387,2,2,P|397:99|409:121,1,50.0025001525955
512,353,18541,5,6,1:1:0:0:
504,361,18849,1,4,3:0:0:0:
496,353,19156,1,4,3:0:0:0:
504,345,19464,1,4,3:0:0:0:
451,273,19772,6,0,L|357:257,1,79.649997569275,4|0,3:0|0:0,0:0:0:0:
212,337,20080,1,4,3:0:0:0:
219,350,20233,1,2,0:0:0:0:
278,289,20387,2,0,P|297:230|308:188,1,79.649997569275,4|0,3:0|0:0,0:0:0:0:
229,101,20695,1,4,3:0:0:0:
167,159,20849,1,4,3:0:0:0:
159,152,20926,1,4,3:0:0:0:
147,148,21003,5,4,3:0:0:0:
85,202,21156,1,2,0:0:0:0:
11,108,21310,1,4,3:0:0:0:
3,115,21464,1,2,0:0:0:0:
89,56,21618,2,0,P|52:42|15:21,1,79.649997569275,4|0,3:0|0:0,0:0:0:0:
238,108,21926,2,0,P|272:88|309:74,1,79.649997569275,4|0,3:0|0:0,0:0:0:0:
140,155,22233,6,0,P|159:220|174:342,1,159.29999513855,4|4,3:3|3:0,0:0:0:0:
353,313,22849,5,2,0:0:0:0:
304,250,23003,1,2,0:0:0:0:
351,184,23156,5,2,0:0:0:0:
351,184,23233,1,2,0:0:0:0:
351,184,23310,1,2,0:0:0:0:
456,233,23464,5,6,0:0:0:0:
475,213,23567,1,2,0:0:0:0:
466,178,23669,1,2,0:0:0:0:
475,165,23772,2,0,P|466:121|458:80,1,70.8,0|0,3:0|0:0,0:0:0:0:
319,16,24080,1,0,3:0:0:0:
269,82,24233,2,0,P|326:95|361:109,1,70.8,2|0,0:0|3:0,0:0:0:0:
199,199,24541,6,0,P|188:153|149:131,2,70.8,2|0|2,0:0|3:0|0:0,0:0:0:0:
144,258,25003,2,0,P|97:241|67:231,1,70.8,2|0,3:2|0:0,0:0:0:0:
179,367,25310,2,0,P|208:348|243:341,1,70.8,2|0,3:2|0:0,0:0:0:0:
306,291,25618,2,0,P|335:309|370:316,1,70.8,2|0,3:2|0:0,0:0:0:0:
488,171,25926,5,2,3:2:0:0:
488,171,26003,1,2,0:0:0:0:
488,171,26080,2,0,P|464:182|451:195,1,35.4,2|0,0:0|0:0,0:0:0:0:
424,254,26233,1,0,3:0:0:0:
347,157,26387,2,0,P|362:99|377:0,1,141.6,2|2,0:0|0:2,0:0:0:0:
212,212,26849,2,0,P|194:172|197:112,1,70.8,0|2,3:0|0:0,0:0:0:0:
121,58,27156,5,2,3:2:0:0:
182,10,27310,1,2,0:0:0:0:
254,90,27464,1,2,3:2:0:0:
96,138,27618,2,0,P|85:78|62:-17,1,141.6,2|2,0:0|0:2,0:0:0:0:
178,182,28080,1,0,3:0:0:0:
178,182,28233,1,4,0:3:0:0:
24,241,28387,6,0,B|106:234|71:285|163:285,1,141.6,2|2,3:2|3:2,0:0:0:0:
291,188,28849,2,0,P|262:213|250:332,1,141.6,2|2,0:0|0:0,0:0:0:0:
305,362,29310,1,2,3:2:0:0:
400,221,29464,6,0,P|376:166|352:58,1,141.6,2|0,0:0|0:0,0:0:0:0:
284,0,29926,2,0,P|278:34|269:69,1,70.8,2|0,3:2|0:0,0:0:0:0:
120,209,30233,1,2,3:2:0:0:
63,149,30387,1,2,0:2:0:0:
161,66,30541,1,2,3:2:0:0:
218,262,30695,1,4,0:3:0:0:
218,262,30772,1,4,0:3:0:0:
218,262,30849,6,0,B|136:255|171:306|79:306,1,146.025004456329,6|6,3:2|3:2,0:0:0:0:
78,300,31618,5,0,3:0:0:0:
267,342,31772,1,4,3:0:0:0:
260,354,32080,5,4,3:2:0:0:
80,126,32233,2,0,P|90:178|96:226,1,92.9249971641541,2|0,3:2|0:0,0:0:0:0:
92,226,32541,5,4,3:2:0:0:
280,82,32695,2,0,P|231:74|162:40,1,112.837502152205,2|0,3:2|0:0,0:0:0:0:
170,38,33003,5,4,3:2:0:0:
294,216,33156,1,4,0:3:0:0:
304,207,33233,1,4,0:3:0:0:
303,193,33310,6,0,P|286:263|274:360,2,141.6,0|2|2,3:0|3:2|3:2,0:0:0:0:
374,280,34080,2,0,P|382:340|386:372,1,70.8,2|0,0:0|3:0,0:0:0:0:
512,174,34387,6,0,P|443:156|377:96,1,141.6,2|2,0:0|0:0,0:0:0:0:
335,0,34849,2,0,P|306:70|303:85,1,70.8,2|0,3:2|0:2,0:2:0:0:
205,83,35156,2,0,P|251:143|262:153,1,70.8,2|0,3:2|0:0,0:0:0:0:
120,45,35464,2,0,P|67:33|12:16,1,106.2,2|0,3:2|0:0,0:0:0:0:
13,8,35772,5,2,3:2:0:0:
114,138,35977,1,2,0:0:0:0:
7,232,36182,1,2,0:0:0:0:
232,135,36387,1,2,3:2:0:0:
131,265,36592,1,2,0:0:0:0:
238,359,36797,1,2,0:0:0:0:
357,278,37003,6,0,P|415:263|489:247,1,106.2,2|2,3:2|0:0,0:0:0:0:
471,262,37310,1,2,3:2:0:0:
510,142,37464,1,2,0:0:0:0:
440,90,37618,2,0,P|433:129|422:180,1,70.8,2|0,3:2|0:0,0:0:0:0:
270,21,37926,1,0,3:0:0:0:
332,67,38080,1,0,3:0:0:0:
218,156,38233,6,0,B|132:144|180:101|81:88,1,141.6,6|2,3:2|3:2,0:0:0:0:
12,193,38695,2,0,P|54:178|86:170,1,70.8,2|0,0:0|3:0,0:0:0:0:
127,236,39003,2,0,P|170:244|202:253,1,70.8,2|0,0:0|3:0,0:0:0:0:
236,321,39310,2,0,P|269:349|292:373,1,70.8,2|0,0:0|3:0,0:0:0:0:
446,232,39618,5,2,0:0:0:0:
374,167,39772,2,0,P|359:268|354:297,1,106.2,2|0,3:2|0:0,0:0:0:0:
366,279,40080,5,2,3:2:0:0:
475,313,40310,1,2,0:0:0:0:
475,313,40387,2,0,P|443:317|422:334,1,35.4,0|4,3:0|0:3,0:0:0:0:
377,365,40541,1,2,0:0:0:0:
319,101,40695,5,6,3:2:0:0:
212,244,40849,1,4,0:3:0:0:
212,244,40926,1,4,0:3:0:0:
212,244,41003,1,4,0:3:0:0:
127,0,41156,1,2,1:3:0:0:
119,10,41618,6,0,P|130:65|142:142,1,106.2,2|0,0:3|0:0,0:0:0:0:
135,124,41926,5,2,0:3:0:0:
367,89,42131,1,2,0:3:0:0:
247,226,42336,1,2,0:3:0:0:
468,166,42541,5,2,0:3:0:0:
220,96,42746,1,2,0:3:0:0:
382,6,42951,1,2,0:3:0:0:
346,321,43156,6,0,P|332:248|315:151,1,166.379997461243,4|2,3:2|3:0,0:0:0:0:
243,234,43618,1,2,0:0:0:0:
116,109,43772,1,0,3:0:0:0:
210,89,43926,2,0,P|197:127|185:190,1,83.1899987306214,2|2,0:2|3:0,0:0:0:0:
5,326,44233,6,0,B|105:307|47:255|144:233,1,166.379997461243,2|0,0:0|0:0,0:0:0:0:
222,339,44695,2,0,P|163:335|143:297,1,83.1899987306214,2|0,3:0|0:0,0:0:0:0:
22,160,45003,2,0,P|9:198|-3:261,1,83.1899987306214,2|0,3:2|0:0,0:0:0:0:
109,125,45310,1,2,3:0:0:0:
0,57,45464,1,4,3:0:0:0:
0,57,45541,1,4,3:0:0:0:
0,57,45618,6,0,P|96:40|180:1,1,166.379997461243,2|2,3:2|3:0,0:0:0:0:
202,153,46080,2,0,P|199:106|232:65,1,83.1899987306214,2|0,0:2|3:0,0:0:0:0:
329,1,46387,2,0,P|326:41|300:74,1,83.1899987306214,2|2,0:2|3:0,0:0:0:0:
128,226,46695,6,0,B|227:232|182:290|274:299,1,166.379997461243,2|0,0:0|0:0,0:0:0:0:
388,367,47156,2,0,P|359:333|354:288,1,83.1899987306214,2|0,2:3|0:0,0:0:0:0:
398,224,47464,1,0,3:0:0:0:
263,193,47618,6,0,L|330:178,1,61.9499981094361,2|0,0:1|0:0,0:0:0:0:
384,132,47772,6,0,L|451:147,1,63.0562483162165,6|0,3:1|0:0,0:0:0:0:
458,138,48080,6,0,L|268:95,1,166.379997461243,6|2,3:2|3:0,0:0:0:0:
160,1,48541,2,0,P|192:52|186:112,1,83.1899987306214,2|0,0:0|3:0,0:0:0:0:
56,234,48849,1,2,0:0:0:0:
5,170,49003,2,0,P|13:129|39:97,1,83.1899987306214,2|0,3:0|0:0,0:0:0:0:
224,287,49310,5,2,3:2:0:0:
159,233,49464,1,2,0:0:0:0:
76,318,49618,1,2,3:0:0:0:
241,381,49772,2,0,P|251:301|269:181,1,166.379997461243,2|0,0:0|0:0,0:0:0:0:
333,90,50233,2,0,P|345:154|359:200,1,83.1899987306214,2|2,3:0|0:2,0:0:0:0:
198,24,50541,6,0,P|132:14|81:98,1,166.379997461243,2|2,3:2|3:0,0:0:0:0:
195,258,51003,1,2,0:0:0:0:
254,208,51156,2,0,P|239:154|233:116,1,83.1899987306214,0|0,3:0|0:0,0:0:0:0:
408,237,51464,2,0,P|385:318|376:376,1,124.784998095932,2|0,3:0|0:0,0:0:0:0:
386,366,51772,5,2,3:2:0:0:
477,281,51926,1,2,3:2:0:0:
325,143,52080,1,2,3:0:0:0:
376,52,52233,1,4,3:0:0:0:
376,52,52310,1,4,3:0:0:0:
376,52,52387,1,2,3:2:0:0:
223,144,52541,1,0,3:0:0:0:
483,293,52695,1,2,3:0:0:0:
474,305,53003,6,0,P|359:288|304:279,1,143.370003500244,6|2,3:2|3:0,0:0:0:0:
262,220,53464,2,0,P|147:237|92:246,1,143.370003500244,0|0,3:0|3:2,0:0:0:0:
55,306,53926,1,2,3:0:0:0:
0,132,54080,6,0,P|115:149|170:158,1,143.370003500244,0|0,3:0|3:2,0:0:0:0:
226,4,54541,2,0,P|161:2|115:81,1,143.370003500244,2|2,3:0|3:2,0:0:0:0:
220,177,55003,1,2,3:2:0:0:
284,126,55156,2,0,P|307:122|330:129,2,47.7900011667481,2|2|2,3:0|0:0|0:0,0:0:0:0:
323,260,55464,5,4,3:2:0:0:
323,260,55515,2,0,L|305:207,1,47.7900011667481,2|2,0:0|0:0,0:0:0:0:
484,133,55772,6,0,P|477:142|470:164,2,23.895000583374,0|2|2,0:0|0:0|0:0,0:0:0:0:
412,111,55926,2,0,P|404:88|394:74,2,35.8425008750611
389,187,56233,1,2,0:2:0:0:
498,232,56387,2,0,P|452:238|427:260,1,71.6850017501221,2|2,3:2|0:0,0:0:0:0:
398,323,56695,5,6,1:2:0:0:
164,159,56849,1,2,1:2:0:0:
161,151,57003,1,2,0:0:0:0:
158,143,57156,1,2,0:0:0:0:
234,203,57310,1,2,0:0:0:0:
82,247,57464,2,0,P|138:238|184:276,1,107.527502625183,2|0,0:0|0:0,0:0:0:0:
221,326,57772,6,0,B|316:309|277:380|388:358,1,159.29999513855,6|0,3:2|0:0,0:0:0:0:
434,321,58080,1,2,3:2:0:0:
245,214,58233,1,2,3:0:0:0:
487,143,58387,1,2,0:0:0:0:
353,280,58541,1,0,3:0:0:0:
225,97,58695,2,0,P|212:42|237:-4,1,106.199996759033,2|2,3:2|3:0,0:0:0:0:
492,131,59003,6,0,P|387:114|339:194,1,212.399993518067,6|0,3:2|3:0,0:0:0:0:
88,126,59464,2,0,P|176:140|217:72,1,159.29999513855,2|0,3:0|0:0,0:0:0:0:
235,14,59772,1,2,3:2:0:0:
347,200,59926,1,0,3:0:0:0:
486,22,60080,2,0,P|399:5|375:-2,1,106.199996759033,2|0,3:0|0:0,0:0:0:0:
240,200,60387,5,2,3:2:0:0:
433,269,60541,1,2,3:2:0:0:
316,70,60695,1,2,3:0:0:0:
256,297,60849,1,2,0:0:0:0:
445,143,61003,1,0,3:0:0:0:
193,82,61156,1,0,3:0:0:0:
416,260,61310,1,2,3:0:0:0:
304,79,61464,5,2,0:0:0:0:
243,288,61618,1,2,3:2:0:0:
374,127,61772,1,2,3:2:0:0:
485,347,61926,2,0,P|496:292|516:225,1,106.199996759033,2|0,3:0|3:2,0:0:0:0:
254,144,62233,1,2,3:2:0:0:
496,94,62387,1,4,0:3:0:0:
496,94,62464,1,4,0:3:0:0:
496,94,62541,2,0,P|458:120|448:162,1,53.0999983795166,4|0,3:0|0:0,0:0:0:0:
308,342,62695,6,0,B|230:317|230:317|190:333|190:333|101:303,1,212.399993518067,6|2,3:2|3:2,0:0:0:0:
308,241,63156,1,2,3:0:0:0:
148,129,63310,1,2,0:0:0:0:
291,41,63464,2,0,P|267:103|259:157,1,106.199996759033,2|0,3:2|3:0,0:0:0:0:
188,0,63772,1,2,3:0:0:0:
369,157,63926,6,0,P|430:168|453:26,1,212.399993518067,6|0,3:2|3:0,0:0:0:0:
249,151,64387,2,0,P|273:213|281:267,1,106.199996759033,2|0,3:0|0:0,0:0:0:0:
482,350,64695,2,0,P|492:298|512:249,1,106.199996759033,0|0,3:0|3:0,0:0:0:0:
238,142,65003,1,2,3:0:0:0:
378,301,65156,1,2,3:2:0:0:
465,61,65310,5,0,3:0:0:0:
272,261,65464,2,0,P|167:243|133:236,1,106.199996759033,2|0,3:0|0:0,0:0:0:0:
459,47,65772,5,0,3:0:0:0:
266,247,65926,2,0,P|161:229|127:222,1,106.199996759033,2|0,3:0|0:0,0:0:0:0:
453,33,66233,5,0,3:0:0:0:
260,233,66387,2,0,P|155:215|121:208,1,106.199996759033,2|0,3:0|0:0,0:0:0:0:
312,43,66695,5,0,3:0:0:0:
415,214,66849,2,0,P|394:263|384:315,1,106.199996759033,2|0,3:0|0:0,0:0:0:0:
65,255,67156,5,4,0:3:0:0:
54,214,67232,1,4,0:3:0:0:
61,172,67309,1,4,0:3:0:0:
85,137,67386,1,4,0:3:0:0:
121,115,67463,1,4,0:3:0:0:
163,110,67540,1,4,0:3:0:0:
203,122,67618,6,0,B|144:108|144:108|111:128|111:128|24:104,1,159.29999513855,6|0,3:2|0:0,0:0:0:0:
0,48,67926,1,2,3:2:0:0:
152,198,68080,1,2,3:0:0:0:
218,2,68233,1,2,0:0:0:0:
41,112,68387,1,2,3:2:0:0:
236,215,68541,1,2,3:2:0:0:
105,31,68695,1,2,3:0:0:0:
0,276,68849,6,0,P|93:262|138:365,1,212.399993518067,6|0,0:0|3:0,0:0:0:0:
338,273,69310,1,2,3:0:0:0:
159,189,69464,1,2,0:0:0:0:
285,372,69618,5,2,3:2:0:0:
208,282,69772,1,2,3:2:0:0:
326,190,69926,1,2,3:2:0:0:
164,104,70080,6,0,P|234:94|336:67,1,159.29999513855,6|0,0:0|0:0,0:0:0:0:
382,29,70387,1,2,3:2:0:0:
414,252,70541,2,0,P|430:181|450:126,1,106.199996759033,2|0,3:0|0:0,0:0:0:0:
495,305,70849,1,2,3:2:0:0:
333,175,71003,1,2,3:2:0:0:
512,97,71156,1,2,3:0:0:0:
344,321,71310,6,0,P|275:309|225:295,1,106.199996759033,2|0,3:2|0:0,0:0:0:0:
90,201,71618,1,2,3:2:0:0:
228,158,71772,1,2,3:0:0:0:
117,336,71926,2,0,P|64:344|13:357,1,106.199996759033,2|0,0:0|3:0,0:0:0:0:
96,188,72233,1,2,0:0:0:0:
204,384,72387,1,2,3:0:0:0:
292,98,72541,5,6,3:2:0:0:
283,91,72849,1,2,3:2:0:0:
452,39,73003,1,2,3:0:0:0:
309,188,73156,2,0,P|232:178|203:135,1,106.199996759033,2|0,0:0|3:0,0:0:0:0:
353,8,73464,1,2,3:2:0:0:
410,226,73618,1,2,3:0:0:0:
183,71,73772,5,6,0:0:0:0:
194,58,74080,1,0,3:0:0:0:
119,139,74233,2,0,P|47:122|-10:106,1,106.199996759033,2|0,3:0|0:0,0:0:0:0:
206,43,74541,1,2,3:2:0:0:
56,232,74695,2,0,P|77:301|87:373,1,106.199996759033,2|2,3:2|3:0,0:0:0:0:
222,172,75003,6,0,B|314:158|290:245|405:214,1,159.29999513855,6|0,0:0|0:0,0:0:0:0:
433,179,75310,1,2,3:2:0:0:
263,361,75464,2,0,P|242:292|232:220,1,106.199996759033,2|0,3:0|0:0,0:0:0:0:
365,136,75772,1,0,3:0:0:0:
151,232,75926,1,2,3:2:0:0:
353,353,76080,1,2,3:0:0:0:
212,159,76233,6,0,P|233:90|243:18,1,106.199996759033,2|0,3:2|0:0,0:0:0:0:
144,243,76541,1,2,3:2:0:0:
316,137,76695,1,2,3:0:0:0:
126,52,76849,1,2,3:2:0:0:
244,269,77003,1,0,3:0:0:0:
321,11,77156,1,2,3:2:0:0:
115,151,77310,1,2,3:0:0:0:
408,264,77464,6,0,L|537:237,1,106.199996759033,6|0,0:0|0:0,0:0:0:0:
327,147,77772,1,2,3:2:0:0:
211,355,77926,1,2,3:2:0:0:
130,238,78081,2,0,L|26:259,1,106.199996759033,6|0,0:0|0:0,0:0:0:0:
219,274,78387,1,2,0:0:0:0:
60,160,78541,1,2,3:0:0:0:
217,90,78695,1,2,3:2:0:0:
97,334,78849,5,6,3:2:0:0:
14,82,79003,1,0,3:0:0:0:
207,266,79156,5,6,3:2:0:0:
264,7,79310,1,0,3:0:0:0:
340,286,79464,5,4,0:3:0:0:
389,301,79540,1,4,3:0:0:0:
438,283,79617,1,4,3:0:0:0:
466,239,79694,1,4,3:0:0:0:
461,187,79771,1,4,3:0:0:0:
263,362,79926,6,0,B|168:335|228:286|125:258,1,177,6|2,0:0|0:0,0:0:0:0:
0,167,80387,2,0,P|56:188|126:84,1,177,2|0,3:0|3:0,0:0:0:0:
316,30,80849,1,2,0:2:0:0:
224,0,81003,2,0,P|246:86|248:120,1,88.5,2|2,3:0|0:0,0:0:0:0:
326,218,81310,6,0,P|334:174|347:132,1,88.5,0|2,3:0|0:0,0:0:0:0:
512,299,81618,2,0,P|429:283|381:352,1,177,2|0,3:0|3:0,0:0:0:0:
151,244,82080,1,4,0:3:0:0:
151,244,82156,1,4,0:3:0:0:
151,244,82233,2,0,P|184:257|197:281,1,44.25,2|0,3:0|0:0,0:0:0:0:
246,357,82387,6,0,P|228:264|199:175,1,177,6|2,0:0|0:0,0:0:0:0:
269,33,82849,2,0,P|280:81|241:137,1,88.5,2|0,3:0|0:0,0:0:0:0:
365,232,83156,2,0,P|350:190|363:149,1,88.5,0|0,3:0|0:0,0:0:0:0:
235,369,83464,5,2,3:0:0:0:
308,312,83618,2,0,P|252:290|212:259,1,88.5,2|0,0:0|3:2,0:0:0:0:
44,159,83926,1,2,0:2:0:0:
117,216,84080,2,0,P|61:238|21:269,1,88.5,2|0,3:0|0:0,0:0:0:0:
222,155,84387,1,0,3:0:0:0:
78,72,84541,1,4,0:3:0:0:
78,72,84618,1,4,0:3:0:0:
78,72,84695,2,0,P|111:64|134:48,1,44.25,2|0,3:0|0:0,0:0:0:0:
253,30,84849,6,0,P|233:58|215:165,1,123.899996218872,2|0,3:0|0:0,0:0:0:0:
288,202,85310,2,0,P|308:230|326:337,1,123.899996218872,0|0,3:0|3:0,0:0:0:0:
266,371,85772,1,2,0:0:0:0:
335,319,85926,1,2,3:2:0:0:
420,316,86080,1,2,0:0:0:0:
487,266,86233,1,2,3:2:0:0:
461,186,86387,2,0,P|449:139|455:112,1,61.9499981094361,2|0,0:0|3:0,0:0:0:0:
373,66,86695,2,0,P|373:96|362:125,1,61.9499981094361,2|0,0:0|3:0,0:0:0:0:
294,168,87003,2,0,P|253:160|218:149,1,61.9499981094361,2|0,0:0|3:0,0:0:0:0:
150,42,87272,5,2,0:0:0:0:
150,42,87310,2,0,P|112:96|120:172,1,123.899996218872,2|0,3:2|0:0,0:0:0:0:
72,225,87772,1,0,3:0:0:0:
142,276,88080,1,0,3:0:0:0:
67,333,88387,2,0,P|44:323|26:321,2,41.2999987396241,0|0|0,3:0|0:0|0:0,0:0:0:0:
143,384,88695,5,0,3:0:0:0:
208,308,89003,1,0,3:0:0:0:
306,295,89310,1,0,3:0:0:0:
385,326,89618,2,0,P|387:342|392:357,1,30.974999054718,2|0,3:2|0:0,0:0:0:0:
405,360,89772,6,0,P|391:310|388:222,1,123.899996218872,2|0,3:0|0:0,0:0:0:0:
449,164,90233,2,0,P|407:156|369:142,1,61.9499981094361,0|0,3:0|0:0,0:0:0:0:
328,100,90541,2,0,P|286:108|248:122,1,61.9499981094361,0|2,3:0|0:0,0:0:0:0:
198,181,90849,1,0,3:0:0:0:
162,105,91003,1,2,0:0:0:0:
162,105,91054,2,0,L|170:82,1,20.649999369812,2|0,0:0|0:0,0:0:0:0:
164,74,91156,6,0,P|181:132|191:220,1,123.899996218872,0|0,3:0|3:0,0:0:0:0:
161,268,91618,1,0,0:0:0:0:
271,317,91772,5,2,0:0:0:0:
279,313,91849,1,2,0:0:0:0:
287,308,91926,1,2,0:0:0:0:
295,304,92003,1,2,0:0:0:0:
304,299,92080,2,0,L|418:317,1,92.9249971641541,0|0,3:2|0:0,0:0:0:0:
400,320,92387,6,0,P|413:284|405:252,1,41.5949993653107,4|0,3:2|0:0,0:0:0:0:
352,141,92541,1,2,0:0:0:0:
352,141,92618,1,2,0:0:0:0:
352,141,92695,1,2,3:0:0:0:
202,255,92849,6,0,P|189:219|197:187,1,41.5949993653107,4|0,3:2|0:0,0:0:0:0:
250,76,93003,1,2,0:0:0:0:
250,76,93080,1,2,0:0:0:0:
250,76,93157,1,2,3:0:0:0:
39,180,93310,6,0,P|74:193|94:219,1,41.5949993653107,4|0,3:2|0:0,0:0:0:0:
146,331,93464,1,2,0:0:0:0:
146,331,93541,1,2,0:0:0:0:
146,331,93618,1,2,3:0:0:0:
339,233,93772,6,0,P|303:246|283:272,1,41.5949993653107,4|0,3:2|0:0,0:0:0:0:
232,384,93926,1,2,0:0:0:0:
232,384,94003,1,2,0:0:0:0:
232,384,94080,1,2,3:0:0:0:
494,347,94233,6,0,L|510:286,1,41.5949993653107,0|0,3:0|0:0,0:0:0:0:
450,197,94387,2,0,L|466:258,1,41.5949993653107,0|0,3:0|0:0,0:0:0:0:
388,384,94541,2,0,L|409:302,1,83.1899987306214,2|2,3:0|0:0,0:0:0:0:
299,153,94772,1,2,0:0:0:0:
299,153,94849,6,0,P|387:131|444:72,1,150.450002869606,6|0,3:2|3:0,0:0:0:0:
323,11,95310,2,0,P|377:13|424:36,1,75.225001434803,2|0,0:0|3:0,0:0:0:0:
512,112,95618,2,0,P|458:110|411:87,1,75.225001434803,2|0,0:0|3:0,0:0:0:0:
304,267,95926,1,4,0:3:0:0:
304,267,96003,1,4,0:3:0:0:
304,267,96080,5,2,0:3:0:0:
210,44,96233,1,0,0:3:0:0:
226,194,96387,5,2,3:3:0:0:
275,112,96541,1,2,3:2:0:0:
375,327,96695,5,4,3:3:0:0:
380,335,96772,1,2,3:2:0:0:
385,344,96849,5,4,0:3:0:0:
421,324,96925,1,4,0:3:0:0:
444,290,97002,1,4,0:3:0:0:
449,250,97079,1,4,0:3:0:0:
436,211,97156,1,4,0:3:0:0:
406,183,97233,1,4,0:3:0:0:
362,173,97310,6,0,P|316:182|187:210,1,150.450002869606,6|2,3:2|3:2,0:0:0:0:
147,153,97772,1,0,3:0:0:0:
81,310,97926,1,2,3:2:0:0:
15,241,98080,2,0,P|68:227|101:209,1,75.225001434803,2|0,0:0|3:0,0:0:0:0:
184,1,98387,6,0,P|151:68|139:142,1,150.450002869606,2|2,3:2|0:0,0:0:0:0:
217,286,98849,2,0,P|218:238|190:196,1,75.225001434803,0|0,3:0|0:0,0:0:0:0:
288,167,99156,2,0,P|254:132|205:122,1,75.225001434803,0|0,3:0|0:0,0:0:0:0:
357,230,99464,2,0,P|414:222|443:217,1,75.225001434803,0|4,3:0|0:3,0:0:0:0:
499,183,99695,1,4,0:3:0:0:
499,183,99772,6,0,P|454:207|460:312,1,150.450002869606,4|0,3:0|3:0,0:0:0:0:
389,360,100233,2,0,P|341:351|225:325,1,150.450002869606,2|2,0:0|0:0,0:0:0:0:
108,179,100695,1,0,3:0:0:0:
199,189,100849,6,0,P|161:256|156:282,1,75.225001434803,2|0,0:0|3:0,0:0:0:0:
114,373,101156,2,0,P|92:289|41:218,1,150.450002869606,2|2,0:0|0:0,0:0:0:0:
126,73,101618,1,0,3:0:0:0:
56,27,101772,1,2,3:2:0:0:
102,171,101926,1,4,3:0:0:0:
227,71,102080,1,2,3:2:0:0:
272,234,102233,6,0,P|230:214|211:186,1,75.225001434803,0|0,3:2|0:0,0:0:0:0:
346,102,102541,1,2,3:2:0:0:
377,182,102695,2,0,P|357:265|338:358,1,150.450002869606,2|2,3:2|0:0,0:0:0:0:
281,224,103156,1,0,3:0:0:0:
479,235,103310,6,0,P|461:161|445:88,1,150.450002869606,2|0,3:2|0:0,0:0:0:0:
291,63,103772,2,0,P|339:73|377:120,1,75.225001434803,2|0,3:2|0:0,0:0:0:0:
220,6,104080,1,2,3:2:0:0:
152,62,104233,1,2,3:2:0:0:
276,148,104387,1,2,3:2:0:0:
139,263,104541,1,4,3:3:0:0:
139,263,104618,1,4,0:3:0:0:
139,263,104695,6,0,B|235:254|209:336|324:312,1,177,4|0,3:2|3:0,0:0:0:0:
402,149,105156,2,0,P|328:144|291:242,1,177,4|0,3:2|3:0,0:0:0:0:
494,342,105618,2,0,P|476:282|464:201,1,132.75,4|0,3:2|0:0,0:0:0:0:
472,205,105926,5,4,3:2:0:0:
378,378,106080,1,2,3:0:0:0:
390,383,106387,5,4,3:2:0:0:
284,121,106541,1,2,3:0:0:0:
231,233,106695,1,0,3:0:0:0:
395,152,106849,5,4,3:2:0:0:
117,208,107003,1,4,3:0:0:0:
112,200,107080,1,4,3:0:0:0:
117,190,107156,6,0,P|160:261|132:335,1,157.530000120186,4|2,3:2|3:2,0:0:0:0:
70,283,107618,1,0,0:0:0:0:
199,149,107772,1,0,3:0:0:0:
138,94,107926,2,0,P|99:87|60:78,1,78.7650000600929,2|0,0:2|3:0,0:0:0:0:
294,197,108233,6,0,B|383:178|329:124|428:106,1,157.530000120186,2|0,0:0|0:0,0:0:0:0:
504,240,108695,2,0,P|479:182|486:157,1,78.7650000600929,2|0,3:2|0:2,0:0:0:0:
400,288,109003,2,0,P|427:314|466:322,1,78.7650000600929,2|0,3:2|0:2,0:0:0:0:
333,360,109310,2,0,P|256:334|235:328,1,78.7650000600929,0|4,3:0|0:3,0:0:0:0:
192,285,109541,1,4,0:3:0:0:
192,285,109618,6,0,P|115:311|96:319,1,78.7650000600929,2|0,3:2|0:0,0:0:0:0:
53,274,109823,2,0,P|37:235|58:188,1,78.7650000600929,2|4,0:0|0:3,0:0:0:0:
102,150,110028,1,4,0:3:0:0:
102,150,110080,1,4,0:3:0:0:
9,77,110233,2,0,P|58:66|106:52,1,78.7650000600929,2|0,3:2|0:3,0:0:0:0:
138,0,110438,2,0,P|168:25|199:49,1,78.7650000600929,2|4,3:2|0:3,0:0:0:0:
216,130,110644,1,4,0:3:0:0:
216,130,110695,1,4,0:3:0:0:
385,32,110849,6,0,P|346:21|308:13,1,78.7650000600929,2|0,3:2|0:3,0:0:0:0:
484,115,111156,1,0,3:0:0:0:
419,169,111310,1,4,0:3:0:0:
419,169,111387,1,4,0:3:0:0:
419,169,111464,6,0,L|444:264,1,78.7650000600929,2|0,3:0|0:0,0:0:0:0:
333,328,111695,2,0,L|353:251,1,78.7650000600929,2|0,3:0|0:0,0:0:0:0:
309,184,111926,1,2,3:0:0:0:
413,384,112080,6,0,B|352:365|352:365|329:375|329:375|230:349,1,157.530000120186,2|2,3:2|3:2,0:0:0:0:
106,257,112541,2,0,P|158:298|155:411,1,157.530000120186,2|2,0:0|0:0,0:0:0:0:
38,305,113003,1,0,3:0:0:0:
210,194,113156,6,0,P|154:180|45:138,1,157.530000120186,2|2,0:0|3:2,0:0:0:0:
25,77,113541,1,0,3:0:0:0:
25,77,113618,2,0,P|88:65|105:96,1,78.7650000600929,2|0,3:2|0:0,0:0:0:0:
254,0,113926,1,2,3:2:0:0:
338,159,114080,1,4,3:0:0:0:
338,159,114156,1,4,0:3:0:0:
338,159,114233,2,0,P|323:131|341:103,1,39.3825000300465,4|0,3:0|0:0,0:0:0:0:
392,13,114387,2,0,P|407:41|389:69,1,39.3825000300465,4|8,0:3|0:3,0:0:0:0:
279,252,114541,5,6,3:2:0:0:
501,107,114695,1,4,0:3:0:0:
501,107,114772,1,4,0:3:0:0:
501,107,114849,1,4,3:3:0:0:
155,0,115003,1,6,3:2:0:0:
145,13,115464,2,0,P|165:78|181:164,1,118.147500090139,2|0,3:0|0:0,0:0:0:0:
168,135,115772,5,2,3:0:0:0:
328,214,115977,1,2,3:0:0:0:
165,288,116182,1,2,3:0:0:0:
355,110,116387,5,2,3:0:0:0:
221,358,116592,1,2,3:0:0:0:
56,116,116797,1,2,3:0:0:0:
309,298,116964,5,4,3:0:0:0:
309,298,117003,2,0,B|215:274|279:224|165:195,1,177,4|2,3:2|3:0,0:0:0:0:
298,164,117464,1,2,0:0:0:0:
149,45,117618,1,2,3:2:0:0:
260,29,117772,2,0,P|232:75|223:109,1,88.5,2|2,0:0|3:0,0:0:0:0:
84,304,118080,6,0,P|57:190|27:101,1,177,2|0,0:0|0:0,0:0:0:0:
242,224,118541,2,0,P|192:248|141:236,1,88.5,2|0,3:0|0:0,0:0:0:0:
290,311,118849,2,0,P|320:342|363:352,1,88.5,2|0,3:2|0:0,0:0:0:0:
454,146,119156,1,6,3:3:0:0:
454,146,119233,1,4,3:3:0:0:
454,146,119310,2,0,P|415:162|408:179,1,44.25,4|0,3:3|0:0,0:0:0:0:
359,260,119464,6,0,P|333:175|313:89,1,177,2|2,3:2|0:3,0:0:0:0:
169,0,119926,2,0,P|226:65|225:91,1,88.5,2|0,0:0|3:0,0:0:0:0:
122,200,120233,2,0,P|141:160|178:138,1,88.5,2|2,0:0|3:0,0:0:0:0:
260,337,120541,6,0,B|168:351|193:273|88:293,1,177,2|2,0:0|0:0,0:0:0:0:
245,251,121003,2,0,P|288:242|327:222,1,88.5,2|2,3:0|0:0,0:0:0:0:
383,157,121310,1,0,3:0:0:0:
512,353,121464,6,0,P|519:321|497:280,1,61.9499981094361,2|0,3:1|0:0,0:0:0:0:
460,237,121618,6,0,P|453:205|475:164,1,63.0562483162165,4|0,3:1|0:1,0:1:0:0:
473,174,121926,6,0,P|387:146|299:111,1,177,6|2,3:2|3:0,0:0:0:0:
180,182,122387,2,0,P|209:150|210:107,1,88.5,2|0,0:0|3:0,0:0:0:0:
63,196,122695,1,2,0:0:0:0:
109,256,122849,2,0,P|108:299|78:330,1,88.5,2|0,3:0|0:0,0:0:0:0:
326,345,123156,5,2,3:2:0:0:
274,278,123310,1,2,0:0:0:0:
188,351,123464,1,2,3:0:0:0:
412,280,123618,2,0,P|385:189|384:170,1,88.5,2|0,0:0|3:0,0:0:0:0:
428,103,123926,1,2,0:0:0:0:
272,57,124080,2,0,P|315:47|356:30,1,88.5,2|0,3:0|3:0,0:0:0:0:
174,197,124387,6,0,P|160:108|143:6,1,177,2|2,3:2|3:0,0:0:0:0:
295,168,124849,2,0,P|280:255|266:342,1,177,2|2,3:2|3:2,0:2:0:0:
396,184,125310,2,0,P|439:186|474:212,1,88.5,2|0,3:0|0:0,0:0:0:0:
246,96,125618,5,0,3:0:0:0:
409,273,125772,1,2,3:1:0:0:
181,384,125926,1,2,3:0:0:0:
290,186,126080,1,4,3:3:0:0:
290,186,126156,1,4,3:3:0:0:
290,186,126233,2,0,P|312:245|311:261,1,44.25,2|0,3:2|0:0,0:0:0:0:
106,312,126387,2,0,P|118:293|125:272,1,44.25,4|0,3:0|0:0,0:0:0:0:
57,93,126541,1,4,3:3:0:0:
57,93,126617,1,4,3:3:0:0:
57,93,126695,2,0,P|77:85|99:72,1,44.25,0|0,3:2|0:0,0:0:0:0:
217,275,126849,5,2,3:2:0:0:
318,97,127003,1,4,3:0:0:0:
318,97,127080,1,4,3:0:0:0:
318,97,127156,1,2,3:0:0:0:
398,371,127310,1,4,3:2:0:0:
411,360,127618,5,2,3:2:0:0:
176,198,127772,1,2,3:0:0:0:
501,120,127926,1,4,3:2:0:0:
493,130,128233,5,2,3:2:0:0:
312,0,128387,1,2,3:0:0:0:
211,311,128541,1,4,3:2:0:0:
217,322,128849,6,0,P|190:316|158:299,1,53.0999983795166,2|0,3:1|0:0,0:0:0:0:
0,160,129003,1,2,3:0:0:0:
213,125,129156,1,0,3:0:0:0:
84,384,129310,6,0,P|72:310|69:291,1,53.0999983795166,2|0,0:3|0:0,0:0:0:0:
291,194,129464,1,4,3:0:0:0:
291,194,129541,1,4,3:0:0:0:
291,194,129618,2,0,P|286:220|282:246,1,53.0999983795166,2|0,3:0|0:0,0:0:0:0:
70,99,129772,1,4,3:0:0:0:
70,99,129849,1,4,3:0:0:0:
70,99,129926,2,0,P|96:104|122:108,1,53.0999983795166,2|0,3:0|0:0,0:0:0:0:
182,216,130080,1,4,3:0:0:0:
182,216,130157,1,4,3:0:0:0:
182,216,130234,2,0,P|156:221|130:225,1,53.0999983795166,2|0,3:0|0:0,0:0:0:0:
225,30,130387,1,4,3:0:0:0:
225,30,130464,1,4,3:0:0:0:
225,30,130541,5,0,3:0:0:0:
280,16,130617,1,4,3:0:0:0:
331,43,130694,1,4,3:0:0:0:
351,96,130771,1,4,3:0:0:0:
335,153,130849,1,4,3:0:0:0:
329,209,130925,1,4,3:0:0:0:
363,256,131002,1,4,3:0:0:0:
419,268,131079,1,4,3:0:0:0:
470,241,131156,5,2,1:2:0:0:
140,111,131310,1,2,1:2:0:0:
152,104,131618,6,0,P|137:176|132:262,1,110.625,6|0,3:2|0:0,0:0:0:0:
233,353,131926,1,2,3:2:0:0:
339,173,132080,2,0,P|332:118|320:64,1,110.625,2|0,3:0|0:0,0:0:0:0:
275,250,132387,1,2,3:2:0:0:
427,108,132541,1,2,3:2:0:0:
235,23,132695,1,2,3:0:0:0:
446,275,132849,6,0,B|331:258|375:355|243:337,1,221.25,4|0,0:0|3:0,0:0:0:0:
114,163,133310,2,0,P|223:150|266:238,1,221.25,2|2,3:0|3:2,0:0:0:0:
400,11,133772,1,0,3:0:0:0:
434,126,133926,2,0,P|382:105|327:101,1,110.625,2|0,3:0|0:0,0:0:0:0:
512,46,134233,5,2,3:2:0:0:
381,220,134387,1,2,3:2:0:0:
287,1,134541,1,2,3:0:0:0:
506,169,134695,1,2,0:2:0:0:
233,258,134849,1,0,3:0:0:0:
323,83,135003,1,2,3:2:0:0:
403,317,135156,1,2,3:0:0:0:
239,109,135310,1,2,0:2:0:0:
169,368,135464,5,0,3:0:0:0:
366,207,135618,1,2,3:2:0:0:
110,96,135772,1,2,3:0:0:0:
249,275,135926,1,4,3:0:0:0:
249,275,136003,1,4,3:0:0:0:
249,275,136080,2,0,P|269:240|259:190,1,55.3125,2|0,3:2|0:0,0:0:0:0:
311,15,136233,1,4,3:0:0:0:
311,15,136310,1,4,3:0:0:0:
311,15,136387,2,0,P|316:41|332:64,1,55.3125,2|0,3:3|0:0,0:0:0:0:
512,241,136541,6,0,B|404:249|441:149|316:155,1,221.25,6|2,3:2|3:2,0:0:0:0:
170,27,137003,1,2,3:0:0:0:
252,221,137156,1,2,0:2:0:0:
87,105,137310,2,0,P|141:116|191:139,1,110.625,2|0,3:2|3:0,0:0:0:0:
21,25,137618,1,2,3:0:0:0:
107,220,137772,6,0,P|89:272|84:327,1,110.625,6|0,3:2|0:0,0:0:0:0:
334,198,138080,1,0,3:0:0:0:
202,153,138233,2,0,P|242:255|259:364,1,221.25,2|2,3:0|3:2,0:0:0:0:
428,232,138695,1,0,3:0:0:0:
294,102,138849,2,0,P|358:93|396:58,1,110.625,2|0,3:0|3:0,0:0:0:0:
202,49,139156,5,2,3:2:0:0:
350,299,139310,1,2,3:0:0:0:
365,291,139618,5,2,3:0:0:0:
83,218,139772,1,2,3:2:0:0:
221,160,139926,1,0,3:0:0:0:
160,366,140080,5,2,3:0:0:0:
74,62,140234,1,2,3:2:0:0:
61,76,140541,5,2,3:2:0:0:
373,162,140695,1,2,3:0:0:0:
310,13,140849,1,0,3:0:0:0:
216,273,141003,1,2,3:0:0:0:
257,246,141079,1,0,3:0:0:0:
306,239,141156,1,0,3:0:0:0:
353,254,141233,1,0,3:0:0:0:
389,287,141310,1,0,3:0:0:0:
408,333,141387,1,0,3:0:0:0:
406,382,141464,6,0,P|423:285|440:193,1,165.9375,6|0,3:2|0:0,0:0:0:0:
479,159,141772,1,2,3:2:0:0:
253,59,141926,1,2,3:0:0:0:
419,5,142080,1,2,0:2:0:0:
313,214,142233,1,2,3:2:0:0:
130,30,142387,2,0,P|197:37|249:47,1,110.625,2|2,3:2|3:0,0:0:0:0:
139,283,142695,6,0,P|84:292|29:297,1,110.625,6|0,3:2|0:0,0:0:0:0:
190,155,143003,1,2,3:2:0:0:
255,372,143156,1,2,3:0:0:0:
431,246,143310,2,0,P|376:236|321:231,1,110.625,2|0,0:2|3:2,0:0:0:0:
57,99,143618,1,2,3:2:0:0:
233,266,143772,1,2,3:2:0:0:
307,0,143926,6,0,P|249:18|182:-8,1,110.625,6|0,3:2|0:0,0:0:0:0:
374,127,144233,1,0,3:2:0:0:
189,190,144387,2,0,P|135:178|84:196,1,110.625,2|0,3:0|0:0,0:0:0:0:
267,117,144695,1,2,3:2:0:0:
142,279,144849,1,2,3:2:0:0:
35,102,145003,1,2,3:0:0:0:
293,233,145156,6,0,B|363:208|363:208|416:234|416:234|523:194,1,221.25,6|2,3:2|3:2,0:0:0:0:
288,123,145618,1,2,3:0:0:0:
454,29,145772,2,0,P|427:75|426:147,1,110.625,2|0,0:0|3:0,0:0:0:0:
512,292,146080,1,2,0:0:0:0:
302,103,146233,1,2,3:0:0:0:
182,384,146387,6,0,P|169:297|159:246,1,110.625,6|0,3:2|0:0,0:0:0:0:
74,107,146695,1,2,3:2:0:0:
6,297,146849,1,2,3:0:0:0:
201,144,147003,2,0,P|210:89|218:34,1,110.625,2|0,0:0|3:0,0:0:0:0:
285,246,147310,1,2,3:2:0:0:
89,116,147464,1,2,3:0:0:0:
378,33,147618,6,0,P|461:93|425:236,1,221.25,6|0,3:2|3:0,0:0:0:0:
182,384,148080,2,0,P|174:322|209:275,1,110.625,2|0,3:0|0:0,0:0:0:0:
358,148,148387,1,2,3:2:0:0:
264,347,148541,1,2,3:2:0:0:
164,106,148695,1,2,3:0:0:0:
400,297,148849,6,0,B|276:290|339:196|207:190,1,221.25,6|0,3:2|0:0,0:0:0:0:
28,18,149310,2,0,P|63:73|64:120,1,110.625,2|0,3:0|0:0,0:0:0:0:
10,296,149618,1,2,3:2:0:0:
202,183,149772,1,2,3:2:0:0:
49,117,149926,1,2,3:0:0:0:
163,362,150080,6,0,P|233:346|293:331,1,110.625,2|0,3:2|0:0,0:0:0:0:
370,169,150387,1,2,3:2:0:0:
466,364,150541,1,2,3:0:0:0:
256,252,150695,1,0,3:2:0:0:
505,154,150849,1,2,3:2:0:0:
360,384,151003,1,2,3:2:0:0:
229,93,151156,1,2,3:0:0:0:
512,270,151310,5,6,3:2:0:0:
501,284,151618,1,2,0:0:0:0:
438,225,151772,1,2,0:0:0:0:
491,140,151926,2,0,P|483:105|479:66,1,66.3750025320054,2|0,0:0|0:0,0:0:0:0:
246,84,152233,1,2,0:0:0:0:
296,150,152387,1,2,0:0:0:0:
375,63,152541,1,2,0:0:0:0:
234,325,152695,5,6,3:2:0:0:
140,36,152849,1,0,3:0:0:0:
153,370,153003,5,6,3:2:0:0:
232,66,153157,1,0,3:0:0:0:
368,371,153310,6,0,P|329:360|314:342,1,55.3125,2|4,3:2|3:0,0:0:0:0:
159,149,153464,1,4,3:0:0:0:
159,149,153541,1,4,3:0:0:0:
159,149,153618,2,0,P|175:170|179:197,1,55.3125,4|0,3:0|0:0,0:0:0:0:
42,362,153772,6,0,P|28:293|-4:179,1,162.83999453357,6|2,0:0|0:0,0:0:0:0:
93,72,154233,2,0,P|38:108|-8:99,1,81.4199972667848,0|0,3:0|3:0,0:0:0:0:
164,34,154464,1,4,3:0:0:0:
164,34,154541,2,0,P|203:42|232:70,1,81.4199972667848,2|0,3:2|0:0,0:0:0:0:
319,252,154849,1,0,3:0:0:0:
369,187,155003,6,0,P|360:125|356:73,1,81.4199972667848,2|0,3:2|0:0,0:0:0:0:
495,282,155310,2,0,P|504:220|508:168,1,81.4199972667848,2|0,3:2|0:0,0:0:0:0:
374,365,155618,1,2,3:2:0:0:
253,187,155772,2,0,P|204:181|157:298,1,162.83999453357,2|0,3:0|3:0,0:0:0:0:
199,313,156233,1,0,0:0:0:0:
351,162,156387,5,0,3:0:0:0:
325,89,156541,1,0,3:0:0:0:
432,205,156695,6,0,B|415:253|415:253|420:280|420:280|390:357,1,132.750005064011,2|0,3:1|0:0,0:0:0:0:
512,155,157003,2,0,B|492:104|492:104|497:77|497:77|480:29,1,132.750005064011,2|0,3:1|0:0,0:0:0:0:
342,177,157310,5,0,3:0:0:0:
316,104,157464,1,0,3:0:0:0:
161,225,157618,6,0,B|113:208|113:208|86:213|86:213|9:183,1,132.750005064011,2|0,3:1|0:0,0:0:0:0:
211,305,157926,2,0,B|261:285|261:285|288:290|288:290|336:273,1,132.750005064011,2|0,3:1|0:0,0:0:0:0:
307,119,158233,5,0,3:0:0:0:
333,192,158387,1,0,3:0:0:0:
512,25,158541,6,0,B|445:20|445:20|399:66|399:66|322:36,1,199.125007596016,2|0,3:1|0:0,0:0:0:0:
325,28,158849,6,0,P|258:9|193:85,1,162.83999453357,2|0,3:2|3:0,0:0:0:0:
20,159,159310,1,0,3:0:0:0:
81,238,159464,2,0,P|100:163|108:104,1,122.129995900177,2|0,3:0|0:0,0:0:0:0:
100,106,159772,1,0,3:0:0:0:
244,253,159926,6,0,P|188:268|172:288,1,81.4199972667848,0|0,3:0|0:0,0:0:0:0:
371,190,160233,2,0,P|315:175|299:155,1,81.4199972667848,0|0,3:0|0:0,0:0:0:0:
423,290,160541,1,2,3:2:0:0:
479,226,160695,2,0,P|468:185|445:65,1,162.83999453357,2|2,3:0|3:2,0:0:0:0:
431,58,161310,5,0,3:0:0:0:
367,116,161464,1,0,3:0:0:0:
181,23,161618,6,0,B|245:3|245:3|298:79,1,132.750005064011,2|0,3:1|0:0,0:0:0:0:
118,124,161926,2,0,B|54:104|54:104|1:180,1,132.750005064011,2|0,3:1|0:0,0:0:0:0:
67,312,162233,5,0,3:0:0:0:
131,254,162387,1,0,3:0:0:0:
317,347,162541,6,0,B|253:367|253:367|200:291,1,132.750005064011,2|0,3:1|0:0,0:0:0:0:
380,246,162849,2,0,B|444:266|444:266|497:190,1,132.750005064011,2|0,3:1|0:0,0:0:0:0:
285,145,163156,5,4,3:0:0:0:
285,145,163233,1,4,3:0:0:0:
285,145,163310,2,0,P|256:175|258:207,1,40.7099986333924,4|4,3:0|3:0,0:0:0:0:
96,358,163464,5,2,3:1:0:0:
96,358,163541,1,4,3:0:0:0:
96,358,163618,2,0,P|82:328|58:315,1,40.7099986333924,4|4,3:0|3:0,0:0:0:0:
5,160,163772,6,0,B|115:141|52:72|160:56,1,185.849994328308,6|2,3:2|3:0,0:0:0:0:
344,216,164233,1,2,0:0:0:0:
266,277,164387,2,0,P|255:217|230:161,1,92.9249971641541,0|2,3:0|0:0,0:0:0:0:
483,89,164695,1,2,3:0:0:0:
405,27,164849,2,0,P|398:72|383:116,1,92.9249971641541,2|4,3:2|3:2,0:0:0:0:
512,282,165156,5,2,0:0:0:0:
431,225,165310,1,2,3:0:0:0:
326,365,165464,1,2,0:0:0:0:
445,317,165618,1,0,3:0:0:0:
258,264,165772,1,2,3:2:0:0:
397,126,165926,1,2,3:0:0:0:
241,371,166080,1,4,3:0:0:0:
241,371,166156,1,4,3:0:0:0:
241,371,166233,6,0,P|164:352|119:342,1,92.9249971641541,2|0,3:2|3:2,0:0:0:0:
12,172,166541,1,2,3:0:0:0:
75,129,166695,1,2,0:2:0:0:
182,222,166849,1,2,3:2:0:0:
8,296,167003,1,2,3:2:0:0:
150,148,167156,1,2,3:0:0:0:
0,58,167310,1,4,3:0:0:0:
0,58,167387,1,4,3:0:0:0:
0,58,167464,5,4,3:0:0:0:
89,222,167618,1,0,3:0:0:0:
227,82,167772,1,2,3:0:0:0:
146,24,167926,1,2,0:0:0:0:
258,290,168080,5,0,3:0:0:0:
292,191,168233,1,0,3:0:0:0:
327,93,168387,1,2,3:0:0:0:
324,81,168695,6,0,P|395:69|470:47,1,139.387495746231,6|0,3:2|0:0,0:0:0:0:
512,0,169003,1,2,3:0:0:0:
445,241,169156,1,2,3:2:0:0:
511,178,169310,2,0,P|447:158|408:141,1,92.9249971641541,0|0,3:0|3:0,0:0:0:0:
279,313,169618,2,0,P|264:261|320:192,1,139.387495746231,2|0,3:0|0:0,0:0:0:0:
325,197,169926,5,0,3:0:0:0:
169,344,170080,1,2,3:2:0:0:
98,85,170233,1,2,3:0:0:0:
204,149,170387,1,2,0:0:0:0:
50,239,170541,2,0,P|15:219|-12:214,3,46.4624985820771,2|2|2|2,3:2|0:0|0:0|0:0,0:0:0:0:
112,356,170849,2,0,P|133:347|152:334,1,46.4624985820771,2|2,3:2|0:0,0:0:0:0:
250,280,171003,2,0,P|271:288|290:301,1,46.4624985820771,2|2,3:2|0:0,0:0:0:0:
394,371,171156,6,0,P|406:306|415:240,1,100.005000305191,6|0,3:2|0:0,0:0:0:0:
302,167,171464,5,2,3:0:0:0:
482,63,171618,2,0,P|489:112|498:161,1,100.005000305191,6|0,3:2|0:0,0:0:0:0:
332,2,171926,5,2,3:0:0:0:
215,195,172080,2,0,P|156:182|125:136,1,100.005000305191,6|0,3:2|0:0,0:0:0:0:
376,81,172387,5,2,3:0:0:0:
434,282,172541,2,0,P|415:367|412:399,1,100.005000305191,6|0,3:2|0:0,0:0:0:0:
283,81,172849,5,2,3:0:0:0:
512,180,173003,2,0,P|449:178|411:208,1,100.005000305191,6|0,3:2|0:0,0:0:0:0:
228,353,173310,2,0,P|271:376|320:370,1,100.005000305191,6|0,3:2|0:0,0:0:0:0:
179,76,173618,6,0,P|200:134|219:274,1,185.849994328308,6|2,0:2|3:0,0:0:0:0:
116,144,174080,1,2,0:0:0:0:
307,250,174233,2,0,P|326:194|323:137,1,92.9249971641541,0|2,3:0|0:0,0:0:0:0:
389,19,174541,2,0,P|392:65|408:108,1,92.9249971641541,2|2,3:0|0:0,0:0:0:0:
495,201,174849,5,0,3:0:0:0:
280,92,175003,1,2,0:0:0:0:
404,295,175156,1,2,3:0:0:0:
489,85,175310,1,2,0:0:0:0:
300,194,175464,1,0,3:0:0:0:
512,322,175618,2,0,P|490:298|474:260,1,46.4624985820771,4|4,3:0|3:0,0:0:0:0:
396,95,175772,1,2,3:0:0:0:
303,356,175926,1,4,3:0:0:0:
303,356,176003,1,4,3:0:0:0:
303,356,176080,6,0,P|238:331|202:312,1,106.199996759033,6|0,3:2|0:0,0:0:0:0:
135,328,176310,1,4,3:0:0:0:
135,328,176387,1,4,3:0:0:0:
280,80,176541,2,0,P|303:139|311:185,1,106.199996759033,2|0,3:0|0:0,0:0:0:0:
154,80,176849,1,0,3:0:0:0:
324,0,177003,1,2,3:0:0:0:
202,229,177156,1,2,3:2:0:0:
53,0,177310,5,0,3:0:0:0:
209,141,177464,1,2,3:2:0:0:
8,212,177618,1,2,3:0:0:0:
8,159,177694,1,4,3:0:0:0:
36,115,177771,1,4,3:0:0:0:
82,91,177848,1,4,3:0:0:0:
135,95,177925,5,4,3:0:0:0:
207,366,178080,1,2,3:0:0:0:
197,353,178387,6,0,P|253:320|320:347,1,125.669993672013,6|0,0:0|0:0,0:0:0:0:
411,371,178849,2,0,P|387:324|383:293,1,62.8349968360063,2|0,3:2|0:0,0:0:0:0:
327,252,179156,2,0,P|336:222|353:195,1,62.8349968360063,2|0,3:2|0:0,0:0:0:0:
420,154,179464,1,2,3:2:0:0:
484,90,179618,6,0,P|426:75|338:52,1,125.669993672013,2|0,0:0|0:0,0:0:0:0:
299,112,180080,2,0,P|248:120|221:124,1,62.8349968360063,2|0,3:2|0:0,0:0:0:0:
176,62,180387,2,0,P|125:54|98:50,1,62.8349968360063,2|0,3:2|0:0,0:0:0:0:
57,110,180695,1,2,3:2:0:0:
64,120,180849,1,0,3:0:0:0:
7,189,181003,5,2,3:2:0:0:
63,252,181156,2,0,P|41:294|40:328,1,62.8349968360063,2|0,0:2|3:2,0:0:0:0:
92,371,181464,2,0,B|160:358|129:321|202:308,1,125.669993672013,2|0,0:0|0:0,0:0:0:0:
269,352,181926,2,0,P|312:358|340:342,1,62.8349968360063,2|0,3:2|0:0,0:0:0:0:
484,318,182233,5,2,3:2:0:0:
418,380,182387,2,0,P|408:335|392:249,1,125.669993672013,2|0,0:0|0:0,0:0:0:0:
323,215,182849,1,2,3:2:0:0:
369,145,183003,2,0,P|324:140|305:128,1,62.8349968360063,2|0,0:0|3:0,0:0:0:0:
183,35,183310,6,0,P|217:75|214:172,1,125.669993672013,2|2,0:0|0:0,0:0:0:0:
182,224,183772,1,2,3:2:0:0:
114,173,183926,1,2,0:0:0:0:
46,226,184080,1,2,3:2:0:0:
79,302,184233,2,0,P|62:340|57:386,1,62.8349968360063,2|0,0:2|3:0,0:0:0:0:
160,301,184541,1,4,3:0:0:0:
160,301,184618,1,4,3:0:0:0:
160,301,184695,6,0,P|210:313|268:251,2,125.669993672013,2|2|2,3:2|3:2|3:2,0:0:0:0:
106,241,185464,1,2,0:0:0:0:
155,177,185618,2,0,P|141:130|137:100,1,62.8349968360063,2|4,3:2|3:0,0:0:0:0:
161,50,185849,1,4,3:0:0:0:
161,50,185926,5,4,3:0:0:0:
235,91,186080,2,0,P|281:85|366:71,1,125.669993672013,2|2,0:0|0:0,0:0:0:0:
424,118,186541,1,2,3:2:0:0:
379,183,186695,1,2,0:2:0:0:
432,242,186849,1,2,3:2:0:0:
498,194,187003,6,0,P|509:225|512:331,1,125.669993672013,2|2,0:0|0:0,0:0:0:0:
455,363,187464,2,0,L|409:354,1,31.4174984180032,2|0,3:2|0:0,0:0:0:0:
365,317,187618,2,0,P|308:327|240:341,2,125.669993672013,2|0|0,0:0|0:0|0:0,0:0:0:0:
410,258,188310,1,0,3:0:0:0:
410,258,188387,5,2,3:2:0:0:
115,88,189618,5,2,3:2:0:0:
192,132,190080,1,2,0:0:0:0:
182,216,190541,1,2,0:0:0:0:
39,313,190849,5,2,3:2:0:0:
123,361,191310,1,2,0:0:0:0:
342,143,191926,6,0,P|328:130|314:130,2,25.2224996921082,2|2|2,0:0|0:0|0:2,0:0:0:0:
324,216,192541,1,2,0:0:0:0:
74,38,193310,5,0,3:0:0:0:
148,86,193772,1,2,0:0:0:0:
426,16,194541,5,4,3:2:0:0:
207,318,195618,5,2,0:0:0:0:
269,236,195926,1,2,0:0:0:0:
235,168,196080,1,2,0:0:0:0:
91,64,197003,5,2,0:0:0:0:
158,129,197233,1,2,0:0:0:0:
153,139,197310,1,2,0:0:0:0:
125,216,197541,1,2,0:0:0:0:
133,225,197618,2,0,L|113:272,1,44.25,2|0,3:0|0:0,0:0:0:0:
133,225,197772,2,0,L|113:272,1,44.25,2|0,3:0|0:0,0:0:0:0:
133,225,197926,2,0,L|113:272,1,44.25,2|0,3:0|0:0,0:0:0:0:
36,351,198080,6,0,B|146:351|87:289|191:288,1,172.574992100144,4|0,1:2|0:0,0:0:0:0:
254,326,198387,1,2,3:2:0:0:
40,263,198541,1,2,3:0:0:0:
268,144,198695,1,2,0:0:0:0:
187,380,198849,1,2,3:2:0:0:
0,149,199003,2,0,P|44:141|122:111,1,115.049994733429,2|2,3:2|3:0,0:0:0:0:
373,33,199310,6,0,P|282:36|267:167,1,230.099989466858,6|2,3:2|3:2,0:0:0:0:
465,112,199772,2,0,L|495:-27,1,115.049994733429,2|0,3:0|0:0,0:0:0:0:
335,112,200080,1,2,3:2:0:0:
485,235,200233,1,0,3:0:0:0:
379,347,200387,2,0,L|349:208,1,115.049994733429,2|0,3:0|0:0,0:0:0:0:
128,112,200695,5,2,3:2:0:0:
208,348,200849,1,2,3:2:0:0:
62,165,201003,1,2,3:0:0:0:
3,378,201156,1,4,3:3:0:0:
3,378,201233,1,4,3:0:0:0:
3,378,201310,1,4,3:0:0:0:
206,264,201464,1,2,3:2:0:0:
0,113,201618,1,2,3:0:0:0:
208,362,201772,6,0,B|347:334|240:255|395:227,1,230.099989466858,2|0,3:2|3:0,0:0:0:0:
272,71,202233,2,0,P|242:120|251:177,1,115.049994733429,2|2,0:3|0:0,0:0:0:0:
389,324,202541,1,2,3:0:0:0:
426,125,202695,1,6,0:3:0:0:
420,106,202772,1,4,0:3:0:0:
414,87,202849,1,4,0:3:0:0:
502,175,203003,6,0,P|415:154|301:130,1,172.574992100144,6|0,0:2|0:0,0:0:0:0:
278,80,203310,1,2,3:2:0:0:
508,30,203464,1,2,3:0:0:0:
387,243,203618,1,2,0:0:0:0:
303,0,203772,1,2,3:2:0:0:
399,258,203926,2,0,P|373:328|362:386,1,115.049994733429,2|2,3:2|3:0,0:0:0:0:
194,113,204233,6,0,P|119:99|46:218,1,230.099989466858,6|0,0:0|3:2,0:0:0:0:
264,321,204695,2,0,P|238:251|227:193,1,115.049994733429,2|0,3:0|0:0,0:0:0:0:
294,36,205003,1,2,3:2:0:0:
139,194,205156,1,2,0:0:0:0:
10,35,205310,2,0,P|65:21|119:0,1,115.049994733429,2|0,3:0|0:0,0:0:0:0:
319,233,205618,5,0,3:0:0:0:
214,7,205772,1,2,3:0:0:0:
214,7,205926,1,0,3:0:0:0:
176,302,206080,5,0,3:0:0:0:
291,50,206233,1,2,3:0:0:0:
291,50,206387,1,0,3:0:0:0:
305,380,206541,5,0,3:0:0:0:
173,93,206695,1,2,3:0:0:0:
173,93,206849,1,0,3:0:0:0:
357,196,207003,5,0,3:0:0:0:
53,287,207156,2,0,P|129:303|193:317,1,115.049994733429,2|0,3:0|3:0,0:0:0:0:
386,96,207464,1,4,0:3:0:0:
340,94,207540,1,4,0:3:0:0:
296,108,207617,1,4,0:3:0:0:
265,142,207694,1,4,0:3:0:0:
232,175,207771,1,4,0:3:0:0:
188,190,207848,1,4,0:3:0:0:
142,181,207926,6,0,B|223:162|223:162|232:148|232:148|311:127,1,172.574992100144,4|0,1:0|0:0,0:0:0:0:
367,92,208233,1,2,3:2:0:0:
232,260,208387,1,2,3:0:0:0:
123,58,208541,1,2,0:0:0:0:
350,203,208695,1,2,3:2:0:0:
124,303,208849,1,2,3:2:0:0:
226,67,209003,1,2,3:0:0:0:
446,312,209156,6,0,P|290:283|193:265,1,230.099989466858,6|2,0:0|3:2,0:0:0:0:
429,209,209618,1,2,3:0:0:0:
238,75,209772,1,2,0:0:0:0:
413,121,209926,5,2,3:2:0:0:
334,141,210080,1,2,3:2:0:0:
255,161,210233,1,2,3:2:0:0:
26,26,210387,6,0,P|106:37|135:105,1,115.049994733429,6|0,0:2|0:0,0:0:0:0:
213,242,210695,1,2,3:2:0:0:
56,106,210849,1,2,3:0:0:0:
204,227,211003,1,2,0:0:0:0:
0,232,211156,1,2,3:2:0:0:
117,384,211310,1,2,3:2:0:0:
167,141,211464,1,2,3:0:0:0:
56,312,211618,6,0,B|140:294|140:294|177:319|177:319|287:294,1,230.099989466858,6|2,0:0|3:2,0:0:0:0:
356,122,212080,1,2,3:0:0:0:
470,279,212233,2,0,P|429:239|373:236,1,115.049994733429,2|0,0:0|3:0,0:0:0:0:
507,91,212541,1,2,0:0:0:0:
395,326,212695,1,2,3:0:0:0:
192,78,212849,5,6,0:0:0:0:
183,89,213156,1,2,3:2:0:0:
371,6,213310,1,2,3:0:0:0:
364,247,213464,2,0,P|348:191|334:135,1,115.049994733429,2|0,0:0|3:0,0:0:0:0:
379,0,213772,1,2,3:2:0:0:
173,101,213926,1,2,3:0:0:0:
449,180,214080,5,6,0:0:0:0:
441,173,214387,1,0,3:0:0:0:
507,257,214541,2,0,P|491:313|477:369,1,115.049994733429,2|0,3:0|0:0,0:0:0:0:
248,199,214849,1,2,3:2:0:0:
512,102,215003,2,0,P|456:88|400:72,1,115.049994733429,2|2,3:2|3:0,0:0:0:0:
128,73,215310,6,0,P|227:79|257:194,1,230.099989466858,4|2,0:0|3:2,0:0:0:0:
137,350,215772,1,2,3:0:0:0:
327,267,215926,1,4,0:3:0:0:
327,267,216003,1,4,0:3:0:0:
327,267,216080,1,4,0:3:0:0:
163,157,216233,1,0,3:0:0:0:
298,361,216387,1,2,3:0:0:0:
389,161,216541,1,0,3:0:0:0:
220,384,216695,5,2,3:2:0:0:
90,91,216849,1,2,3:2:0:0:
334,274,217003,1,2,3:3:0:0:
47,322,217156,2,0,P|91:313|124:276,1,57.5249973667146,2|4,3:2|0:3,0:0:0:0:
267,185,217310,1,2,3:2:0:0:
15,148,217464,5,2,3:2:0:0:
224,373,217618,1,2,3:3:0:0:
305,9,217772,1,4,0:0:0:0:
314,18,218080,6,0,L|299:105,1,66.3750025320054,2|2,0:0|0:0,0:0:0:0:
246,139,218387,1,2,0:0:0:0:
309,211,218695,6,0,L|324:307,1,66.3750025320054,2|2,0:0|0:0,0:0:0:0:
370,338,219003,1,2,0:0:0:0:
109,106,219156,5,6,1:2:0:0:
452,285,219310,1,0,3:0:0:0:
85,341,219464,5,6,1:2:0:0:
487,163,219618,1,0,3:0:0:0:
210,0,219772,5,4,2:3:0:0:
217,51,219848,1,4,2:3:0:0:
224,102,219925,1,4,2:3:0:0:
231,153,220002,1,4,2:3:0:0:
239,205,220080,1,4,2:3:0:0:
504,68,220233,6,0,B|390:54|432:155|310:134,1,203.550003882408,4|2,1:2|3:2,0:0:0:0:
87,107,220695,2,0,P|187:110|221:22,1,203.550003882408,2|0,3:0|3:0,0:0:0:0:
316,154,221156,1,2,3:2:0:0:
390,1,221310,1,2,3:0:0:0:
487,163,221464,6,0,P|471:231|467:271,1,101.775001941204,2|0,3:2|3:0,0:0:0:0:
338,384,221772,1,2,3:2:0:0:
231,190,221926,2,0,P|281:183|330:170,1,101.775001941204,2|0,3:0|0:0,0:0:0:0:
169,283,222233,1,2,3:2:0:0:
261,89,222387,1,4,3:0:0:0:
261,89,222464,1,4,3:0:0:0:
261,89,222541,1,2,3:0:0:0:
382,306,222695,6,0,B|266:290|338:212|211:199,1,203.550003882408,2|2,3:2|3:2,0:0:0:0:
87,49,223156,2,0,P|117:98|97:164,1,101.775001941204,2|0,3:0|0:0,0:0:0:0:
37,307,223464,1,0,3:0:0:0:
212,211,223618,1,0,3:0:0:0:
27,114,223772,1,2,3:0:0:0:
193,365,223926,6,0,P|273:347|413:314,1,203.550003882408,2|2,3:2|0:0,0:0:0:0:
420,130,224387,2,0,P|383:169|377:219,1,101.775001941204,2|0,3:0|0:0,0:0:0:0:
509,56,224695,1,0,3:0:0:0:
290,133,224849,1,4,3:0:0:0:
290,133,224926,1,4,3:0:0:0:
290,133,225003,1,2,3:0:0:0:
481,268,225156,5,6,0:2:0:0:
469,282,225464,1,2,0:0:0:0:
395,109,225618,2,0,P|411:45|413:-1,1,101.775001941204,2|0,3:0|0:0,0:0:0:0:
240,230,225926,2,0,P|244:280|258:329,1,101.775001941204,0|0,3:0|3:0,0:0:0:0:
148,139,226233,1,2,3:0:0:0:
80,372,226387,6,0,P|17:306|104:202,1,203.550003882408,2|2,3:2|3:2,0:0:0:0:
250,129,226849,2,0,P|196:115|54:59,1,203.550003882408,2|0,3:0|3:2,0:0:0:0:
151,268,227310,1,4,3:0:0:0:
151,268,227387,1,4,3:0:0:0:
151,268,227464,1,6,3:0:0:0:
382,133,227618,6,0,P|465:142|489:188,1,101.775001941204,2|0,3:2|0:0,0:0:0:0:
346,290,227926,1,2,3:2:0:0:
239,112,228080,2,0,P|258:50|256:-17,1,101.775001941204,2|0,3:0|0:0,0:0:0:0:
413,217,228387,1,0,3:0:0:0:
239,296,228541,1,2,3:2:0:0:
357,115,228695,1,2,3:0:0:0:
512,384,228849,6,0,B|436:367|436:367|414:337|414:337|315:314,1,203.550003882408,2|2,3:2|0:0,0:0:0:0:
78,264,229310,2,0,B|154:247|154:247|176:217|176:217|275:194,1,203.550003882408,2|2,3:0|3:2,0:0:0:0:
86,158,229772,5,2,3:2:0:0:
239,311,229926,1,2,3:0:0:0:
279,0,230080,1,6,3:2:0:0:
266,12,230387,5,0,3:0:0:0:
395,203,230541,1,2,3:0:0:0:
112,68,230695,1,6,3:2:0:0:
127,55,231003,5,0,3:0:0:0:
273,174,231156,1,2,3:0:0:0:
10,282,231310,1,6,3:2:0:0:
56,0,231464,5,6,1:2:0:0:
177,353,231618,1,0,3:0:0:0:
208,23,231772,5,6,1:2:0:0:
94,384,231926,1,0,3:0:0:0:
287,152,232080,5,2,3:2:0:0:
0,300,232233,1,2,3:2:0:0:
112,68,232387,1,2,3:0:0:0:
276,381,232541,6,0,B|394:359|309:292|441:272,1,185.849994328308,6|2,3:2|0:0,0:0:0:0:
231,210,233003,2,0,P|267:268|273:323,1,92.9249971641541,2|0,3:2|0:0,0:0:0:0:
386,131,233310,2,0,P|350:189|344:244,1,92.9249971641541,0|0,3:2|0:0,0:0:0:0:
233,47,233618,2,0,P|269:105|275:160,1,92.9249971641541,0|0,3:2|0:0,0:0:0:0:
430,53,233926,6,0,P|365:43|327:75,1,92.9249971641541,0|0,3:0|0:0,0:0:0:0:
178,132,234233,2,0,P|113:142|75:110,1,92.9249971641541,0|0,3:0|0:0,0:0:0:0:
18,30,234541,2,0,P|48:121|64:227,1,185.849994328308,0|2,3:0|3:2,0:0:0:0:
32,279,234926,1,2,0:0:0:0:
32,279,235003,2,0,P|71:285|100:266,1,46.4624985820771,2|2,0:0|0:0,0:0:0:0:
267,154,235156,5,2,0:1:0:0:
198,242,235310,1,2,0:0:0:0:
292,327,235464,1,0,3:0:0:0:
353,69,235618,1,2,3:0:0:0:
340,57,235926,5,2,0:0:0:0:
479,152,236080,1,0,3:0:0:0:
182,252,236233,1,2,3:0:0:0:
166,264,236541,5,2,0:0:0:0:
261,208,236695,1,0,3:0:0:0:
136,142,236849,1,2,0:0:0:0:
276,72,237003,1,0,3:0:0:0:
92,208,237156,1,2,0:0:0:0:
373,280,237310,1,0,3:0:0:0:
92,384,237464,1,2,0:0:0:0:
80,368,237772,5,2,3:0:0:0:
258,80,237926,1,2,3:0:0:0:
378,294,238080,1,0,3:0:0:0:
133,0,238233,5,2,3:0:0:0:
260,302,238387,1,0,3:0:0:0:
384,5,238541,1,2,3:0:0:0:
178,356,238695,5,6,1:2:0:0:
