osu file format v14

[General]
AudioFilename: audio.mp3
AudioLeadIn: 0
PreviewTime: 58052
Countdown: 0
SampleSet: Soft
StackLeniency: 0.4
Mode: 0
LetterboxInBreaks: 0
WidescreenStoryboard: 1

[Editor]
Bookmarks: 58767,78189
DistanceSpacing: 0.8
BeatDivisor: 4
GridSize: 32
TimelineZoom: 1

[Metadata]
Title:Meguru Mono (TV Size)
TitleUnicode:メグルモノ (TV Size)
Artist:Terashima Takuma
ArtistUnicode:寺島拓篤
Creator:wolf3211
Version:TheShadow's Normal
Source:転生したらスライムだった件
Tags:Cris- Darksonic Crissa [-crissaegrim-] TheShadowOfDark Hazu- Tensei shitara Slime Datta Ken That Time I Got Reincarnated as a Slime opening op 2 anime japanese
BeatmapID:1946219
BeatmapSetID:931508

[Difficulty]
HPDrainRate:4
CircleSize:3.5
OverallDifficulty:4
ApproachRate:5
SliderMultiplier:1.2
SliderTickRate:1

[Events]
//Background and Video events
0,0,"Rimuru.jpg",0,0
Video,502,"Opening.mp4"
//Break Periods
//Storyboard Layer 0 (Background)
//Storyboard Layer 1 (Fail)
//Storyboard Layer 2 (Pass)
//Storyboard Layer 3 (Foreground)
//Storyboard Sound Samples

[TimingPoints]
502,346.820809248555,4,2,5,50,1,0
502,-125,4,2,5,50,0,0
10906,-111.111111111111,4,2,1,68,0,0
22698,-111.111111111111,4,2,2,73,0,0
33796,-111.111111111111,4,2,1,73,0,0
44895,-111.111111111111,4,2,1,73,0,0
55993,-111.111111111111,4,2,1,73,0,0
58767,-100,4,2,1,80,0,1
69692,-100,4,2,1,80,0,0
69866,-100,4,2,1,80,0,1
76802,-111.111111111111,4,2,1,80,0,0
78189,-111.111111111111,4,2,1,73,0,0

[Colours]
Combo1 : 192,192,192
Combo2 : 119,220,249
Combo3 : 255,130,130
Combo4 : 255,145,200

[HitObjects]
148,175,502,5,2,0:3:0:0:
126,61,1022,2,0,L|186:54,2,48,2|2|2,0:0|0:0|0:0,0:0:0:0:
89,74,1542,2,0,P|63:95|43:119,1,48,2|2,0:0|0:0,0:0:0:0:
89,333,2756,1,2,0:3:0:0:
196,292,3276,6,0,B|248:264|278:307|349:278,1,144,2|2,0:3|0:3,0:0:0:0:
442,77,4837,2,0,P|406:71|377:76,1,48,2|2,0:0|0:0,0:0:0:0:
356,77,5184,2,0,P|321:83|292:81,1,48,2|2,0:0|0:0,0:0:0:0:
274,66,5530,2,0,L|267:10,2,48,2|2|2,0:0|0:0|0:0,0:0:0:0:
259,101,6051,5,2,0:3:0:0:
98,266,7091,2,0,L|32:265,1,48,2|2,0:0|0:0,0:0:0:0:
33,35,8305,1,2,0:3:0:0:
128,98,8825,6,0,P|195:122|263:103,1,144,2|2,0:3|0:3,0:0:0:0:
394,23,10039,2,0,P|459:43|457:123,1,144,2|0,0:3|0:0,0:0:0:0:
426,188,10906,2,0,L|431:268,2,80.9999975280763,0|0|0,0:0|0:0|0:0,0:0:0:0:
380,154,11600,6,0,P|326:139|264:173,1,107.999996704102,4|0,3:0|3:0,0:0:0:0:
246,185,12120,2,0,B|186:253|206:355,1,161.999995056153,0|0,0:0|3:0,0:0:0:0:
364,241,13334,1,0,3:0:0:0:
380,154,13681,2,0,P|357:91|326:63,1,107.999996704102,0|0,3:0|3:0,0:0:0:0:
243,46,14374,6,0,L|136:39,1,107.999996704102,8|0,3:0|3:0,0:0:0:0:
92,31,14895,2,0,P|171:117|166:180,1,161.999995056153,8|2,0:3|3:2,0:0:0:0:
113,318,16108,1,0,3:0:0:0:
83,236,16455,2,0,P|43:224|14:194,2,80.9999975280763,0|0|0,3:0|0:0|3:0,0:0:0:0:
126,236,17149,6,0,L|243:226,1,107.999996704102,8|0,3:0|3:0,0:0:0:0:
276,223,17669,2,0,P|360:260|388:324,1,161.999995056153,8|0,0:3|3:0,0:0:0:0:
223,375,18883,1,0,3:0:0:0:
143,339,19230,2,0,P|123:289|126:236,1,107.999996704102,0|0,3:0|3:0,0:0:0:0:
160,156,19923,6,0,P|173:92|161:50,1,107.999996704102,8|0,3:0|3:0,0:0:0:0:
132,20,20444,2,0,P|193:65|293:54,1,161.999995056153,8|2,0:3|3:2,0:0:0:0:
441,11,21658,1,0,3:0:0:0:
445,97,22004,2,0,P|492:79|517:46,2,80.9999975280763,0|0|0,3:0|3:0|3:0,0:0:0:0:
402,105,22698,6,0,P|352:126|322:169,1,107.999996704102,4|8,3:0|0:0,0:0:0:0:
314,211,23218,2,0,P|183:181|149:199,1,161.999995056153,0|8,0:0|0:0,0:0:0:0:
103,250,24085,1,2,3:2:0:0:
148,323,24432,2,0,P|206:347|264:340,2,107.999996704102,8|0|10,0:0|3:2|0:0,0:0:0:0:
103,250,25473,6,0,P|118:176|104:130,1,107.999996704102,2|8,3:2|0:0,0:0:0:0:
93,105,25993,2,0,P|137:73|203:73,1,107.999996704102,0|0,0:0|0:0,0:0:0:0:
231,79,26513,1,10,0:0:0:0:
309,115,26860,1,0,3:0:0:0:
387,79,27207,1,8,0:0:0:0:
456,130,27554,2,0,P|482:169|491:231,1,107.999996704102,2|10,3:2|0:0,0:0:0:0:
460,309,28247,6,0,P|426:344|348:348,1,107.999996704102,2|8,3:2|0:0,0:0:0:0:
326,347,28767,2,0,P|264:342|211:361,1,107.999996704102,2|0,0:0|0:0,0:0:0:0:
183,377,29288,1,10,0:0:0:0:
96,372,29634,1,0,3:0:0:0:
60,293,29981,1,8,0:0:0:0:
106,220,30328,2,0,P|128:160|118:99,1,107.999996704102,2|8,3:2|0:0,0:0:0:0:
61,56,31022,6,0,P|114:29|177:44,1,107.999996704102,2|8,3:2|0:0,0:0:0:0:
199,53,31542,2,0,P|260:79|358:67,1,161.999995056153,2|10,0:0|0:0,0:0:0:0:
431,33,32409,1,0,3:0:0:0:
503,79,32756,1,8,0:0:0:0:
507,165,33103,2,0,P|489:216|438:250,1,107.999996704102,0|8,3:0|3:2,0:0:0:0:
365,276,33796,6,0,P|361:224|383:188,2,80.9999975280763,4|0|0,3:0|3:0|3:0,0:0:0:0:
383,315,34490,1,8,0:0:0:0:
307,357,34837,2,0,L|82:344,1,215.999993408203,2|0,3:2|3:0,0:0:0:0:
31,282,35877,1,8,0:0:0:0:
75,207,36224,1,0,0:0:0:0:
77,120,36571,6,0,P|37:127|-1:160,2,80.9999975280763,2|0|0,3:2|3:0|3:0,0:0:0:0:
120,123,37265,1,8,0:0:0:0:
192,169,37611,2,0,L|420:148,1,215.999993408203,2|0,3:2|3:0,0:0:0:0:
482,191,38652,2,0,P|491:130|465:84,1,107.999996704102,10|0,0:0|0:0,0:0:0:0:
403,36,39345,6,0,P|339:26|289:42,1,107.999996704102,2|0,3:2|0:0,0:0:0:0:
258,54,39866,1,0,3:0:0:0:
179,17,40212,1,0,3:0:0:0:
109,68,40559,2,0,L|126:250,1,161.999995056153,2|0,3:2|3:0,0:0:0:0:
139,314,41426,1,10,0:0:0:0:
223,332,41773,1,0,0:0:0:0:
305,307,42120,6,0,P|310:350|290:394,2,80.9999975280763,2|2|2,3:2|3:2|3:2,0:0:0:0:
291,265,42814,1,8,0:0:0:0:
230,203,43160,2,0,L|14:195,1,215.999993408203,2|0,3:2|3:0,0:0:0:0:
6,108,44201,2,0,L|126:111,1,107.999996704102,10|0,0:0|0:0,0:0:0:0:
200,116,44895,6,0,P|268:113|310:82,1,107.999996704102,4|8,3:0|0:1,0:0:0:0:
332,63,45415,2,0,P|320:167|363:217,1,161.999995056153,0|8,0:0|0:1,0:0:0:0:
387,232,46108,1,0,3:0:0:0:
326,347,46629,2,0,P|269:360|205:337,1,107.999996704102,8|0,0:1|3:0,0:0:0:0:
151,298,47322,1,8,0:1:0:0:
178,215,47669,6,0,P|195:149|181:106,1,107.999996704102,0|8,3:0|0:1,0:0:0:0:
162,74,48189,2,0,P|216:111|312:75,1,161.999995056153,0|8,0:0|0:1,0:0:0:0:
331,52,48883,1,2,3:2:0:0:
457,22,49403,1,8,0:1:0:0:
498,97,49750,2,0,L|491:213,1,107.999996704102,0|8,3:0|0:1,0:0:0:0:
485,291,50444,5,10,0:0:0:0:
415,343,50791,1,8,0:0:0:0:
350,286,51137,2,0,P|328:323|327:363,2,80.9999975280763,8|8|8,0:0|0:0|0:0,0:0:0:0:
385,260,51831,1,10,0:0:0:0:
358,177,52178,1,10,0:0:0:0:
274,154,52525,2,0,P|304:104|342:89,2,80.9999975280763,10|10|10,0:0|0:0|0:0,0:0:0:0:
251,190,53218,6,0,P|213:217|132:227,1,107.999996704102,10|8,0:0|0:0,0:0:0:0:
68,245,53912,2,0,P|70:201|103:157,2,80.9999975280763,8|10|10,0:0|0:0|0:0,0:0:0:0:
75,287,54606,1,2,3:2:0:0:
131,351,54952,2,0,P|189:364|240:350,1,107.999996704102,0|0,3:0|3:0,0:0:0:0:
301,296,55646,1,0,3:0:0:0:
338,218,55993,6,0,B|384:143|354:46|354:46|246:31|184:73|184:73|228:137,1,431.999986816407,2|2,3:2|0:0,0:0:0:0:
301,296,58074,1,0,3:0:0:0:
387,295,58421,1,10,0:0:0:0:
338,218,58767,6,0,P|285:208|226:244,1,120,4|8,0:3|0:0,0:0:0:0:
167,312,59461,2,0,P|125:354|54:357,1,120,0|8,3:0|0:0,0:0:0:0:
27,333,59981,2,0,L|43:128,1,180,2|8,3:2|0:0,0:0:0:0:
104,81,60848,2,0,P|49:58|4:66,2,90,2|0|0,3:2|0:0|0:0,0:0:0:0:
146,104,61542,6,0,P|200:129|262:120,1,120,2|8,3:2|0:0,0:0:0:0:
303,105,62062,2,0,P|285:194|374:230,1,180,2|8,0:0|0:0,0:0:0:0:
399,237,62756,1,2,0:0:0:0:
506,141,63276,2,0,P|511:77|465:28,1,120,8|2,0:0|3:2,0:0:0:0:
387,3,63970,1,8,0:0:0:0:
310,61,64317,6,0,P|253:91|182:76,1,120,2|8,3:2|0:0,0:0:0:0:
156,63,64837,2,0,P|182:172|164:248,1,180,2|8,0:0|0:0,0:0:0:0:
89,290,65704,2,0,P|132:328|207:326,1,120,2|8,3:2|0:0,0:0:0:0:
238,318,66224,1,2,0:0:0:0:
314,376,66571,1,0,3:0:0:0:
402,339,66918,1,0,0:0:0:0:
402,339,67091,6,0,P|454:238|396:125,1,240,2|0,3:2|3:0,0:0:0:0:
365,102,67958,1,8,0:0:0:0:
282,151,68305,1,2,3:2:0:0:
157,79,68825,1,10,0:0:0:0:
88,146,69172,2,0,L|105:266,1,120,10|10,0:0|0:0,0:0:0:0:
61,351,69866,6,0,P|123:358|180:328,1,120,2|8,3:2|0:0,0:0:0:0:
210,303,70386,2,0,P|263:271|391:288,1,180,2|8,3:2|0:0,0:0:0:0:
410,369,71253,2,0,P|469:307|467:260,1,120,2|8,3:2|0:0,0:0:0:0:
458,231,71773,2,0,P|448:173|474:114,1,120,2|0,3:2|3:0,0:0:0:0:
500,80,72293,1,8,0:0:0:0:
433,10,72640,6,0,L|300:17,1,120,2|8,3:2|0:0,0:0:0:0:
270,39,73160,2,0,P|241:126|277:226,1,180,2|8,0:0|0:0,0:0:0:0:
289,249,73854,1,2,3:2:0:0:
195,354,74374,2,0,L|73:347,1,120,8|0,0:0|3:0,0:0:0:0:
3,282,75068,1,0,3:0:0:0:
55,201,75415,6,0,P|72:138|41:77,1,120,2|8,3:2|0:0,0:0:0:0:
12,61,75935,2,0,L|199:53,1,180,2|0,3:2|3:0,0:0:0:0:
287,50,76802,1,10,0:0:0:0:
287,50,76975,1,8,0:0:0:0:
405,230,77843,1,2,0:0:0:0:
409,316,78189,6,0,P|452:308|482:278,2,80.9999975280763,4|0|0,3:0|3:0|3:0,0:0:0:0:
365,313,78883,1,8,0:0:0:0:
283,283,79230,2,0,P|277:321|299:371,2,80.9999975280763,2|2|2,3:2|3:2|3:2,0:0:0:0:
307,247,79923,1,8,0:0:0:0:
245,186,80270,1,0,3:0:0:0:
159,201,80617,1,8,0:0:0:0:
93,144,80964,6,0,P|121:120|165:111,2,80.9999975280763,0|0|0,3:0|3:0|3:0,0:0:0:0:
75,183,81658,1,8,0:0:0:0:
93,267,82004,2,0,P|41:265|8:238,2,80.9999975280763,2|2|2,3:2|3:2|3:2,0:0:0:0:
136,259,82698,1,8,0:0:0:0:
214,294,83045,1,2,3:2:0:0:
291,256,83392,1,10,0:0:0:0:
373,282,83738,6,0,P|463:253|482:185,1,161.999995056153,2|0,3:2|3:0,0:0:0:0:
487,152,84432,1,8,0:0:0:0:
498,66,84779,1,2,3:2:0:0:
498,66,84952,2,0,P|429:31|358:67,1,161.999995056153,2|8,3:2|0:0,0:0:0:0:
311,138,85819,2,0,P|233:149|197:124,1,107.999996704102,2|10,3:2|0:0,0:0:0:0:
157,67,86513,6,0,L|149:240,2,161.999995056153,2|2|4,3:2|3:2|3:0,0:0:0:0:
