osu file format v14

[General]
AudioFilename: audio.mp3
AudioLeadIn: 0
PreviewTime: 58074
Countdown: 0
SampleSet: Soft
StackLeniency: 0.7
Mode: 2
LetterboxInBreaks: 0
WidescreenStoryboard: 1

[Editor]
Bookmarks: 11600,33796,44895,50444,58767,78189,87554,87727
DistanceSpacing: 1
BeatDivisor: 4
GridSize: 32
TimelineZoom: 2

[Metadata]
Title:Meguru Mono (TV Size)
TitleUnicode:メグルモノ (TV Size)
Artist:Terashima Takuma
ArtistUnicode:寺島拓篤
Creator:4rcheR-
Version:amulet's Salad
Source:転生したらスライムだった件
Tags:archer rew0825 amulet-pp anime japanese male vocals op opening 2 two theme 転スラ Tensura Tensei Shitara Suraimu Datta Ken That Time I Got Reincarnated as a Slime Rimuru Tempest Benimaru Ranga Souei Shion Shuna Milim Nava Hakurou Shizue Izawa Arte Refact アルテリファクト 桑原聖 Kuwabara Satoru 酒井拓也 Sakai Takuya
BeatmapID:3469683
BeatmapSetID:1695742

[Difficulty]
HPDrainRate:3
CircleSize:2.5
OverallDifficulty:7
ApproachRate:7
SliderMultiplier:1.5
SliderTickRate:1

[Events]
//Background and Video events
0,0,"megurumono.jpg",0,0
Video,434,"megurumono.mp4"
//Break Periods
//Storyboard Layer 0 (Background)
//Storyboard Layer 1 (Fail)
//Storyboard Layer 2 (Pass)
//Storyboard Layer 3 (Foreground)
//Storyboard Layer 4 (Overlay)
//Storyboard Sound Samples

[TimingPoints]
502,346.820809248555,4,2,21,40,1,0
1022,-100,4,2,22,40,0,0
2756,-100,4,2,21,40,0,0
3623,-100,4,2,22,40,0,0
3796,-100,4,2,21,40,0,0
4837,-100,4,2,22,40,0,0
6051,-100,4,2,21,40,0,0
7091,-100,4,2,22,40,0,0
8305,-100,4,2,21,40,0,0
9172,-100,4,2,22,40,0,0
9345,-100,4,2,21,40,0,0
10039,-100,4,2,22,40,0,0
11600,-100,4,2,22,50,0,0
22698,-100,4,2,22,55,0,0
33796,-100,4,2,22,60,0,0
44895,-100,4,2,22,65,0,0
50444,-100,4,2,22,70,0,0
54606,-100,4,2,22,75,0,0
58767,-100,4,2,22,80,0,1
76802,-100,4,2,22,80,0,0
78189,-100,4,2,22,70,0,0
86513,-100,4,2,22,75,0,0
87554,-100,4,2,22,80,0,0
87900,-100,4,2,22,60,0,0

[Colours]
Combo1 : 148,90,48
Combo2 : 0,230,230
Combo3 : 240,228,9
Combo4 : 187,147,72

[HitObjects]
161,284,502,5,2,0:0:0:0:
352,189,1022,1,2,0:0:0:0:
397,154,1195,1,2,0:0:0:0:
410,98,1369,1,2,0:0:0:0:
373,47,1542,1,2,0:0:0:0:
319,32,1715,1,2,0:0:0:0:
95,276,2756,6,0,L|256:273,1,150,2|0,0:0|0:0,0:0:0:0:
319,265,3276,1,2,0:0:0:0:
182,247,3623,2,0,L|171:144,1,75,2|2,0:0|0:0,0:0:0:0:
130,283,4837,5,2,0:0:0:0:
130,207,5010,1,2,0:0:0:0:
197,176,5184,1,2,0:0:0:0:
264,147,5357,1,2,0:0:0:0:
196,125,5530,1,2,0:0:0:0:
127,92,5704,1,2,0:0:0:0:
127,17,5877,1,2,0:0:0:0:
205,6,6051,5,2,0:0:0:0:
386,234,7091,2,0,L|394:139,1,75,2|2,0:0|0:0,0:0:0:0:
210,193,8305,6,0,P|124:160|66:43,1,225,2|2,0:0|0:0,0:0:0:0:
201,103,9172,2,0,L|205:196,1,75,2|2,0:0|0:0,0:0:0:0:
420,287,10039,1,2,1:2:0:0:
263,173,10559,6,0,L|256:72,1,75,2|2,0:0|0:0,0:0:0:0:
333,94,10906,2,0,L|467:73,2,112.5,2|2|2,0:0|0:0|1:2,0:0:0:0:
160,187,11600,5,6,1:3:0:0:
160,187,11947,1,2,1:2:0:0:
235,188,12120,2,0,L|431:77,1,225,2|0,0:0|1:0,0:0:0:0:
296,139,12987,5,0,1:0:0:0:
221,129,13160,2,0,L|144:91,2,75,2|2|2,0:0|1:2|0:0,0:0:0:0:
296,139,13681,2,0,L|300:44,1,75,2|2,1:2|0:0,0:0:0:0:
374,64,14028,1,2,1:2:0:0:
105,222,14374,6,0,P|159:269|262:289,1,150,6|2,1:3|1:2,0:0:0:0:
309,297,14895,1,6,0:3:0:0:
382,290,15068,2,0,L|378:134,1,150,0|0,1:0|1:0,0:0:0:0:
241,155,15762,6,0,L|126:55,1,150,0|2,1:0|1:2,0:0:0:0:
203,93,16282,1,2,0:0:0:0:
278,92,16455,2,0,L|404:62,2,112.5,2|2|2,1:2|0:0|0:0,0:0:0:0:
105,261,17149,5,6,1:3:0:0:
105,261,17496,1,2,1:2:0:0:
180,262,17669,2,0,P|285:203|348:103,1,225,6|0,0:3|1:0,0:0:0:0:
207,127,18536,5,0,1:0:0:0:
132,125,18709,2,0,L|36:104,2,75,2|2|2,0:0|1:2|0:0,0:0:0:0:
207,127,19230,2,0,L|206:28,1,75,2|2,1:2|0:0,0:0:0:0:
131,46,19577,1,2,1:2:0:0:
401,320,19923,6,0,L|504:275,2,112.5,6|2|2,1:3|0:0|0:0,0:0:0:0:
325,318,20617,2,0,L|320:162,1,150,0|4,1:0|1:3,0:0:0:0:
184,266,21311,6,0,L|27:214,1,150,0|2,0:0|0:0,0:0:0:0:
115,202,21831,1,2,0:0:0:0:
281,197,22004,2,0,L|373:131,2,112.5,2|2|10,1:2|1:2|1:3,0:0:0:0:
109,257,22698,6,0,P|47:206|78:129,1,150,6|10,1:2|0:1,0:0:0:0:
136,126,23218,2,0,L|288:81,1,150,2|8,0:0|0:3,0:0:0:0:
204,88,23738,1,8,0:1:0:0:
339,260,24085,5,0,1:0:0:0:
339,260,24259,2,0,L|241:247,2,75,2|10|2,0:0|0:1|0:0,0:0:0:0:
410,255,24779,2,0,P|458:218|400:170,1,150,2|10,1:2|0:1,0:0:0:0:
136,218,25473,5,2,1:2:0:0:
286,150,25819,2,0,L|307:53,1,75,10|10,0:1|0:3,0:0:0:0:
31,95,26340,2,0,L|18:21,1,75,10|10,0:3|0:1,0:0:0:0:
168,222,26860,6,0,L|331:200,1,150,0|8,1:0|0:1,0:0:0:0:
181,214,27554,1,2,1:2:0:0:
106,219,27727,1,10,0:3:0:0:
105,291,27900,1,10,0:1:0:0:
180,307,28074,1,2,0:0:0:0:
353,312,28247,6,0,L|486:219,1,150,6|10,1:2|0:1,0:0:0:0:
401,226,28767,1,10,0:3:0:0:
281,153,29114,1,10,0:3:0:0:
114,181,29288,2,0,L|8:182,2,75,10|0|0,0:1|0:0|1:0,0:0:0:0:
234,162,29981,5,8,0:1:0:0:
159,166,30155,2,0,P|115:229|160:277,1,150,10|10,0:3|0:3,0:0:0:0:
231,279,30675,1,10,0:1:0:0:
156,279,30848,1,10,0:3:0:0:
330,285,31022,6,0,L|484:230,1,150,0|8,1:0|0:1,0:0:0:0:
336,178,31715,2,0,L|169:116,1,150,0|8,1:0|0:1,0:0:0:0:
459,350,32409,6,0,P|413:285|329:262,1,150,0|8,1:0|0:1,0:0:0:0:
179,272,32929,1,10,0:3:0:0:
127,228,33103,1,2,1:2:0:0:
109,159,33276,1,2,1:2:0:0:
149,113,33449,1,10,1:0:0:0:
207,91,33623,1,2,1:2:0:0:
375,69,33796,5,6,1:2:0:0:
495,142,34143,1,2,0:0:0:0:
495,142,34317,1,0,1:0:0:0:
420,147,34490,1,10,0:0:0:0:
150,302,34837,6,0,P|88:276|40:270,2,112.5,2|0|0,1:2|1:0|1:0,0:0:0:0:
150,302,35530,1,0,1:0:0:0:
286,220,35877,2,0,P|336:211|407:178,2,112.5,10|2|2,0:0|0:0|0:0,0:0:0:0:
113,224,36571,6,0,P|50:173|109:126,1,150,6|10,1:2|0:3,0:0:0:0:
155,134,37091,1,2,1:2:0:0:
290,147,37438,1,2,0:0:0:0:
364,142,37611,6,0,P|437:104|497:92,2,112.5,2|0|0,1:2|1:0|1:0,0:0:0:0:
364,142,38305,1,0,1:0:0:0:
94,214,38652,1,8,0:0:0:0:
94,214,38999,2,0,L|172:157,1,75,2|8,0:0|0:3,0:0:0:0:
327,81,39345,6,0,L|482:127,1,150,6|8,1:2|0:3,0:0:0:0:
466,178,39866,2,0,L|325:228,1,150,2|2,1:2|1:2,0:0:0:0:
53,256,40559,6,0,L|221:187,1,150,6|0,1:2|1:0,0:0:0:0:
264,177,41080,1,10,1:3:0:0:
130,143,41426,2,0,B|135:-22,1,150,10|2,0:0|0:0,0:0:0:0:
59,50,41947,1,0,0:0:0:0:
232,252,42120,6,0,L|367:199,1,112.5,4|0,1:2|1:0,0:0:0:0:
438,177,42640,1,0,1:0:0:0:
438,177,42814,1,8,0:0:0:0:
169,221,43160,6,0,P|92:199|21:173,1,150,0|8,1:0|0:3,0:0:0:0:
95,95,43681,2,0,L|187:49,1,75,8|0,0:3|1:0,0:0:0:0:
335,105,44028,1,2,0:0:0:0:
407,139,44201,1,8,0:0:0:0:
409,214,44374,1,2,0:0:0:0:
336,251,44548,1,2,0:0:0:0:
66,267,44895,6,0,P|129:226|218:199,1,150,6|8,1:2|0:0,0:0:0:0:
124,199,45415,1,10,0:3:0:0:
197,186,45588,2,0,P|298:137|310:93,1,150,8|10,0:3|0:0,0:0:0:0:
135,169,46108,6,0,B|69:127|69:127|152:79,1,150,2|0,1:2|1:0,0:0:0:0:
400,128,46802,1,10,0:3:0:0:
400,128,46975,1,2,0:0:0:0:
330,102,47149,1,2,1:2:0:0:
260,76,47322,1,10,0:0:0:0:
332,57,47496,1,10,0:3:0:0:
160,263,47669,6,0,L|19:184,1,150,2|10,1:2|0:0,0:0:0:0:
103,181,48189,1,8,0:3:0:0:
178,181,48363,2,0,L|328:113,1,150,8|10,0:3|0:0,0:0:0:0:
141,231,48883,6,0,B|77:185|77:185|144:139,1,150,2|0,1:2|1:0,0:0:0:0:
271,157,49576,1,8,0:3:0:0:
346,194,49749,1,0,1:0:0:0:
349,263,49923,1,0,1:0:0:0:
289,304,50096,1,10,0:0:0:0:
33,309,50444,5,14,1:2:0:0:
169,253,50791,1,10,1:3:0:0:
304,199,51137,1,0,1:0:0:0:
203,151,51397,1,8,0:1:0:0:
102,98,51657,1,10,0:1:0:0:
268,313,51831,5,2,1:2:0:0:
403,265,52178,1,0,1:0:0:0:
268,201,52524,1,0,1:0:0:0:
378,146,52785,1,8,0:1:0:0:
480,99,53044,1,10,0:1:0:0:
312,97,53218,6,0,P|221:131|185:177,1,150,2|0,1:2|1:0,0:0:0:0:
257,227,53738,1,10,0:3:0:0:
332,235,53912,2,0,P|346:173|313:138,1,112.5,0|8,1:0|0:1,0:0:0:0:
91,319,54432,1,10,0:1:0:0:
166,320,54606,6,0,L|164:224,1,75,0|0,1:0|1:0,0:0:0:0:
239,245,54952,2,0,L|235:150,1,75,0|0,1:0|1:0,0:0:0:0:
160,166,55299,2,0,L|157:70,1,75,2|0,1:2|1:0,0:0:0:0:
331,234,55646,2,0,L|329:132,1,75,2|2,1:2|1:2,0:0:0:0:
254,216,55993,6,0,P|208:147|264:122,1,150,0|2,1:0|1:2,0:0:0:0:
329,214,56513,2,0,P|386:180|433:105,2,150,0|0|0,1:0|1:0|1:0,0:0:0:0:
156,317,57380,5,2,0:0:0:0:
156,317,57554,1,2,0:0:0:0:
156,317,58074,2,0,P|154:240|236:209,1,150,2|10,0:0|0:0,0:0:0:0:
479,245,58767,6,0,P|408:189|329:151,1,150,6|8,1:2|0:0,0:0:0:0:
213,127,59461,1,0,0:0:0:0:
138,124,59634,2,0,L|130:13,1,75,0|10,1:0|0:0,0:0:0:0:
306,211,59981,6,0,L|454:148,1,150,2|0,1:2|1:0,0:0:0:0:
368,154,60502,1,8,0:0:0:0:
218,159,60848,2,0,L|104:138,2,112.5,2|2|2,1:2|0:0|0:0,0:0:0:0:
401,272,61542,6,0,P|451:229|386:180,1,150,2|10,1:2|0:0,0:0:0:0:
331,160,62063,1,10,0:3:0:0:
256,157,62236,2,0,L|412:130,1,150,8|10,0:3|0:0,0:0:0:0:
403,131,62756,1,2,1:2:0:0:
328,127,62929,6,0,L|165:154,1,150,2|8,0:0|0:0,0:0:0:0:
451,248,63623,2,0,L|456:81,1,150,2|10,1:2|0:0,0:0:0:0:
177,186,64317,6,0,P|126:138|189:109,1,150,6|10,1:2|0:0,0:0:0:0:
251,105,64837,1,10,0:3:0:0:
326,103,65010,2,0,P|400:65|402:6,1,150,8|8,0:3|0:0,0:0:0:0:
327,13,65530,1,2,0:0:0:0:
154,149,65704,6,0,L|155:303,1,150,2|8,1:2|0:0,0:0:0:0:
79,147,66224,2,0,L|6:121,2,75,2|0|2,0:0|1:0|1:2,0:0:0:0:
215,245,66918,1,2,0:0:0:0:
381,329,67092,6,0,P|421:252|375:221,1,150,2|8,1:2|0:0,0:0:0:0:
128,238,67785,1,0,1:0:0:0:
128,238,67958,1,10,0:0:0:0:
384,198,68305,6,0,P|434:143|366:104,1,150,6|0,1:2|1:0,0:0:0:0:
315,102,68825,1,8,0:0:0:0:
179,167,69173,2,0,L|331:144,1,150,10|2,0:0|1:2,0:0:0:0:
72,213,69866,6,0,P|21:170|86:131,1,150,6|10,1:2|0:0,0:0:0:0:
146,126,70386,1,10,1:3:0:0:
220,132,70559,2,0,L|375:213,1,150,8|8,0:3|0:0,0:0:0:0:
352,201,71080,1,2,0:0:0:0:
179,323,71253,6,0,P|137:260|194:233,1,150,2|10,1:2|0:0,0:0:0:0:
261,225,71773,1,2,1:2:0:0:
148,234,72293,2,0,L|52:234,1,75,10|2,0:0|0:0,0:0:0:0:
246,121,72640,6,0,P|312:164|340:238,1,150,2|10,1:2|0:0,0:0:0:0:
173,228,73160,2,0,B|109:199|109:199|194:165,1,150,2|0,0:0|1:0,0:0:0:0:
259,167,73681,1,10,0:0:0:0:
425,47,73854,6,0,P|483:117|449:178,1,150,2|4,1:2|1:2,0:0:0:0:
316,167,74548,1,2,0:0:0:0:
232,178,74721,1,2,1:2:0:0:
177,251,74894,1,2,1:2:0:0:
198,331,75068,1,10,0:0:0:0:
270,371,75241,1,2,1:2:0:0:
444,353,75416,6,0,P|494:290|432:263,1,150,6|10,1:2|0:0,0:0:0:0:
371,259,75935,2,0,L|221:195,1,150,2|0,0:0|1:0,0:0:0:0:
98,145,76629,1,2,1:2:0:0:
270,91,76802,6,0,L|357:91,1,75,10|8,1:2|1:2,0:0:0:0:
344,170,77843,2,0,L|344:263,1,75,2|2,0:0|0:0,0:0:0:0:
172,281,78189,6,0,L|29:250,2,112.5,6|2|2,1:2|1:2|1:2,0:0:0:0:
247,278,78883,1,10,0:0:0:0:
383,215,79230,2,0,L|506:179,2,112.5,6|0|0,1:2|1:0|1:0,0:0:0:0:
308,216,79923,5,8,0:0:0:0:
159,197,80270,2,0,L|158:89,1,75,2|2,1:2|1:2,0:0:0:0:
83,119,80617,2,0,L|81:29,1,75,2|2,1:2|1:2,0:0:0:0:
255,305,80964,6,0,L|398:274,2,112.5,6|2|2,1:2|1:2|1:2,0:0:0:0:
180,302,81658,1,10,0:0:0:0:
316,240,82005,2,0,L|427:209,2,112.5,6|2|2,1:2|1:2|1:2,0:0:0:0:
316,240,82698,5,8,0:0:0:0:
46,212,83045,2,0,L|47:104,1,75,2|2,1:2|1:2,0:0:0:0:
122,134,83392,2,0,L|124:44,1,75,2|10,1:2|1:2,0:0:0:0:
296,292,83738,6,0,L|439:261,2,112.5,6|10|2,1:2|1:2|1:2,0:0:0:0:
221,289,84432,1,10,0:0:0:0:
356,224,84779,1,6,1:2:0:0:
356,224,84952,2,0,L|472:200,2,112.5,2|2|2,1:2|1:2|1:2,0:0:0:0:
86,311,85819,6,0,L|85:218,1,75,10|2,0:0|1:2,0:0:0:0:
161,226,86166,2,0,L|236:193,1,75,10|2,0:0|1:2,0:0:0:0:
403,239,86513,6,0,P|448:174|394:126,1,150,6|0,1:2|1:0,0:0:0:0:
334,113,87033,2,0,L|173:42,1,150,2|0,1:2|1:0,0:0:0:0:
371,46,87554,1,6,1:2:0:0:
