osu file format v14

[General]
AudioFilename: audio.mp3
AudioLeadIn: 0
PreviewTime: 58074
Countdown: 0
SampleSet: Soft
StackLeniency: 0.7
Mode: 2
LetterboxInBreaks: 0
WidescreenStoryboard: 1

[Editor]
Bookmarks: 33796,39345,44895,50444,53218
DistanceSpacing: 1
BeatDivisor: 4
GridSize: 4
TimelineZoom: 2

[Metadata]
Title:Meguru Mono (TV Size)
TitleUnicode:メグルモノ (TV Size)
Artist:Terashima Takuma
ArtistUnicode:寺島拓篤
Creator:4rcheR-
Version:Rew's Platter
Source:転生したらスライムだった件
Tags:archer rew0825 amulet-pp anime japanese male vocals op opening 2 two theme 転スラ Tensura Tensei Shitara Suraimu Datta Ken That Time I Got Reincarnated as a Slime Rimuru Tempest Benimaru Ranga Souei Shion Shuna Milim Nava Hakurou Shizue Izawa Arte Refact アルテリファクト 桑原聖 Kuwabara Satoru 酒井拓也 Sakai Takuya
BeatmapID:3467698
BeatmapSetID:1695742

[Difficulty]
HPDrainRate:4
CircleSize:3
OverallDifficulty:8
ApproachRate:8
SliderMultiplier:1.71
SliderTickRate:2

[Events]
//Background and Video events
0,0,"megurumono.jpg",0,0
Video,434,"megurumono.mp4"
//Break Periods
//Storyboard Layer 0 (Background)
//Storyboard Layer 1 (Fail)
//Storyboard Layer 2 (Pass)
//Storyboard Layer 3 (Foreground)
//Storyboard Layer 4 (Overlay)
//Storyboard Sound Samples

[TimingPoints]
502,346.820809248555,4,2,21,40,1,0
1022,-100,4,2,22,40,0,0
2756,-100,4,2,21,40,0,0
3103,-100,4,2,21,5,0,0
3276,-100,4,2,21,40,0,0
3623,-100,4,2,22,40,0,0
3796,-100,4,2,21,40,0,0
4837,-100,4,2,22,40,0,0
6051,-100,4,2,21,40,0,0
7091,-100,4,2,22,40,0,0
8305,-100,4,2,21,40,0,0
9172,-100,4,2,22,40,0,0
9345,-100,4,2,21,40,0,0
10039,-100,4,2,22,40,0,0
11600,-100,4,2,22,50,0,0
22178,-100,4,2,22,5,0,0
22265,-100,4,2,22,50,0,0
22438,-100,4,2,22,5,0,0
22525,-100,4,2,22,50,0,0
22698,-100,4,2,22,55,0,0
33796,-100,4,2,22,60,0,0
40473,-100,4,2,22,5,0,0
40559,-100,4,2,22,60,0,0
44895,-100,4,2,22,65,0,0
50357,-100,4,2,22,5,0,0
50444,-100,4,2,22,70,0,0
51311,-100,4,2,22,5,0,0
51397,-100,4,2,22,70,0,0
51571,-100,4,2,22,5,0,0
51658,-100,4,2,22,70,0,0
52698,-100,4,2,22,5,0,0
52785,-100,4,2,22,70,0,0
52958,-100,4,2,22,5,0,0
53045,-100,4,2,22,70,0,0
54085,-100,4,2,22,5,0,0
54172,-100,4,2,22,70,0,0
54345,-100,4,2,22,5,0,0
54432,-100,4,2,22,70,0,0
54606,-100,4,2,22,75,0,0
58681,-100,4,2,22,5,0,0
58767,-100,4,2,22,80,0,1
68218,-100,4,2,22,5,0,1
68305,-100,4,2,22,80,0,1
75675,-100,4,2,22,5,0,1
75762,-100,4,2,22,80,0,1
76802,-100,4,2,22,80,0,0
78189,-100,4,2,22,70,0,0
78363,-100,4,2,22,5,0,0
78449,-100,4,2,22,70,0,0
78623,-100,4,2,22,5,0,0
78710,-100,4,2,22,70,0,0
79403,-100,4,2,22,5,0,0
79490,-100,4,2,22,70,0,0
79663,-100,4,2,22,5,0,0
79750,-100,4,2,22,70,0,0
82178,-100,4,2,22,5,0,0
82265,-100,4,2,22,70,0,0
86513,-100,4,2,22,75,0,0
87554,-100,4,2,22,80,0,0
87900,-100,4,2,22,60,0,0

[Colours]
Combo1 : 148,90,48
Combo2 : 0,230,230
Combo3 : 240,228,9
Combo4 : 187,147,72

[HitObjects]
120,296,502,5,2,0:0:0:0:
352,296,1022,1,2,0:0:0:0:
440,288,1195,1,2,0:0:0:0:
480,208,1369,1,2,0:0:0:0:
432,136,1542,1,2,0:0:0:0:
344,128,1715,1,2,0:0:0:0:
88,128,2756,6,0,P|40:192|88:256,1,171,2|0,0:0|0:0,0:0:0:0:
176,256,3276,2,0,P|237:242|242:147,1,171,2|2,0:0|0:0,0:0:0:0:
88,128,3796,1,2,0:0:0:0:
296,128,4837,6,0,L|376:96,2,85.5,2|2|2,0:0|0:0|0:0,0:0:0:0:
208,128,5357,1,2,0:0:0:0:
168,200,5530,1,2,0:0:0:0:
208,280,5704,1,2,0:0:0:0:
296,280,5877,1,2,0:0:0:0:
133,280,6051,5,2,0:0:0:0:
392,280,7091,2,0,L|400:192,1,85.5,2|2,0:0|0:0,0:0:0:0:
144,192,8305,6,0,P|96:144|152:72,1,171,2|0,0:0|0:0,0:0:0:0:
232,72,8825,2,0,L|408:72,1,171,2|2,0:0|0:0,0:0:0:0:
248,72,9345,1,2,0:0:0:0:
80,72,10039,6,0,P|40:136|168:208,1,256.5,2|2,1:2|0:0,0:0:0:0:
248,208,10733,1,2,0:0:0:0:
160,208,10906,2,0,L|16:208,2,128.25,2|2|2,0:0|0:0|1:2,0:0:0:0:
400,208,11600,6,0,P|448:168|392:96,1,171,6|2,1:3|1:2,0:0:0:0:
232,96,12120,2,0,L|56:96,1,171,2|0,0:0|0:0,0:0:0:0:
144,96,12640,1,0,1:0:0:0:
312,96,12987,6,0,P|360:152|312:224,1,171,0|2,1:0|1:2,0:0:0:0:
224,224,13507,1,2,0:0:0:0:
312,224,13681,2,0,P|384:208|408:120,1,171,2|2,1:2|1:2,0:0:0:0:
320,120,14201,1,2,1:2:0:0:
160,120,14374,6,0,P|120:152|160:248,1,171,6|2,1:3|1:2,0:0:0:0:
320,248,14895,2,0,L|496:248,1,171,6|0,0:3|0:0,0:0:0:0:
408,248,15415,1,0,1:0:0:0:
240,248,15762,5,0,1:0:0:0:
408,248,16108,2,0,L|412:160,1,85.5,2|2,1:2|0:0,0:0:0:0:
328,160,16455,2,0,L|184:160,2,128.25,2|2|2,1:2|0:0|0:0,0:0:0:0:
168,160,17149,6,0,P|120:208|176:280,1,171,6|2,1:3|1:2,0:0:0:0:
336,280,17669,2,0,P|384:232|328:160,1,171,6|0,0:3|0:0,0:0:0:0:
248,160,18189,1,0,1:0:0:0:
80,160,18536,6,0,L|76:72,1,85.5,0|2,1:0|0:0,0:0:0:0:
160,72,18883,2,0,L|344:72,1,171,2|2,1:2|1:2,0:0:0:0:
376,144,19403,1,2,0:0:0:0:
328,216,19577,1,2,1:2:0:0:
240,216,19750,1,2,0:0:0:0:
80,216,19923,6,0,P|32:160|88:88,1,171,6|0,1:3|1:0,0:0:0:0:
168,88,20444,2,0,P|80:72|48:0,1,171,2|0,0:0|1:0,0:0:0:0:
208,0,20964,1,4,1:3:0:0:
380,0,21311,5,0,0:0:0:0:
208,0,21658,2,0,L|204:88,1,85.5,2|2,0:0|0:0,0:0:0:0:
368,84,22004,2,0,L|500:84,2,128.25,2|2|10,1:2|1:2|1:3,0:0:0:0:
128,84,22698,6,0,P|76:132|132:196,1,171,6|10,1:2|0:1,0:0:0:0:
292,196,23218,2,0,P|344:248|288:308,1,171,2|8,0:0|0:3,0:0:0:0:
203,309,23738,2,0,L|201:218,1,85.5,8|0,0:1|0:0,0:0:0:0:
356,228,24085,5,0,1:0:0:0:
440,228,24259,2,0,P|484:168|428:100,1,171,2|2,0:0|0:0,0:0:0:0:
268,100,24779,2,0,L|264:188,1,85.5,2|2,1:2|0:0,0:0:0:0:
348,184,25126,2,0,L|352:272,1,85.5,10|2,0:1|0:0,0:0:0:0:
188,268,25473,6,0,P|140:208|200:148,1,171,2|10,1:2|0:1,0:0:0:0:
280,148,25993,2,0,P|328:208|268:268,1,171,10|10,0:3|0:3,0:0:0:0:
120,268,26513,2,0,L|116:180,1,85.5,10|8,0:1|0:3,0:0:0:0:
272,184,26860,6,0,P|336:176|384:88,1,171,0|8,1:0|0:1,0:0:0:0:
300,88,27380,1,8,0:3:0:0:
136,88,27554,2,0,L|132:176,1,85.5,2|10,1:2|0:3,0:0:0:0:
216,172,27900,1,10,0:1:0:0:
132,172,28074,1,2,0:0:0:0:
372,172,28247,6,0,P|424:216|364:280,1,171,6|10,1:2|0:1,0:0:0:0:
284,280,28767,2,0,L|104:280,1,171,10|10,0:3|0:3,0:0:0:0:
268,280,29288,2,0,L|360:280,1,85.5,10|0,0:1|0:0,0:0:0:0:
200,280,29634,6,0,P|136:260|124:164,1,171,0|8,1:0|0:1,0:0:0:0:
208,164,30155,2,0,P|272:156|304:64,1,171,10|10,0:3|0:3,0:0:0:0:
148,68,30675,2,0,L|144:160,1,85.5,10|10,0:1|0:3,0:0:0:0:
300,152,31022,6,0,P|352:164|376:268,1,171,0|8,1:0|0:1,0:0:0:0:
292,268,31542,1,8,0:3:0:0:
128,272,31715,1,0,1:0:0:0:
84,196,31889,1,8,0:3:0:0:
132,124,32062,1,8,0:1:0:0:
216,120,32236,1,8,0:3:0:0:
380,116,32409,5,0,1:0:0:0:
424,192,32583,1,8,0:3:0:0:
376,264,32756,1,8,0:1:0:0:
292,268,32930,1,10,0:3:0:0:
140,268,33103,2,0,L|136:180,1,85.5,2|2,1:2|1:2,0:0:0:0:
288,184,33449,2,0,L|384:184,1,85.5,10|2,1:0|1:2,0:0:0:0:
132,188,33796,6,0,P|96:120|140:44,1,171,6|2,1:2|0:0,0:0:0:0:
224,44,34317,1,0,1:0:0:0:
140,44,34490,1,10,0:0:0:0:
412,44,34837,6,0,L|260:44,2,128.25,2|0|0,1:2|1:0|1:0,0:0:0:0:
416,128,35530,1,0,1:0:0:0:
144,128,35877,2,0,L|12:128,2,128.25,10|2|2,0:0|0:0|0:0,0:0:0:0:
300,128,36571,6,0,P|348:176|296:252,1,171,6|10,1:2|0:3,0:0:0:0:
212,252,37091,2,0,P|164:204|216:128,1,171,2|2,1:2|0:0,0:0:0:0:
368,132,37611,6,0,L|232:132,2,128.25,2|0|0,1:2|1:0|1:0,0:0:0:0:
452,132,38305,1,0,1:0:0:0:
180,132,38652,2,0,P|116:140|80:232,1,171,8|2,0:0|0:0,0:0:0:0:
164,232,39172,1,8,0:3:0:0:
404,232,39345,6,0,P|448:188|396:108,1,171,6|8,1:2|0:3,0:0:0:0:
312,108,39866,2,0,P|376:96|440:16,1,171,2|2,1:2|1:2,0:0:0:0:
168,12,40559,6,0,P|104:24|64:116,1,171,6|0,1:2|1:0,0:0:0:0:
148,116,41080,1,10,1:3:0:0:
420,116,41426,2,0,P|464:164|416:248,1,171,10|2,0:0|0:0,0:0:0:0:
332,248,41947,1,0,0:0:0:0:
168,252,42120,6,0,L|36:252,2,128.25,4|0|0,1:2|1:0|1:0,0:0:0:0:
84,252,42814,1,8,0:0:0:0:
356,252,43160,6,0,P|400:172|280:108,1,256.5,0|8,1:0|0:3,0:0:0:0:
196,108,43854,1,0,1:0:0:0:
280,108,44028,1,2,0:0:0:0:
444,108,44201,1,8,0:0:0:0:
484,184,44374,1,2,0:0:0:0:
440,256,44548,1,2,0:0:0:0:
356,260,44721,1,2,1:2:0:0:
116,260,44895,6,0,P|76:200|128:128,1,171,6|8,1:2|0:0,0:0:0:0:
280,128,45415,2,0,P|344:136|376:228,1,171,10|0,0:3|1:0,0:0:0:0:
292,228,45935,1,10,0:0:0:0:
140,228,46108,6,0,P|92:272|140:352,1,171,2|0,1:2|1:0,0:0:0:0:
224,352,46629,1,8,0:0:0:0:
140,352,46802,1,10,0:3:0:0:
304,352,46975,1,2,0:0:0:0:
344,276,47149,1,2,1:2:0:0:
300,204,47322,1,10,0:0:0:0:
216,204,47496,1,10,0:3:0:0:
456,200,47669,6,0,P|492:148|432:72,1,171,2|10,1:2|0:0,0:0:0:0:
272,76,48189,2,0,L|96:76,1,171,8|0,0:3|1:0,0:0:0:0:
188,76,48710,1,10,0:0:0:0:
340,76,48883,6,0,P|408:96|420:192,1,171,2|0,1:2|1:0,0:0:0:0:
336,188,49403,1,8,0:0:0:0:
208,188,49663,1,8,0:2:0:0:
164,188,49750,2,0,L|164:284,1,85.5,0|0,1:0|1:0,0:0:0:0:
320,272,50097,2,0,L|424:272,1,85.5,10|0,0:0|0:0,0:0:0:0:
164,272,50444,6,0,P|116:224|176:160,1,171,14|10,1:2|1:3,0:0:0:0:
260,160,50964,1,10,0:3:0:0:
96,160,51137,2,0,L|252:160,2,128.25,0|8|10,1:0|0:1|0:1,0:0:0:0:
260,160,51831,6,0,L|436:160,1,171,2|0,1:2|1:0,0:0:0:0:
156,160,52525,2,0,L|8:160,2,128.25,0|8|10,1:0|0:1|0:1,0:0:0:0:
396,160,53218,6,0,L|220:160,1,171,2|0,1:2|1:0,0:0:0:0:
228,244,53738,1,10,0:3:0:0:
392,244,53912,2,0,L|264:244,2,128.25,0|8|10,1:0|0:1|0:1,0:0:0:0:
228,244,54606,6,0,L|224:156,1,85.5,0|0,1:0|1:0,0:0:0:0:
308,160,54952,2,0,L|312:72,1,85.5,0|0,1:0|1:0,0:0:0:0:
148,76,55299,2,0,L|144:168,1,85.5,2|0,1:2|1:0,0:0:0:0:
232,164,55646,1,2,1:2:0:0:
148,164,55819,1,2,1:2:0:0:
312,164,55993,5,0,1:0:0:0:
332,200,56080,1,0,1:0:0:0:
312,236,56166,1,2,1:2:0:0:
228,236,56340,1,2,1:2:0:0:
64,236,56513,1,0,1:0:0:0:
152,236,56686,1,0,1:0:0:0:
172,200,56773,1,0,1:0:0:0:
152,160,56860,1,0,1:0:0:0:
64,160,57033,1,0,1:0:0:0:
44,124,57120,1,0,1:0:0:0:
68,88,57207,1,0,1:0:0:0:
232,88,57380,6,0,L|344:88,1,85.5,2|2,0:0|0:0,0:0:0:0:
228,88,57727,1,8,0:3:0:0:
224,132,57814,1,8,0:3:0:0:
220,176,57900,1,8,0:3:0:0:
376,176,58074,2,0,L|380:272,1,85.5,2|0,0:0|1:0,0:0:0:0:
224,264,58421,2,0,L|124:264,1,85.5,10|0,0:0|0:0,0:0:0:0:
376,264,58767,6,0,P|420:212|360:140,1,171,6|8,1:2|0:0,0:0:0:0:
204,140,59288,2,0,P|132:120|112:32,1,171,8|0,0:3|1:0,0:0:0:0:
196,36,59808,1,10,0:0:0:0:
436,40,59981,6,0,P|480:88|424:160,1,171,2|0,1:2|1:0,0:0:0:0:
340,160,60502,1,8,0:0:0:0:
68,160,60848,1,2,1:2:0:0:
152,160,61022,1,0,1:0:0:0:
68,160,61195,2,0,L|64:256,1,85.5,8|2,0:0|0:0,0:0:0:0:
304,240,61542,6,0,P|220:216|184:140,1,171,2|10,1:2|0:0,0:0:0:0:
348,144,62062,2,0,P|408:128|448:32,1,171,10|0,0:3|1:0,0:0:0:0:
364,36,62582,1,10,0:0:0:0:
124,36,62756,6,0,P|68:60|52:168,1,171,2|0,1:2|1:0,0:0:0:0:
132,160,63276,1,8,0:0:0:0:
404,164,63623,1,2,1:2:0:0:
320,164,63796,1,0,1:0:0:0:
404,164,63970,2,0,L|408:256,1,85.5,10|0,0:0|1:0,0:0:0:0:
168,248,64317,6,0,P|116:192|180:144,1,171,6|10,1:2|0:0,0:0:0:0:
336,152,64837,2,0,P|376:108|320:28,1,171,10|0,0:3|1:0,0:0:0:0:
236,32,65357,2,0,L|144:28,1,85.5,8|2,0:0|0:0,0:0:0:0:
392,32,65704,6,0,P|444:76|380:136,1,171,2|8,1:2|0:0,0:0:0:0:
232,136,66224,2,0,L|228:224,1,85.5,2|0,0:0|1:0,0:0:0:0:
384,220,66571,2,0,L|480:216,2,85.5,2|8|2,1:2|0:0|0:0,0:0:0:0:
144,224,67091,6,0,P|100:160|160:100,1,171,2|8,1:2|0:0,0:0:0:0:
308,104,67611,1,8,0:3:0:0:
312,152,67698,1,0,1:0:0:0:
316,200,67785,1,0,1:0:0:0:
164,204,67958,2,0,L|64:204,1,85.5,10|0,0:0|0:0,0:0:0:0:
320,204,68305,6,0,P|388:192|416:104,1,171,6|0,1:2|1:0,0:0:0:0:
328,104,68825,1,8,0:0:0:0:
416,104,68999,1,0,1:0:0:0:
264,104,69172,1,10,0:0:0:0:
260,148,69259,1,8,1:2:0:0:
256,192,69345,1,0,1:0:0:0:
412,196,69519,2,0,L|504:192,1,85.5,2|8,1:2|0:0,0:0:0:0:
256,196,69866,6,0,P|172:176|152:96,1,171,6|10,1:2|0:0,0:0:0:0:
306,102,70386,2,0,P|390:122|410:202,1,171,10|0,1:3|1:0,0:0:0:0:
324,200,70906,1,8,0:0:0:0:
412,196,71080,1,2,0:0:0:0:
172,204,71253,6,0,P|128:156|192:84,1,171,2|10,1:2|0:0,0:0:0:0:
336,88,71773,2,0,L|152:88,1,171,2|0,1:2|1:0,0:0:0:0:
256,88,72293,1,10,0:0:0:0:
168,88,72467,1,2,0:0:0:0:
408,88,72640,6,0,P|448:128|384:216,1,171,2|10,1:2|0:0,0:0:0:0:
244,212,73160,1,2,0:0:0:0:
156,212,73334,1,0,1:0:0:0:
136,252,73421,1,0,0:0:0:0:
156,212,73507,1,0,1:0:0:0:
244,212,73681,1,10,0:0:0:0:
484,212,73854,6,0,P|488:148|404:92,1,171,2|4,1:2|1:2,0:0:0:0:
252,92,74374,2,0,L|248:184,1,85.5,8|2,0:0|0:0,0:0:0:0:
404,180,74721,1,2,1:2:0:0:
488,160,74895,1,2,1:2:0:0:
468,76,75068,1,10,0:0:0:0:
384,76,75241,1,2,1:2:0:0:
144,76,75415,6,0,P|96:120|152:192,1,171,6|10,1:2|0:0,0:0:0:0:
312,196,75935,1,2,0:0:0:0:
400,196,76108,1,0,1:0:0:0:
420,236,76195,1,0,0:0:0:0:
396,272,76282,1,0,1:0:0:0:
308,276,76455,1,0,1:0:0:0:
396,272,76629,1,2,1:2:0:0:
156,276,76802,6,0,L|56:272,2,85.5,10|8|2,1:2|1:2|0:0,0:0:0:0:
320,276,77322,2,0,P|368:224|304:164,1,171,2|2,0:0|1:2,0:0:0:0:
68,156,77843,1,2,0:0:0:0:
66,112,77929,1,2,0:0:0:0:
64,68,78016,1,2,0:0:0:0:
304,68,78189,6,0,L|460:68,2,128.25,6|2|2,1:2|1:2|1:2,0:0:0:0:
148,68,78883,2,0,L|144:156,1,85.5,10|2,0:0|0:0,0:0:0:0:
298,153,79230,6,0,L|443:151,2,128.25,6|0|0,1:2|1:0|1:0,0:0:0:0:
143,153,79923,2,0,L|139:245,1,85.5,8|8,0:0|0:3,0:0:0:0:
225,238,80270,1,2,1:2:0:0:
137,238,80444,1,2,1:2:0:0:
289,238,80617,1,2,1:2:0:0:
334,238,80704,1,0,1:0:0:0:
379,238,80791,1,2,1:2:0:0:
140,238,80964,6,0,L|0:238,2,128.25,6|2|2,1:2|1:2|1:2,0:0:0:0:
294,238,81658,2,0,L|298:150,1,85.5,10|2,0:0|0:0,0:0:0:0:
144,152,82004,6,0,L|-4:152,2,128.25,6|2|2,1:2|1:2|1:2,0:0:0:0:
297,152,82698,2,0,L|301:244,1,85.5,8|8,0:0|0:3,0:0:0:0:
214,237,83045,1,2,1:2:0:0:
300,237,83218,1,2,1:2:0:0:
146,237,83392,1,2,1:2:0:0:
102,237,83478,1,0,1:0:0:0:
57,237,83565,1,10,1:2:0:0:
297,256,83738,5,6,1:2:0:0:
385,256,83912,1,2,0:0:0:0:
405,216,83999,1,10,1:2:0:0:
385,180,84085,1,10,0:3:0:0:
297,180,84259,1,2,1:2:0:0:
133,180,84432,1,10,0:0:0:0:
111,142,84519,1,8,0:0:0:0:
133,100,84606,1,8,0:0:0:0:
373,100,84779,5,6,1:2:0:0:
289,100,84952,2,0,L|149:100,2,128.25,2|2|2,1:2|1:2|1:2,0:0:0:0:
373,100,85646,1,2,1:2:0:0:
221,100,85819,2,0,L|217:192,1,85.5,10|2,0:0|1:2,0:0:0:0:
373,184,86166,1,10,0:0:0:0:
417,192,86253,1,0,1:0:0:0:
457,204,86340,1,2,1:2:0:0:
217,208,86513,5,6,1:2:0:0:
169,204,86600,1,0,1:0:0:0:
153,160,86686,1,0,1:0:0:0:
177,120,86773,1,0,1:0:0:0:
225,116,86860,1,0,1:0:0:0:
389,112,87033,1,2,1:2:0:0:
437,108,87120,1,0,1:0:0:0:
453,64,87206,1,0,1:0:0:0:
429,24,87293,1,0,1:0:0:0:
381,20,87380,1,0,1:0:0:0:
141,20,87554,6,0,P|73:32|29:128,1,171,6|0,1:2|0:0,0:0:0:0:
