osu file format v14

[General]
AudioFilename: audio.mp3
AudioLeadIn: 0
PreviewTime: 58074
Countdown: 0
SampleSet: Soft
StackLeniency: 0.7
Mode: 2
LetterboxInBreaks: 0
WidescreenStoryboard: 1

[Editor]
DistanceSpacing: 2.4
BeatDivisor: 4
GridSize: 4
TimelineZoom: 2

[Metadata]
Title:Meguru Mono (TV Size)
TitleUnicode:メグルモノ (TV Size)
Artist:Terashima Takuma
ArtistUnicode:寺島拓篤
Creator:4rcheR-
Version:Rain
Source:転生したらスライムだった件
Tags:archer rew0825 amulet-pp anime japanese male vocals op opening 2 two theme 転スラ Tensura Tensei Shitara Suraimu Datta Ken That Time I Got Reincarnated as a Slime Rimuru Tempest Benimaru Ranga Souei Shion Shuna Milim Nava Hakurou Shizue Izawa Arte Refact アルテリファクト 桑原聖 Kuwabara Satoru 酒井拓也 Sakai Takuya
BeatmapID:3471653
BeatmapSetID:1695742

[Difficulty]
HPDrainRate:5
CircleSize:3.5
OverallDifficulty:9
ApproachRate:9
SliderMultiplier:2
SliderTickRate:2

[Events]
//Background and Video events
0,0,"megurumono.jpg",0,0
Video,434,"megurumono.mp4"
//Break Periods
//Storyboard Layer 0 (Background)
//Storyboard Layer 1 (Fail)
//Storyboard Layer 2 (Pass)
//Storyboard Layer 3 (Foreground)
//Storyboard Layer 4 (Overlay)
//Storyboard Sound Samples

[TimingPoints]
502,346.820809248555,4,2,21,40,1,0
1022,-100,4,2,22,40,0,0
2756,-100,4,2,21,40,0,0
3103,-100,4,2,21,5,0,0
3276,-100,4,2,21,40,0,0
3623,-100,4,2,22,40,0,0
3796,-100,4,2,21,40,0,0
4837,-100,4,2,22,40,0,0
6051,-100,4,2,21,40,0,0
7091,-100,4,2,22,40,0,0
8305,-100,4,2,21,40,0,0
8652,-100,4,2,21,5,0,0
8825,-100,4,2,21,40,0,0
9172,-100,4,2,22,40,0,0
9345,-100,4,2,21,40,0,0
10039,-100,4,2,22,40,0,0
11600,-100,4,2,22,50,0,0
22698,-100,4,2,22,55,0,0
33796,-100,4,2,22,60,0,0
40473,-100,4,2,22,5,0,0
40559,-100,4,2,22,60,0,0
44895,-100,4,2,22,65,0,0
47929,-100,4,2,22,5,0,0
48016,-100,4,2,22,65,0,0
50357,-100,4,2,22,5,0,0
50444,-100,4,2,22,70,0,0
52698,-100,4,2,22,5,0,0
52785,-100,4,2,22,70,0,0
54606,-100,4,2,22,75,0,0
58681,-100,4,2,22,5,0,0
58767,-100,4,2,22,80,0,1
68218,-100,4,2,22,5,0,1
68305,-100,4,2,22,80,0,1
75675,-100,4,2,22,5,0,1
75762,-100,4,2,22,80,0,1
76802,-100,4,2,22,80,0,0
78189,-100,4,2,22,70,0,0
78363,-100,4,2,22,5,0,0
78449,-100,4,2,22,70,0,0
78623,-100,4,2,22,5,0,0
78710,-100,4,2,22,70,0,0
79403,-100,4,2,22,5,0,0
79490,-100,4,2,22,70,0,0
79663,-100,4,2,22,5,0,0
79750,-100,4,2,22,70,0,0
82178,-100,4,2,22,5,0,0
82265,-100,4,2,22,70,0,0
86513,-100,4,2,22,75,0,0
87554,-100,4,2,22,80,0,0
87900,-100,4,2,22,60,0,0

[Colours]
Combo1 : 148,90,48
Combo2 : 0,230,230
Combo3 : 240,228,9
Combo4 : 187,147,72

[HitObjects]
372,312,502,5,2,0:0:0:0:
372,312,1022,1,2,0:0:0:0:
448,252,1195,1,2,0:0:0:0:
488,168,1369,1,2,0:0:0:0:
436,88,1542,1,2,0:0:0:0:
356,36,1715,1,2,0:0:0:0:
92,120,2756,6,0,P|96:200|204:264,1,200,2|0,0:0|0:0,0:0:0:0:
300,264,3276,2,0,P|360:228|316:116,1,200,2|2,0:0|0:0,0:0:0:0:
156,152,3796,1,2,0:0:0:0:
156,268,4837,5,2,0:0:0:0:
96,200,5010,1,2,0:0:0:0:
116,112,5184,1,2,0:0:0:0:
192,68,5357,1,2,0:0:0:0:
116,112,5530,1,2,0:0:0:0:
64,184,5704,1,2,0:0:0:0:
112,260,5877,1,2,0:0:0:0:
284,260,6051,5,2,0:0:0:0:
284,336,7091,1,2,0:0:0:0:
380,312,7265,1,2,0:0:0:0:
120,308,8305,6,0,P|72:224|128:144,1,200,2|0,0:0|0:0,0:0:0:0:
232,168,8825,2,0,P|288:160|328:28,1,200,2|2,0:0|0:0,0:0:0:0:
164,44,9345,1,2,0:0:0:0:
444,308,10039,6,0,L|444:76,1,200,2|0,1:2|0:0,0:0:0:0:
332,108,10559,2,0,L|448:56,1,100,2|2,0:0|0:0,0:0:0:0:
252,76,10906,2,0,L|100:148,2,150,2|2|2,0:0|0:0|1:2,0:0:0:0:
308,76,11513,1,0,1:0:0:0:
468,84,11600,6,0,L|468:308,1,200,6|2,1:3|1:2,0:0:0:0:
296,284,12120,2,0,P|196:264|140:160,1,200,2|0,0:0|0:0,0:0:0:0:
252,192,12640,2,0,L|368:148,1,100,0|0,1:0|0:0,0:0:0:0:
176,144,12987,5,0,1:0:0:0:
72,180,13160,2,0,L|72:296,1,100,2|2,0:0|1:2,0:0:0:0:
180,300,13507,1,2,0:0:0:0:
352,304,13681,2,0,L|352:200,1,100,2|2,1:2|0:0,0:0:0:0:
244,184,14028,2,0,L|148:136,1,100,2|2,1:2|1:2,0:0:0:0:
208,140,14288,1,0,1:0:0:0:
364,140,14374,6,0,P|396:220|288:296,1,200,6|2,1:3|1:2,0:0:0:0:
152,304,14895,2,0,P|100:220|160:148,1,200,6|0,0:3|0:0,0:0:0:0:
264,148,15415,2,0,L|360:88,1,100,0|0,1:0|0:0,0:0:0:0:
188,100,15762,6,0,L|188:204,1,100,0|0,1:0|0:0,0:0:0:0:
296,208,16108,2,0,L|396:264,1,100,2|2,1:2|0:0,0:0:0:0:
212,260,16455,2,0,P|144:240|96:144,2,150,2|2|2,1:2|0:0|0:0,0:0:0:0:
264,260,17062,1,0,1:0:0:0:
424,260,17149,6,0,P|464:212|408:84,1,200,6|2,1:3|1:2,0:0:0:0:
256,100,17669,2,0,P|208:168|288:268,1,200,6|0,0:3|0:0,0:0:0:0:
368,276,18189,2,0,L|456:212,1,100,0|0,1:0|0:0,0:0:0:0:
280,172,18536,6,0,L|280:60,1,100,0|2,1:0|0:0,0:0:0:0:
336,72,18796,1,2,0:0:0:0:
392,76,18883,2,0,L|392:204,1,100,2|2,1:2|0:0,0:0:0:0:
284,192,19230,2,0,L|172:272,1,100,2|2,1:2|0:0,0:0:0:0:
372,256,19577,2,0,L|472:176,1,100,2|2,1:2|0:0,0:0:0:0:
396,188,19837,1,0,1:0:0:0:
240,164,19923,6,0,L|96:84,2,150,6|2|2,1:3|0:0|0:0,0:0:0:0:
348,188,20617,2,0,L|348:292,1,100,0|0,1:0|1:0,0:0:0:0:
108,280,20964,1,4,1:3:0:0:
388,312,21658,6,0,L|388:200,1,100,2|2,0:0|0:0,0:0:0:0:
220,232,22004,2,0,L|52:140,2,150,2|2|10,1:2|1:2|1:3,0:0:0:0:
276,232,22611,1,8,0:3:0:0:
440,232,22698,6,0,P|472:160|392:68,1,200,6|10,1:2|0:1,0:0:0:0:
236,88,23218,1,2,0:0:0:0:
132,124,23392,2,0,L|132:240,1,100,0|8,1:0|0:3,0:0:0:0:
240,244,23738,2,0,L|112:288,1,100,8|0,0:1|0:0,0:0:0:0:
388,292,24085,5,0,1:0:0:0:
388,292,24259,2,0,L|288:260,1,100,2|10,0:0|0:1,0:0:0:0:
192,228,24606,1,2,0:0:0:0:
296,200,24779,2,0,L|388:140,1,100,2|2,1:2|0:0,0:0:0:0:
208,108,25126,2,0,L|208:216,1,100,10|2,0:1|0:0,0:0:0:0:
448,232,25473,6,0,P|480:164|408:56,1,200,2|10,1:2|0:1,0:0:0:0:
316,84,25993,2,0,L|152:212,1,200,10|10,0:3|0:3,0:0:0:0:
328,208,26513,2,0,L|420:256,1,100,10|8,0:1|0:3,0:0:0:0:
248,264,26860,6,0,L|248:144,1,100,0|8,1:0|0:3,0:0:0:0:
360,168,27207,2,0,L|360:48,1,100,8|8,0:1|0:3,0:0:0:0:
248,64,27554,2,0,L|136:60,1,100,2|10,1:2|0:3,0:0:0:0:
316,60,27900,2,0,L|424:64,1,100,10|2,0:1|0:0,0:0:0:0:
176,60,28247,6,0,P|116:120|200:208,1,200,6|10,1:2|0:1,0:0:0:0:
276,224,28767,2,0,P|368:256|408:352,1,200,10|10,0:3|0:3,0:0:0:0:
236,332,29288,2,0,P|164:312|128:256,1,100,10|0,0:1|0:0,0:0:0:0:
388,204,29634,6,0,L|388:80,1,100,0|8,1:0|0:3,0:0:0:0:
280,80,29981,1,8,0:1:0:0:
172,68,30155,2,0,L|80:20,2,100,10|0|10,0:3|1:0|0:3,0:0:0:0:
340,224,30675,2,0,L|348:104,1,100,10|10,0:1|0:3,0:0:0:0:
112,68,31022,6,0,L|112:208,1,100,0|8,1:0|0:3,0:0:0:0:
224,168,31369,1,8,0:1:0:0:
392,168,31542,1,8,0:3:0:0:
392,168,31715,2,0,L|280:168,1,100,0|8,1:0|0:3,0:0:0:0:
404,168,32062,2,0,L|404:272,1,100,8|8,0:1|0:3,0:0:0:0:
232,272,32409,6,0,L|228:152,1,100,0|8,1:0|0:3,0:0:0:0:
340,164,32756,2,0,L|432:92,1,100,8|10,0:1|0:3,0:0:0:0:
248,104,33103,1,2,1:2:0:0:
248,104,33276,1,2,1:2:0:0:
416,104,33449,1,10,1:0:0:0:
304,104,33623,1,2,1:2:0:0:
64,104,33796,6,0,P|24:156|72:220,1,150,6|0,1:2|1:0,0:0:0:0:
120,220,34143,1,2,0:0:0:0:
229,219,34317,1,0,1:0:0:0:
70,211,34490,2,0,L|70:95,1,100,10|0,0:0|0:0,0:0:0:0:
241,107,34837,6,0,L|413:51,2,150,2|0|0,1:2|1:0|1:0,0:0:0:0:
134,127,35530,2,0,L|134:247,1,100,0|8,1:0|0:3,0:0:0:0:
305,227,35877,2,0,P|397:199|433:127,2,150,10|2|2,0:0|0:0|0:0,0:0:0:0:
64,220,36571,6,0,P|42:153|78:81,1,150,6|0,1:2|1:0,0:0:0:0:
130,85,36918,1,10,0:3:0:0:
238,85,37091,1,2,1:2:0:0:
408,64,37265,2,0,L|408:180,1,100,8|2,0:0|0:0,0:0:0:0:
240,192,37611,6,0,L|72:256,2,150,2|0|0,1:2|1:0|1:0,0:0:0:0:
352,192,38305,2,0,L|356:68,1,100,0|8,1:0|0:3,0:0:0:0:
184,84,38652,2,0,L|184:216,1,100,8|8,0:0|0:3,0:0:0:0:
296,184,38999,1,2,0:0:0:0:
344,212,39085,1,0,0:0:0:0:
344,268,39172,1,8,0:3:0:0:
296,296,39259,1,8,0:3:0:0:
128,292,39345,6,0,P|52:264|32:192,2,150,6|0|2,1:2|1:0|1:2,0:0:0:0:
240,288,40039,1,8,0:0:0:0:
80,272,40212,2,0,P|52:212|84:136,1,150,2|0,1:2|0:0,0:0:0:0:
252,128,40559,6,0,P|320:180|244:244,1,200,6|0,1:2|1:0,0:0:0:0:
148,256,41080,2,0,L|144:144,1,100,10|8,1:3|0:3,0:0:0:0:
312,152,41426,2,0,L|312:52,1,100,10|0,0:0|0:0,0:0:0:0:
200,60,41773,2,0,L|76:96,1,100,2|0,0:0|0:0,0:0:0:0:
344,116,42120,6,0,P|424:144|492:220,2,150,4|0|0,1:2|1:0|1:0,0:0:0:0:
232,124,42814,2,0,L|232:240,1,100,8|8,0:0|0:3,0:0:0:0:
472,240,43160,6,0,P|480:160|312:52,1,300,0|8,1:0|0:3,0:0:0:0:
208,56,43854,1,0,1:0:0:0:
96,60,44028,2,0,L|96:132,1,50,2|8,0:0|0:3,0:0:0:0:
256,120,44201,2,0,L|372:120,1,100,8|2,0:0|0:0,0:0:0:0:
184,120,44548,2,0,L|184:16,1,100,2|2,0:0|1:2,0:0:0:0:
424,20,44895,6,0,P|456:104|372:168,1,200,6|8,1:2|0:0,0:0:0:0:
276,256,45415,1,10,0:3:0:0:
220,248,45502,1,8,0:2:0:0:
168,240,45588,2,0,L|168:124,1,100,8|0,0:3|1:0,0:0:0:0:
340,132,45935,1,10,0:0:0:0:
100,132,46108,6,0,P|56:224|120:292,1,200,2|0,1:2|1:0,0:0:0:0:
284,288,46629,2,0,L|288:176,1,100,8|10,0:0|0:3,0:0:0:0:
180,196,46975,2,0,L|172:68,1,100,2|2,0:0|1:2,0:0:0:0:
344,96,47322,2,0,L|456:36,1,100,10|10,0:0|0:3,0:0:0:0:
192,72,47669,6,0,P|140:144|208:184,1,150,2|0,1:2|0:0,0:0:0:0:
340,192,48016,2,0,L|340:308,1,100,10|8,0:0|0:3,0:0:0:0:
228,292,48363,2,0,L|228:184,1,100,8|0,0:3|1:0,0:0:0:0:
396,164,48710,1,10,0:0:0:0:
156,320,48883,6,0,P|100:248|168:160,1,200,2|0,1:2|1:0,0:0:0:0:
260,172,49403,2,0,L|264:56,1,100,8|8,0:0|0:3,0:0:0:0:
208,76,49663,1,8,0:2:0:0:
152,76,49750,2,0,L|152:184,1,100,0|0,1:0|1:0,0:0:0:0:
324,180,50097,2,0,P|392:204|424:280,1,150,10|0,0:0|0:0,0:0:0:0:
248,264,50444,6,0,L|136:264,1,100,14|0,1:2|0:0,0:0:0:0:
260,264,50791,2,0,L|376:264,1,100,10|10,1:3|0:3,0:0:0:0:
252,68,51137,2,0,L|360:68,1,100,0|10,1:0|0:3,0:0:0:0:
180,64,51397,2,0,P|140:124|184:200,1,150,8|10,0:1|0:1,0:0:0:0:
340,192,51831,6,0,L|344:80,1,100,2|0,1:2|0:0,0:0:0:0:
452,92,52178,2,0,L|456:216,1,100,0|8,1:0|0:3,0:0:0:0:
344,188,52525,2,0,L|204:188,1,100,0|8,1:0|0:3,0:0:0:0:
416,188,52785,2,0,P|452:232|400:316,1,150,8|10,0:1|0:1,0:0:0:0:
180,308,53218,6,0,L|180:204,1,100,2|8,1:2|0:3,0:0:0:0:
292,212,53565,2,0,L|292:80,1,100,0|10,1:0|0:3,0:0:0:0:
180,104,53912,2,0,L|64:104,1,100,0|2,1:0|0:0,0:0:0:0:
252,104,54172,2,0,L|440:56,1,150,8|10,0:1|0:1,0:0:0:0:
228,60,54606,5,0,1:0:0:0:
128,104,54779,1,0,1:0:0:0:
124,212,54952,1,0,1:0:0:0:
220,268,55126,1,0,1:0:0:0:
388,268,55299,1,2,1:2:0:0:
388,268,55473,1,0,1:0:0:0:
220,268,55646,1,2,1:2:0:0:
112,268,55819,1,2,1:2:0:0:
352,272,55993,5,0,1:0:0:0:
400,244,56080,1,0,1:0:0:0:
408,188,56166,1,2,1:2:0:0:
364,152,56253,1,0,1:0:0:0:
192,156,56340,2,0,L|104:156,1,50,2|0,1:2|1:0,0:0:0:0:
308,124,56513,1,0,1:0:0:0:
356,125,56599,1,0,1:0:0:0:
389,160,56686,1,0,1:0:0:0:
387,209,56773,1,0,1:0:0:0:
351,241,56859,1,0,1:0:0:0:
302,238,56946,1,0,1:0:0:0:
136,180,57033,2,0,L|56:180,1,50,0|0,1:0|1:0,0:0:0:0:
140,180,57207,2,0,L|196:180,1,50,0|0,1:0|1:0,0:0:0:0:
360,188,57380,6,0,L|416:188,1,50,2|8,0:0|0:3,0:0:0:0:
244,188,57554,2,0,L|194:185,1,50,2|8,0:0|0:3,0:0:0:0:
192,292,57727,1,8,0:3:0:0:
240,268,57814,1,8,0:3:0:0:
288,244,57900,1,8,0:3:0:0:
288,216,57944,1,8,0:3:0:0:
288,188,57987,1,8,0:3:0:0:
116,156,58074,2,0,L|116:260,1,100,2|0,0:0|1:0,0:0:0:0:
288,252,58421,2,0,P|328:208|276:136,1,150,10|0,0:0|0:0,0:0:0:0:
100,300,58767,6,0,P|40:216|120:140,1,200,6|8,1:2|0:0,0:0:0:0:
208,76,59288,1,8,0:3:0:0:
324,108,59461,2,0,L|324:224,1,100,0|0,0:0|1:0,0:0:0:0:
148,248,59808,1,10,0:0:0:0:
396,260,59981,6,0,P|444:156|384:88,1,200,2|0,1:2|1:0,0:0:0:0:
280,60,60502,1,8,0:0:0:0:
228,44,60588,1,8,0:3:0:0:
176,32,60675,1,8,0:3:0:0:
344,32,60848,2,0,L|488:96,2,150,2|2|2,1:2|0:0|0:0,0:0:0:0:
96,92,61542,6,0,P|52:148|120:260,1,200,2|10,1:2|0:0,0:0:0:0:
220,248,62062,2,0,L|300:232,2,50,10|8|8,0:3|0:3|0:3,0:0:0:0:
100,268,62409,1,0,1:0:0:0:
280,276,62582,2,0,L|384:256,1,100,10|2,0:0|1:2,0:0:0:0:
128,240,62929,6,0,L|128:136,1,100,2|0,0:0|1:0,0:0:0:0:
248,124,63276,1,8,0:0:0:0:
192,100,63363,1,8,0:3:0:0:
136,76,63449,1,8,0:3:0:0:
316,76,63623,2,0,P|372:128|304:220,1,200,2|10,1:2|0:0,0:0:0:0:
196,220,64143,2,0,L|120:220,1,50,0|0,1:0|1:0,0:0:0:0:
340,224,64317,6,0,P|392:152|328:56,1,200,6|10,1:2|0:0,0:0:0:0:
164,56,64837,1,10,0:3:0:0:
48,88,65010,2,0,L|48:200,1,100,8|0,0:3|1:0,0:0:0:0:
220,196,65357,2,0,L|112:196,1,100,8|2,0:0|0:0,0:0:0:0:
372,200,65704,6,0,P|432:136|360:52,1,200,2|8,1:2|0:0,0:0:0:0:
208,56,66224,2,0,L|208:160,1,100,2|0,0:0|1:0,0:0:0:0:
380,156,66571,2,0,L|476:192,2,100,2|8|2,1:2|0:0|0:0,0:0:0:0:
128,152,67091,6,0,P|60:204|136:292,1,200,2|8,1:2|0:0,0:0:0:0:
228,288,67611,2,0,L|280:264,2,50,8|0|0,0:3|1:0|1:0,0:0:0:0:
56,280,67958,2,0,P|28:236|64:144,1,150,10|0,0:0|0:0,0:0:0:0:
248,140,68305,6,0,P|368:200|376:276,1,200,6|0,1:2|1:0,0:0:0:0:
260,224,68825,2,0,L|180:240,2,50,8|8|0,0:0|0:3|1:0,0:0:0:0:
440,228,69172,1,10,0:0:0:0:
484,184,69259,1,8,1:2:0:0:
476,124,69345,1,0,1:0:0:0:
420,104,69432,1,0,1:0:0:0:
244,96,69519,2,0,L|168:96,1,50,2|0,1:2|1:0,0:0:0:0:
256,96,69692,2,0,L|324:96,1,50,8|0,0:0|1:0,0:0:0:0:
112,96,69866,6,0,P|56:136|124:232,1,200,6|10,1:2|0:0,0:0:0:0:
292,228,70386,1,10,1:3:0:0:
408,200,70559,2,0,L|408:88,1,100,8|0,0:3|1:0,0:0:0:0:
232,64,70906,1,8,0:0:0:0:
120,56,71080,1,2,0:0:0:0:
368,64,71253,6,0,P|420:128|360:232,1,200,2|10,1:2|0:0,0:0:0:0:
196,236,71773,1,2,1:2:0:0:
80,200,71947,2,0,L|76:84,1,100,0|0,0:0|1:0,0:0:0:0:
256,108,72293,2,0,L|368:108,1,100,10|2,0:0|0:0,0:0:0:0:
104,112,72640,6,0,P|40:160|116:244,1,200,2|10,1:2|0:0,0:0:0:0:
276,256,73160,1,2,0:0:0:0:
168,240,73334,2,0,L|168:132,1,100,0|0,1:0|1:0,0:0:0:0:
344,108,73681,1,10,0:0:0:0:
96,136,73854,5,2,1:2:0:0:
52,155,73940,1,0,0:0:0:0:
46,202,74027,1,8,0:3:0:0:
84,232,74114,1,8,0:3:0:0:
276,236,74201,2,0,L|276:128,1,100,4|8,1:2|0:0,0:0:0:0:
156,236,74548,2,0,L|92:236,1,50,2|0,0:0|1:0,0:0:0:0:
280,236,74721,2,0,L|280:128,1,100,2|2,1:2|1:2,0:0:0:0:
100,136,75068,2,0,L|100:24,1,100,10|2,0:0|1:2,0:0:0:0:
372,40,75415,6,0,P|432:96|360:168,1,200,6|10,1:2|0:0,0:0:0:0:
188,200,75935,1,2,0:0:0:0:
72,168,76108,2,0,L|72:60,1,100,0|0,1:0|1:0,0:0:0:0:
252,72,76455,1,0,1:0:0:0:
300,100,76542,1,0,1:0:0:0:
304,156,76629,1,2,1:2:0:0:
260,184,76715,1,0,1:0:0:0:
68,184,76802,6,0,L|68:300,1,100,10|8,1:2|1:2,0:0:0:0:
288,256,77669,1,2,1:2:0:0:
412,192,77843,2,0,L|456:160,2,50,2|2|2,0:0|0:0|0:0,0:0:0:0:
164,200,78189,6,0,L|24:132,2,150,6|2|2,1:2|1:2|1:2,0:0:0:0:
344,200,78883,1,10,0:0:0:0:
388,156,78970,1,0,0:0:0:0:
340,120,79056,1,2,0:0:0:0:
88,116,79230,6,0,L|252:192,2,150,6|0|0,1:2|1:0|1:0,0:0:0:0:
268,120,79923,1,8,0:0:0:0:
388,124,80097,2,0,L|388:176,1,50,8|8,0:3|0:3,0:0:0:0:
212,180,80270,2,0,L|100:180,1,100,2|2,1:2|1:2,0:0:0:0:
292,184,80617,2,0,L|356:184,1,50,2|0,1:2|1:0,0:0:0:0:
342,184,80791,2,0,L|272:184,1,50,2|0,1:2|1:0,0:0:0:0:
100,280,80964,6,0,P|72:208|100:128,1,150,6|2,1:2|1:2,0:0:0:0:
236,236,81484,1,2,1:2:0:0:
57,247,81658,2,0,L|57:131,1,100,10|2,0:0|0:0,0:0:0:0:
305,131,82004,6,0,L|468:48,2,150,6|2|2,1:2|1:2|1:2,0:0:0:0:
184,144,82698,2,0,L|184:260,1,100,8|8,0:0|0:3,0:0:0:0:
356,240,83045,2,0,L|356:116,1,100,2|2,1:2|1:2,0:0:0:0:
184,132,83392,2,0,L|120:132,1,50,2|0,1:2|1:0,0:0:0:0:
134,132,83565,2,0,L|208:132,1,50,10|8,1:2|0:0,0:0:0:0:
360,128,83738,5,6,1:2:0:0:
480,144,83912,1,2,0:0:0:0:
484,200,83999,1,10,1:2:0:0:
480,256,84085,1,10,0:3:0:0:
364,272,84259,1,2,1:2:0:0:
196,272,84432,2,0,L|116:272,1,50,10|8,0:0|0:0,0:0:0:0:
324,276,84606,2,0,L|388:276,1,50,8|8,0:0|0:0,0:0:0:0:
184,140,84779,5,6,1:2:0:0:
184,140,84952,2,0,L|340:76,2,150,2|2|2,1:2|1:2|1:2,0:0:0:0:
140,180,85559,1,8,0:3:0:0:
136,240,85646,1,2,1:2:0:0:
184,276,85733,1,8,0:3:0:0:
356,272,85819,2,0,L|356:144,1,100,10|2,0:0|1:2,0:0:0:0:
184,276,86166,2,0,L|120:280,2,50,10|0|2,0:0|1:0|1:2,0:0:0:0:
348,132,86513,5,6,1:2:0:0:
390,156,86599,1,0,1:0:0:0:
414,199,86686,1,0,1:0:0:0:
413,248,86773,1,0,1:0:0:0:
385,289,86859,1,0,1:0:0:0:
341,310,86946,1,0,1:0:0:0:
160,312,87033,2,0,L|100:312,1,50,2|0,1:2|1:0,0:0:0:0:
288,316,87207,2,0,L|344:316,1,50,0|0,1:0|1:0,0:0:0:0:
340,316,87380,2,0,L|288:316,1,50,0|0,1:0|1:0,0:0:0:0:
92,312,87554,6,0,P|32:244|108:156,1,200,6|0,1:2|0:0,0:0:0:0:
