osu file format v14

[General]
AudioFilename: audio.mp3
AudioLeadIn: 0
PreviewTime: 38803
Countdown: 0
SampleSet: Normal
StackLeniency: 0.7
Mode: 1
LetterboxInBreaks: 0
WidescreenStoryboard: 1

[Editor]
DistanceSpacing: 0.5
BeatDivisor: 4
GridSize: 32
TimelineZoom: 2.7

[Metadata]
Title:Neppa feat. Butter
TitleUnicode:熱波 feat. Butter
Artist:tephe
ArtistUnicode:tephe
Creator:Haypzeh
Version:ler's Oni
Source:
Tags:Issuko ler1211 Rinze Erowdi japanese rock jrock j-rock j rock j-pop j pop jpop female vocals itovero saw hess featured artist fa
BeatmapID:3935657
BeatmapSetID:1908137

[Difficulty]
HPDrainRate:6.5
CircleSize:5
OverallDifficulty:5
ApproachRate:5
SliderMultiplier:1.4
SliderTickRate:1

[Events]
//Background and Video events
0,0,"bg.png",0,50
//Break Periods
//Storyboard Layer 0 (Background)
//Storyboard Layer 1 (Fail)
//Storyboard Layer 2 (Pass)
//Storyboard Layer 3 (Foreground)
//Storyboard Layer 4 (Overlay)
//Storyboard Sound Samples

[TimingPoints]
720,333.333333333333,4,1,0,70,1,0
1553,-100,4,1,0,80,0,0
2053,333.333333333333,4,1,0,80,1,0
39386,-100,4,1,0,90,0,1
60303,-100,4,1,0,40,0,1
60469,-100,4,1,0,80,0,1
60719,-100,4,1,0,80,0,0

[HitObjects]
256,192,720,5,8,0:0:0:0:
256,192,1053,1,8,0:0:0:0:
256,192,1386,1,8,0:0:0:0:
256,192,1719,1,12,0:0:0:0:
256,192,2053,1,4,0:0:0:0:
256,192,2219,1,0,0:0:0:0:
256,192,2386,1,8,0:0:0:0:
256,192,2553,1,8,0:0:0:0:
256,192,2719,1,0,0:0:0:0:
256,192,2803,1,0,0:0:0:0:
256,192,2886,1,0,0:0:0:0:
256,192,3053,1,8,0:0:0:0:
256,192,3219,1,0,0:0:0:0:
256,192,3553,1,0,0:0:0:0:
256,192,3719,1,8,0:0:0:0:
256,192,3886,1,8,0:0:0:0:
256,192,3969,1,8,0:0:0:0:
256,192,4053,1,0,0:0:0:0:
256,192,4219,1,0,0:0:0:0:
256,192,4386,1,8,0:0:0:0:
256,192,4469,1,8,0:0:0:0:
256,192,4553,1,0,0:0:0:0:
256,192,4636,1,0,0:0:0:0:
256,192,4719,1,8,0:0:0:0:
256,192,4886,1,0,0:0:0:0:
256,192,5053,1,8,0:0:0:0:
256,192,5219,1,0,0:0:0:0:
256,192,5303,1,0,0:0:0:0:
256,192,5386,1,8,0:0:0:0:
256,192,5553,1,0,0:0:0:0:
256,192,5719,1,8,0:0:0:0:
256,192,5886,1,8,0:0:0:0:
256,192,6219,1,0,0:0:0:0:
256,192,6386,1,8,0:0:0:0:
256,192,6469,1,8,0:0:0:0:
256,192,6553,1,8,0:0:0:0:
256,192,6719,1,0,0:0:0:0:
256,192,6886,1,8,0:0:0:0:
256,192,7053,1,8,0:0:0:0:
256,192,7386,1,4,0:0:0:0:
256,192,7553,1,0,0:0:0:0:
256,192,7719,1,8,0:0:0:0:
256,192,7886,1,8,0:0:0:0:
256,192,8053,1,0,0:0:0:0:
256,192,8136,1,8,0:0:0:0:
256,192,8219,1,0,0:0:0:0:
256,192,8386,1,8,0:0:0:0:
256,192,8553,1,8,0:0:0:0:
256,192,8886,1,0,0:0:0:0:
256,192,9053,1,8,0:0:0:0:
256,192,9219,1,8,0:0:0:0:
256,192,9386,1,0,0:0:0:0:
256,192,9553,1,0,0:0:0:0:
256,192,9636,1,0,0:0:0:0:
256,192,9719,1,8,0:0:0:0:
256,192,9886,1,8,0:0:0:0:
256,192,10053,1,0,0:0:0:0:
256,192,10219,1,8,0:0:0:0:
256,192,10303,1,0,0:0:0:0:
256,192,10386,1,8,0:0:0:0:
256,192,10553,1,8,0:0:0:0:
256,192,10719,1,0,0:0:0:0:
256,192,10886,1,0,0:0:0:0:
256,192,10969,1,0,0:0:0:0:
256,192,11053,1,8,0:0:0:0:
256,192,11136,1,8,0:0:0:0:
256,192,11219,1,0,0:0:0:0:
256,192,11553,1,0,0:0:0:0:
256,192,11719,1,8,0:0:0:0:
256,192,11803,1,8,0:0:0:0:
256,192,11886,1,8,0:0:0:0:
256,192,12053,1,0,0:0:0:0:
256,192,12219,1,8,0:0:0:0:
256,192,12386,1,8,0:0:0:0:
256,192,12719,1,4,0:0:0:0:
256,192,13053,1,8,0:0:0:0:
256,192,13219,1,8,0:0:0:0:
256,192,13386,1,0,0:0:0:0:
256,192,13553,1,0,0:0:0:0:
256,192,13719,1,8,0:0:0:0:
256,192,14053,1,0,0:0:0:0:
256,192,14219,1,0,0:0:0:0:
256,192,14386,1,8,0:0:0:0:
256,192,14886,1,8,0:0:0:0:
256,192,15053,1,8,0:0:0:0:
256,192,15386,1,0,0:0:0:0:
256,192,15719,1,8,0:0:0:0:
256,192,15886,1,0,0:0:0:0:
256,192,16219,1,0,0:0:0:0:
256,192,16386,1,8,0:0:0:0:
256,192,16719,1,0,0:0:0:0:
256,192,16886,1,0,0:0:0:0:
256,192,17053,1,8,0:0:0:0:
256,192,17219,1,0,0:0:0:0:
256,192,17303,1,0,0:0:0:0:
256,192,17386,1,0,0:0:0:0:
256,192,17553,1,0,0:0:0:0:
256,192,17719,1,8,0:0:0:0:
256,192,18053,1,0,0:0:0:0:
256,192,18386,1,8,0:0:0:0:
256,192,18553,1,0,0:0:0:0:
256,192,18886,1,0,0:0:0:0:
256,192,19053,1,8,0:0:0:0:
256,192,19219,1,0,0:0:0:0:
256,192,19303,1,0,0:0:0:0:
256,192,19386,1,8,0:0:0:0:
256,192,19553,1,0,0:0:0:0:
256,192,19719,1,8,0:0:0:0:
256,192,20219,1,8,0:0:0:0:
256,192,20386,1,8,0:0:0:0:
256,192,20719,1,0,0:0:0:0:
256,192,21053,1,8,0:0:0:0:
256,192,21219,1,0,0:0:0:0:
256,192,21386,1,0,0:0:0:0:
256,192,21553,1,0,0:0:0:0:
256,192,21719,1,8,0:0:0:0:
256,192,22053,1,0,0:0:0:0:
256,192,22219,1,8,0:0:0:0:
256,192,22553,1,8,0:0:0:0:
256,192,22886,1,8,0:0:0:0:
256,192,22969,1,8,0:0:0:0:
256,192,23053,1,8,0:0:0:0:
256,192,23219,1,8,0:0:0:0:
256,192,23386,1,4,0:0:0:0:
256,192,23719,1,8,0:0:0:0:
256,192,23886,1,8,0:0:0:0:
256,192,24053,1,0,0:0:0:0:
256,192,24219,1,0,0:0:0:0:
256,192,24303,1,0,0:0:0:0:
256,192,24386,1,8,0:0:0:0:
256,192,24553,1,8,0:0:0:0:
256,192,24719,1,0,0:0:0:0:
256,192,24886,1,8,0:0:0:0:
256,192,24969,1,8,0:0:0:0:
256,192,25053,1,8,0:0:0:0:
256,192,25219,1,0,0:0:0:0:
256,192,25553,1,8,0:0:0:0:
256,192,25719,1,8,0:0:0:0:
256,192,25803,1,8,0:0:0:0:
256,192,25886,1,0,0:0:0:0:
256,192,25969,1,0,0:0:0:0:
256,192,26053,1,0,0:0:0:0:
256,192,26386,1,8,0:0:0:0:
256,192,26553,1,0,0:0:0:0:
256,192,26719,1,8,0:0:0:0:
256,192,26803,1,0,0:0:0:0:
256,192,26886,1,8,0:0:0:0:
256,192,27053,1,8,0:0:0:0:
256,192,27219,1,0,0:0:0:0:
256,192,27303,1,0,0:0:0:0:
256,192,27386,1,8,0:0:0:0:
256,192,27553,1,0,0:0:0:0:
256,192,27719,1,8,0:0:0:0:
256,192,27886,1,0,0:0:0:0:
256,192,27969,1,0,0:0:0:0:
256,192,28053,1,0,0:0:0:0:
256,192,28219,1,0,0:0:0:0:
256,192,28386,1,8,0:0:0:0:
256,192,28719,1,0,0:0:0:0:
256,192,28886,1,0,0:0:0:0:
256,192,29053,1,8,0:0:0:0:
256,192,29219,1,0,0:0:0:0:
256,192,29386,1,8,0:0:0:0:
256,192,29469,1,8,0:0:0:0:
256,192,29553,1,0,0:0:0:0:
256,192,29719,1,8,0:0:0:0:
256,192,29886,1,0,0:0:0:0:
256,192,29969,1,8,0:0:0:0:
256,192,30053,1,0,0:0:0:0:
256,192,30219,1,0,0:0:0:0:
256,192,30386,1,8,0:0:0:0:
256,192,30553,1,0,0:0:0:0:
256,192,30886,1,8,0:0:0:0:
256,192,31053,1,8,0:0:0:0:
256,192,31136,1,8,0:0:0:0:
256,192,31219,1,0,0:0:0:0:
256,192,31303,1,0,0:0:0:0:
256,192,31386,1,0,0:0:0:0:
256,192,31719,1,8,0:0:0:0:
256,192,31886,1,8,0:0:0:0:
256,192,32053,1,0,0:0:0:0:
256,192,32219,1,0,0:0:0:0:
256,192,32303,1,0,0:0:0:0:
256,192,32386,1,8,0:0:0:0:
256,192,32553,1,8,0:0:0:0:
256,192,32719,1,0,0:0:0:0:
256,192,32886,1,8,0:0:0:0:
256,192,33053,1,0,0:0:0:0:
256,192,33219,1,8,0:0:0:0:
256,192,33386,1,0,0:0:0:0:
256,192,33553,1,8,0:0:0:0:
256,192,33636,1,8,0:0:0:0:
256,192,33719,1,8,0:0:0:0:
256,192,33886,1,8,0:0:0:0:
256,192,34053,1,4,0:0:0:0:
256,192,34386,1,8,0:0:0:0:
256,192,34553,1,0,0:0:0:0:
256,192,34886,1,0,0:0:0:0:
256,192,35053,1,8,0:0:0:0:
256,192,35219,1,0,0:0:0:0:
256,192,35303,1,0,0:0:0:0:
256,192,35386,1,0,0:0:0:0:
256,192,35719,1,8,0:0:0:0:
256,192,35886,1,0,0:0:0:0:
256,192,36219,1,0,0:0:0:0:
256,192,36386,1,8,0:0:0:0:
256,192,36553,1,0,0:0:0:0:
256,192,36636,1,0,0:0:0:0:
256,192,36719,1,8,0:0:0:0:
256,192,37053,1,8,0:0:0:0:
256,192,37219,1,0,0:0:0:0:
256,192,37553,1,0,0:0:0:0:
256,192,37719,1,8,0:0:0:0:
256,192,37886,1,0,0:0:0:0:
256,192,38219,1,12,0:0:0:0:
256,192,38553,1,12,0:0:0:0:
256,192,39386,1,4,0:0:0:0:
256,192,39719,1,8,0:0:0:0:
256,192,39886,1,0,0:0:0:0:
256,192,39969,1,8,0:0:0:0:
256,192,40053,1,0,0:0:0:0:
256,192,40219,1,0,0:0:0:0:
256,192,40386,1,8,0:0:0:0:
256,192,40469,1,8,0:0:0:0:
256,192,40553,1,0,0:0:0:0:
256,192,40636,1,0,0:0:0:0:
256,192,40719,1,8,0:0:0:0:
256,192,40886,1,0,0:0:0:0:
256,192,41053,1,8,0:0:0:0:
256,192,41219,1,0,0:0:0:0:
256,192,41303,1,0,0:0:0:0:
256,192,41386,1,8,0:0:0:0:
256,192,41553,1,0,0:0:0:0:
256,192,41719,1,8,0:0:0:0:
256,192,42053,1,0,0:0:0:0:
256,192,42219,1,8,0:0:0:0:
256,192,42303,1,0,0:0:0:0:
256,192,42386,1,8,0:0:0:0:
256,192,42553,1,8,0:0:0:0:
256,192,42719,1,0,0:0:0:0:
256,192,42803,1,0,0:0:0:0:
256,192,42886,1,0,0:0:0:0:
256,192,43053,1,8,0:0:0:0:
256,192,43219,1,0,0:0:0:0:
256,192,43303,1,0,0:0:0:0:
256,192,43386,1,8,0:0:0:0:
256,192,43553,1,0,0:0:0:0:
256,192,43636,1,0,0:0:0:0:
256,192,43719,1,8,0:0:0:0:
256,192,43803,1,8,0:0:0:0:
256,192,43886,1,0,0:0:0:0:
256,192,44053,1,0,0:0:0:0:
256,192,44219,1,8,0:0:0:0:
256,192,44386,1,8,0:0:0:0:
256,192,44469,1,0,0:0:0:0:
256,192,44552,1,8,0:0:0:0:
256,192,44719,1,4,0:0:0:0:
256,192,45053,1,8,0:0:0:0:
256,192,45219,1,8,0:0:0:0:
256,192,45386,1,0,0:0:0:0:
256,192,45553,1,0,0:0:0:0:
256,192,45636,1,0,0:0:0:0:
256,192,45719,1,8,0:0:0:0:
256,192,45886,1,4,0:0:0:0:
256,192,46219,1,0,0:0:0:0:
256,192,46386,1,8,0:0:0:0:
256,192,46553,1,4,0:0:0:0:
256,192,46886,1,0,0:0:0:0:
256,192,47053,1,8,0:0:0:0:
256,192,47386,1,4,0:0:0:0:
256,192,47719,1,8,0:0:0:0:
256,192,47886,1,0,0:0:0:0:
256,192,47969,1,8,0:0:0:0:
256,192,48053,1,0,0:0:0:0:
256,192,48219,1,0,0:0:0:0:
256,192,48386,1,8,0:0:0:0:
256,192,48553,1,8,0:0:0:0:
256,192,48636,1,8,0:0:0:0:
256,192,48719,1,0,0:0:0:0:
256,192,48886,1,0,0:0:0:0:
256,192,48969,1,0,0:0:0:0:
256,192,49053,1,8,0:0:0:0:
256,192,49219,1,8,0:0:0:0:
256,192,49386,1,0,0:0:0:0:
256,192,49553,1,8,0:0:0:0:
256,192,49719,1,8,0:0:0:0:
256,192,49803,1,8,0:0:0:0:
256,192,49886,1,8,0:0:0:0:
256,192,50053,1,4,0:0:0:0:
256,192,50386,1,8,0:0:0:0:
256,192,50553,1,8,0:0:0:0:
256,192,50636,1,8,0:0:0:0:
256,192,50719,1,0,0:0:0:0:
256,192,50886,1,0,0:0:0:0:
256,192,51053,1,8,0:0:0:0:
256,192,51219,1,0,0:0:0:0:
256,192,51303,1,0,0:0:0:0:
256,192,51386,1,8,0:0:0:0:
256,192,51553,1,0,0:0:0:0:
256,192,51719,1,8,0:0:0:0:
256,192,51803,1,8,0:0:0:0:
256,192,51886,1,0,0:0:0:0:
256,192,51969,1,0,0:0:0:0:
256,192,52053,1,8,0:0:0:0:
256,192,52219,1,0,0:0:0:0:
256,192,52386,1,8,0:0:0:0:
256,192,52719,1,0,0:0:0:0:
256,192,52886,1,8,0:0:0:0:
256,192,52969,1,0,0:0:0:0:
256,192,53053,1,8,0:0:0:0:
256,192,53219,1,8,0:0:0:0:
256,192,53386,1,0,0:0:0:0:
256,192,53553,1,0,0:0:0:0:
256,192,53719,1,8,0:0:0:0:
256,192,53886,1,0,0:0:0:0:
256,192,53969,1,0,0:0:0:0:
256,192,54053,1,8,0:0:0:0:
256,192,54136,1,8,0:0:0:0:
256,192,54219,1,0,0:0:0:0:
256,192,54386,1,8,0:0:0:0:
256,192,54553,1,0,0:0:0:0:
256,192,54636,1,0,0:0:0:0:
256,192,54719,1,0,0:0:0:0:
256,192,54886,1,8,0:0:0:0:
256,192,55053,1,8,0:0:0:0:
256,192,55136,1,0,0:0:0:0:
256,192,55219,1,8,0:0:0:0:
256,192,55386,1,4,0:0:0:0:
256,192,55719,1,8,0:0:0:0:
256,192,55886,1,0,0:0:0:0:
256,192,56053,1,8,0:0:0:0:
256,192,56136,1,8,0:0:0:0:
256,192,56219,1,0,0:0:0:0:
256,192,56386,1,8,0:0:0:0:
256,192,56553,1,4,0:0:0:0:
256,192,56886,1,0,0:0:0:0:
256,192,57053,1,8,0:0:0:0:
256,192,57219,1,4,0:0:0:0:
256,192,57553,1,0,0:0:0:0:
256,192,57719,1,8,0:0:0:0:
256,192,57803,1,8,0:0:0:0:
256,192,57886,1,8,0:0:0:0:
256,192,58053,1,4,0:0:0:0:
256,192,58386,1,8,0:0:0:0:
256,192,58553,1,0,0:0:0:0:
256,192,58636,1,0,0:0:0:0:
256,192,58719,1,8,0:0:0:0:
256,192,58886,1,0,0:0:0:0:
256,192,59053,1,8,0:0:0:0:
256,192,59219,1,0,0:0:0:0:
256,192,59303,1,0,0:0:0:0:
256,192,59386,1,0,0:0:0:0:
256,192,59553,1,0,0:0:0:0:
256,192,59719,1,8,0:0:0:0:
256,192,59803,1,8,0:0:0:0:
256,192,59886,1,8,0:0:0:0:
256,192,59969,1,8,0:0:0:0:
256,192,60053,1,0,0:0:0:0:
256,192,60386,1,8,0:0:0:0:
256,192,60719,1,4,0:0:0:0:
256,192,60886,1,0,0:0:0:0:
256,192,61053,1,8,0:0:0:0:
256,192,61219,1,8,0:0:0:0:
256,192,61386,1,0,0:0:0:0:
256,192,61469,1,0,0:0:0:0:
256,192,61553,1,0,0:0:0:0:
256,192,61719,1,8,0:0:0:0:
256,192,61886,1,0,0:0:0:0:
256,192,62219,1,0,0:0:0:0:
256,192,62386,1,8,0:0:0:0:
256,192,62553,1,8,0:0:0:0:
256,192,62636,1,8,0:0:0:0:
256,192,62719,1,0,0:0:0:0:
256,192,62886,1,0,0:0:0:0:
256,192,63053,1,8,0:0:0:0:
256,192,63136,1,8,0:0:0:0:
256,192,63219,1,0,0:0:0:0:
256,192,63303,1,0,0:0:0:0:
256,192,63386,1,8,0:0:0:0:
256,192,63553,1,0,0:0:0:0:
256,192,63719,1,8,0:0:0:0:
256,192,63886,1,0,0:0:0:0:
256,192,63969,1,0,0:0:0:0:
256,192,64053,1,8,0:0:0:0:
256,192,64219,1,0,0:0:0:0:
256,192,64386,1,8,0:0:0:0:
256,192,64553,1,8,0:0:0:0:
256,192,64886,1,0,0:0:0:0:
256,192,65053,1,8,0:0:0:0:
256,192,65136,1,8,0:0:0:0:
256,192,65219,1,8,0:0:0:0:
256,192,65386,1,0,0:0:0:0:
256,192,65553,1,8,0:0:0:0:
256,192,65719,1,8,0:0:0:0:
256,192,66053,1,4,0:0:0:0:
256,192,66219,1,0,0:0:0:0:
256,192,66386,1,8,0:0:0:0:
256,192,66553,1,8,0:0:0:0:
256,192,66719,1,0,0:0:0:0:
256,192,66803,1,8,0:0:0:0:
256,192,66886,1,0,0:0:0:0:
256,192,67053,1,8,0:0:0:0:
256,192,67219,1,8,0:0:0:0:
256,192,67553,1,0,0:0:0:0:
256,192,67719,1,8,0:0:0:0:
256,192,67886,1,8,0:0:0:0:
256,192,68053,1,0,0:0:0:0:
256,192,68219,1,0,0:0:0:0:
256,192,68303,1,0,0:0:0:0:
256,192,68386,1,8,0:0:0:0:
256,192,68553,1,8,0:0:0:0:
256,192,68719,1,0,0:0:0:0:
256,192,68886,1,8,0:0:0:0:
256,192,68969,1,0,0:0:0:0:
256,192,69053,1,8,0:0:0:0:
256,192,69219,1,8,0:0:0:0:
256,192,69386,1,0,0:0:0:0:
256,192,69553,1,0,0:0:0:0:
256,192,69636,1,0,0:0:0:0:
256,192,69719,1,8,0:0:0:0:
256,192,69803,1,8,0:0:0:0:
256,192,69886,1,0,0:0:0:0:
256,192,70219,1,0,0:0:0:0:
256,192,70386,1,8,0:0:0:0:
256,192,70469,1,8,0:0:0:0:
256,192,70553,1,8,0:0:0:0:
256,192,70719,1,0,0:0:0:0:
256,192,70886,1,8,0:0:0:0:
256,192,71053,1,0,0:0:0:0:
