osu file format v14

[General]
AudioFilename: audio.mp3
AudioLeadIn: 0
PreviewTime: 38803
Countdown: 0
SampleSet: Normal
StackLeniency: 0.7
Mode: 1
LetterboxInBreaks: 0
WidescreenStoryboard: 1

[Editor]
DistanceSpacing: 0.5
BeatDivisor: 4
GridSize: 32
TimelineZoom: 3.399999

[Metadata]
Title:Neppa feat. Butter
TitleUnicode:熱波 feat. Butter
Artist:tephe
ArtistUnicode:tephe
Creator:Haypzeh
Version:Muzukashii
Source:
Tags:Issuko ler1211 Rinze Erowdi japanese rock jrock j-rock j rock j-pop j pop jpop female vocals itovero saw hess featured artist fa
BeatmapID:4053873
BeatmapSetID:1908137

[Difficulty]
HPDrainRate:7
CircleSize:5
OverallDifficulty:4.5
ApproachRate:5
SliderMultiplier:1.4
SliderTickRate:1

[Events]
//Background and Video events
0,0,"bg.png",0,50
//Break Periods
//Storyboard Layer 0 (Background)
//Storyboard Layer 1 (Fail)
//Storyboard Layer 2 (Pass)
//Storyboard Layer 3 (Foreground)
//Storyboard Layer 4 (Overlay)
//Storyboard Sound Samples

[TimingPoints]
720,333.333333333333,4,1,0,70,1,0
720,-100,4,1,0,70,0,0
2053,333.333333333333,4,1,0,70,1,0
2053,-100,4,1,0,70,0,0
6886,-100,4,1,0,80,0,0
7386,-100,4,1,0,70,0,0
12219,-100,4,1,0,80,0,0
12719,-100,4,1,0,70,0,0
14886,-100,4,1,0,80,0,0
15219,-100,4,1,0,70,0,0
20219,-100,4,1,0,80,0,0
20552,-100,4,1,0,70,0,0
25552,-100,4,1,0,80,0,0
25886,-100,4,1,0,70,0,0
30886,-100,4,1,0,80,0,0
31219,-100,4,1,0,70,0,0
34219,-100,4,1,0,50,0,0
39386,-100,4,1,0,90,0,1
60386,-100,4,1,0,90,0,0
60719,-100,4,1,0,70,0,0
65552,-100,4,1,0,80,0,0
65886,-100,4,1,0,70,0,0
70886,-100,4,1,0,80,0,0
71219,-100,4,1,0,70,0,0

[HitObjects]
256,192,720,5,0,0:0:0:0:
256,192,1053,1,0,0:0:0:0:
256,192,1387,1,0,0:0:0:0:
256,192,1719,1,12,0:0:0:0:
256,192,2053,1,0,0:0:0:0:
256,192,2219,1,8,0:0:0:0:
256,192,2302,1,8,0:0:0:0:
256,192,2386,1,8,0:0:0:0:
256,192,2553,1,0,0:0:0:0:
256,192,2719,1,8,0:0:0:0:
256,192,2886,1,0,0:0:0:0:
256,192,2969,1,0,0:0:0:0:
256,192,3053,1,0,0:0:0:0:
256,192,3219,1,8,0:0:0:0:
256,192,3553,1,8,0:0:0:0:
256,192,3636,1,8,0:0:0:0:
256,192,3719,1,8,0:0:0:0:
256,192,3886,1,0,0:0:0:0:
256,192,4386,1,8,0:0:0:0:
256,192,4719,1,0,0:0:0:0:
256,192,4886,1,8,0:0:0:0:
256,192,4969,1,8,0:0:0:0:
256,192,5053,1,8,0:0:0:0:
256,192,5219,1,0,0:0:0:0:
256,192,5386,1,8,0:0:0:0:
256,192,5553,1,0,0:0:0:0:
256,192,5636,1,0,0:0:0:0:
256,192,5719,1,0,0:0:0:0:
256,192,5886,1,8,0:0:0:0:
256,192,6219,1,0,0:0:0:0:
256,192,6386,1,8,0:0:0:0:
256,192,6553,1,0,0:0:0:0:
256,192,6886,1,12,0:0:0:0:
256,192,7053,1,12,0:0:0:0:
256,192,7386,1,0,0:0:0:0:
256,192,7553,1,8,0:0:0:0:
256,192,7636,1,8,0:0:0:0:
256,192,7719,1,8,0:0:0:0:
256,192,7886,1,0,0:0:0:0:
256,192,8053,1,8,0:0:0:0:
256,192,8219,1,0,0:0:0:0:
256,192,8303,1,0,0:0:0:0:
256,192,8386,1,0,0:0:0:0:
256,192,8553,1,8,0:0:0:0:
256,192,8886,1,8,0:0:0:0:
256,192,8969,1,8,0:0:0:0:
256,192,9052,1,8,0:0:0:0:
256,192,9219,1,0,0:0:0:0:
256,192,9719,1,8,0:0:0:0:
256,192,10052,1,0,0:0:0:0:
256,192,10219,1,8,0:0:0:0:
256,192,10303,1,8,0:0:0:0:
256,192,10386,1,8,0:0:0:0:
256,192,10553,1,0,0:0:0:0:
256,192,10719,1,8,0:0:0:0:
256,192,10886,1,0,0:0:0:0:
256,192,10969,1,0,0:0:0:0:
256,192,11053,1,0,0:0:0:0:
256,192,11219,1,8,0:0:0:0:
256,192,11553,1,0,0:0:0:0:
256,192,11719,1,8,0:0:0:0:
256,192,11886,1,0,0:0:0:0:
256,192,12219,1,12,0:0:0:0:
256,192,12386,1,12,0:0:0:0:
256,192,12719,1,0,0:0:0:0:
256,192,13053,1,8,0:0:0:0:
256,192,13219,1,8,0:0:0:0:
256,192,13386,1,0,0:0:0:0:
256,192,13553,1,0,0:0:0:0:
256,192,13719,1,8,0:0:0:0:
256,192,14053,1,0,0:0:0:0:
256,192,14219,1,0,0:0:0:0:
256,192,14386,1,8,0:0:0:0:
256,192,14886,1,12,0:0:0:0:
256,192,15053,1,12,0:0:0:0:
256,192,15386,1,0,0:0:0:0:
256,192,15719,1,8,0:0:0:0:
256,192,15886,1,0,0:0:0:0:
256,192,16219,1,0,0:0:0:0:
256,192,16386,1,8,0:0:0:0:
256,192,16719,1,0,0:0:0:0:
256,192,16886,1,0,0:0:0:0:
256,192,17053,1,8,0:0:0:0:
256,192,17219,1,0,0:0:0:0:
256,192,17553,1,0,0:0:0:0:
256,192,17719,1,8,0:0:0:0:
256,192,18053,1,0,0:0:0:0:
256,192,18386,1,8,0:0:0:0:
256,192,18553,1,0,0:0:0:0:
256,192,18719,1,0,0:0:0:0:
256,192,18886,1,0,0:0:0:0:
256,192,19053,1,8,0:0:0:0:
256,192,19386,1,0,0:0:0:0:
256,192,19553,1,0,0:0:0:0:
256,192,19719,1,8,0:0:0:0:
256,192,20219,1,12,0:0:0:0:
256,192,20386,1,12,0:0:0:0:
256,192,20719,1,0,0:0:0:0:
256,192,21053,1,8,0:0:0:0:
256,192,21219,1,8,0:0:0:0:
256,192,21386,1,0,0:0:0:0:
256,192,21553,1,0,0:0:0:0:
256,192,21719,1,8,0:0:0:0:
256,192,21886,1,0,0:0:0:0:
256,192,22219,1,8,0:0:0:0:
256,192,22553,1,8,0:0:0:0:
256,192,22886,1,8,0:0:0:0:
256,192,22969,1,8,0:0:0:0:
256,192,23053,1,8,0:0:0:0:
256,192,23219,1,8,0:0:0:0:
256,192,23386,1,4,0:0:0:0:
256,192,23719,1,0,0:0:0:0:
256,192,23886,1,8,0:0:0:0:
256,192,24053,1,0,0:0:0:0:
256,192,24220,1,0,0:0:0:0:
256,192,24386,1,8,0:0:0:0:
256,192,24720,1,0,0:0:0:0:
256,192,24886,1,0,0:0:0:0:
256,192,25053,1,8,0:0:0:0:
256,192,25552,1,12,0:0:0:0:
256,192,25720,1,12,0:0:0:0:
256,192,26053,1,0,0:0:0:0:
256,192,26219,1,0,0:0:0:0:
256,192,26386,1,8,0:0:0:0:
256,192,26553,1,0,0:0:0:0:
256,192,26886,1,0,0:0:0:0:
256,192,27053,1,8,0:0:0:0:
256,192,27386,1,0,0:0:0:0:
256,192,27553,1,0,0:0:0:0:
256,192,27720,1,8,0:0:0:0:
256,192,27886,1,0,0:0:0:0:
256,192,28220,1,0,0:0:0:0:
256,192,28386,1,8,0:0:0:0:
256,192,28719,1,0,0:0:0:0:
256,192,29053,1,8,0:0:0:0:
256,192,29553,1,0,0:0:0:0:
256,192,29719,1,8,0:0:0:0:
256,192,30053,1,0,0:0:0:0:
256,192,30219,1,0,0:0:0:0:
256,192,30386,1,8,0:0:0:0:
256,192,30553,1,0,0:0:0:0:
256,192,30886,1,12,0:0:0:0:
256,192,31053,1,12,0:0:0:0:
256,192,31386,1,0,0:0:0:0:
256,192,31553,1,0,0:0:0:0:
256,192,31720,1,8,0:0:0:0:
256,192,31886,1,0,0:0:0:0:
256,192,32219,1,0,0:0:0:0:
256,192,32386,1,8,0:0:0:0:
256,192,32720,1,0,0:0:0:0:
256,192,32886,1,8,0:0:0:0:
256,192,33220,1,8,0:0:0:0:
256,192,33553,1,8,0:0:0:0:
256,192,33636,1,8,0:0:0:0:
256,192,33720,1,8,0:0:0:0:
256,192,33886,1,8,0:0:0:0:
256,192,34053,1,4,0:0:0:0:
256,192,34553,1,8,0:0:0:0:
256,192,35053,1,0,0:0:0:0:
256,192,35136,1,0,0:0:0:0:
256,192,35219,1,0,0:0:0:0:
256,192,35386,1,8,0:0:0:0:
256,192,35886,1,8,0:0:0:0:
256,192,36219,1,8,0:0:0:0:
256,192,36386,1,0,0:0:0:0:
256,192,36469,1,0,0:0:0:0:
256,192,36553,1,0,0:0:0:0:
256,192,36719,1,0,0:0:0:0:
256,192,37219,1,0,0:0:0:0:
256,192,37553,1,0,0:0:0:0:
256,192,37636,1,0,0:0:0:0:
256,192,37720,1,0,0:0:0:0:
256,192,37887,1,8,0:0:0:0:
256,192,38219,1,4,0:0:0:0:
256,192,38553,1,12,0:0:0:0:
256,192,39053,1,0,0:0:0:0:
256,192,39219,1,8,0:0:0:0:
256,192,39386,1,4,0:0:0:0:
256,192,39719,1,12,0:0:0:0:
256,192,40053,1,4,0:0:0:0:
256,192,40386,1,12,0:0:0:0:
256,192,40553,1,0,0:0:0:0:
256,192,40886,1,0,0:0:0:0:
256,192,41053,1,8,0:0:0:0:
256,192,41136,1,8,0:0:0:0:
256,192,41219,1,8,0:0:0:0:
256,192,41386,1,0,0:0:0:0:
256,192,41469,1,0,0:0:0:0:
256,192,41553,1,0,0:0:0:0:
256,192,41719,1,8,0:0:0:0:
256,192,42219,1,8,0:0:0:0:
256,192,42303,1,8,0:0:0:0:
256,192,42386,1,8,0:0:0:0:
256,192,42553,1,0,0:0:0:0:
256,192,42719,1,0,0:0:0:0:
256,192,42886,1,8,0:0:0:0:
256,192,43219,1,8,0:0:0:0:
256,192,43553,1,0,0:0:0:0:
256,192,43720,1,0,0:0:0:0:
256,192,43886,1,8,0:0:0:0:
256,192,44219,1,8,0:0:0:0:
256,192,44386,1,8,0:0:0:0:
256,192,44719,1,4,0:0:0:0:
256,192,45052,1,12,0:0:0:0:
256,192,45386,1,4,0:0:0:0:
256,192,45719,1,12,0:0:0:0:
256,192,45886,1,12,0:0:0:0:
256,192,46219,1,0,0:0:0:0:
256,192,46303,1,0,0:0:0:0:
256,192,46386,1,0,0:0:0:0:
256,192,46553,1,12,0:0:0:0:
256,192,46886,1,0,0:0:0:0:
256,192,47053,1,8,0:0:0:0:
256,192,47386,1,0,0:0:0:0:
256,192,47719,1,8,0:0:0:0:
256,192,48219,1,0,0:0:0:0:
256,192,48386,1,8,0:0:0:0:
256,192,48719,1,0,0:0:0:0:
256,192,48886,1,0,0:0:0:0:
256,192,49053,1,8,0:0:0:0:
256,192,49219,1,0,0:0:0:0:
256,192,49553,1,8,0:0:0:0:
256,192,49719,1,8,0:0:0:0:
256,192,50052,1,4,0:0:0:0:
256,192,50385,1,12,0:0:0:0:
256,192,50719,1,4,0:0:0:0:
256,192,51052,1,12,0:0:0:0:
256,192,51219,1,0,0:0:0:0:
256,192,51552,1,0,0:0:0:0:
256,192,51719,1,8,0:0:0:0:
256,192,51802,1,8,0:0:0:0:
256,192,51885,1,8,0:0:0:0:
256,192,52052,1,0,0:0:0:0:
256,192,52136,1,0,0:0:0:0:
256,192,52219,1,0,0:0:0:0:
256,192,52385,1,8,0:0:0:0:
256,192,52885,1,8,0:0:0:0:
256,192,52969,1,8,0:0:0:0:
256,192,53052,1,8,0:0:0:0:
256,192,53219,1,0,0:0:0:0:
256,192,53385,1,0,0:0:0:0:
256,192,53552,1,8,0:0:0:0:
256,192,53719,1,0,0:0:0:0:
256,192,53885,1,8,0:0:0:0:
256,192,54219,1,0,0:0:0:0:
256,192,54386,1,0,0:0:0:0:
256,192,54552,1,8,0:0:0:0:
256,192,54886,1,8,0:0:0:0:
256,192,55053,1,8,0:0:0:0:
256,192,55386,1,4,0:0:0:0:
256,192,55719,1,12,0:0:0:0:
256,192,56053,1,4,0:0:0:0:
256,192,56386,1,12,0:0:0:0:
256,192,56553,1,12,0:0:0:0:
256,192,56886,1,0,0:0:0:0:
256,192,56969,1,0,0:0:0:0:
256,192,57053,1,0,0:0:0:0:
256,192,57220,1,12,0:0:0:0:
256,192,57553,1,0,0:0:0:0:
256,192,57720,1,8,0:0:0:0:
256,192,57886,1,0,0:0:0:0:
256,192,57969,1,0,0:0:0:0:
256,192,58053,1,0,0:0:0:0:
256,192,58219,1,8,0:0:0:0:
256,192,58719,1,8,0:0:0:0:
256,192,58886,1,0,0:0:0:0:
256,192,59053,1,8,0:0:0:0:
256,192,59219,1,0,0:0:0:0:
256,192,59303,1,0,0:0:0:0:
256,192,59386,1,0,0:0:0:0:
256,192,59553,1,0,0:0:0:0:
256,192,59720,1,8,0:0:0:0:
256,192,59886,1,0,0:0:0:0:
256,192,60053,1,8,0:0:0:0:
256,192,60386,1,8,0:0:0:0:
256,192,60719,1,0,0:0:0:0:
256,192,60885,1,8,0:0:0:0:
256,192,60969,1,8,0:0:0:0:
256,192,61052,1,8,0:0:0:0:
256,192,61219,1,0,0:0:0:0:
256,192,61385,1,8,0:0:0:0:
256,192,61552,1,0,0:0:0:0:
256,192,61635,1,0,0:0:0:0:
256,192,61719,1,0,0:0:0:0:
256,192,61885,1,8,0:0:0:0:
256,192,62219,1,8,0:0:0:0:
256,192,62302,1,8,0:0:0:0:
256,192,62385,1,8,0:0:0:0:
256,192,62552,1,0,0:0:0:0:
256,192,62885,1,0,0:0:0:0:
256,192,63052,1,8,0:0:0:0:
256,192,63385,1,0,0:0:0:0:
256,192,63552,1,8,0:0:0:0:
256,192,63636,1,8,0:0:0:0:
256,192,63719,1,8,0:0:0:0:
256,192,63885,1,0,0:0:0:0:
256,192,64052,1,8,0:0:0:0:
256,192,64219,1,0,0:0:0:0:
256,192,64302,1,0,0:0:0:0:
256,192,64385,1,0,0:0:0:0:
256,192,64552,1,8,0:0:0:0:
256,192,64885,1,0,0:0:0:0:
256,192,65052,1,8,0:0:0:0:
256,192,65219,1,0,0:0:0:0:
256,192,65552,1,12,0:0:0:0:
256,192,65719,1,12,0:0:0:0:
256,192,66052,1,0,0:0:0:0:
256,192,66219,1,8,0:0:0:0:
256,192,66303,1,8,0:0:0:0:
256,192,66385,1,8,0:0:0:0:
256,192,66552,1,0,0:0:0:0:
256,192,66719,1,8,0:0:0:0:
256,192,66885,1,0,0:0:0:0:
256,192,66969,1,0,0:0:0:0:
256,192,67052,1,0,0:0:0:0:
256,192,67219,1,8,0:0:0:0:
256,192,67552,1,0,0:0:0:0:
256,192,67718,1,8,0:0:0:0:
256,192,67885,1,0,0:0:0:0:
256,192,68218,1,0,0:0:0:0:
256,192,68385,1,8,0:0:0:0:
256,192,68718,1,0,0:0:0:0:
256,192,68885,1,8,0:0:0:0:
256,192,69052,1,0,0:0:0:0:
256,192,69136,1,0,0:0:0:0:
256,192,69219,1,0,0:0:0:0:
256,192,69385,1,8,0:0:0:0:
256,192,69552,1,0,0:0:0:0:
256,192,69636,1,0,0:0:0:0:
256,192,69719,1,0,0:0:0:0:
256,192,69885,1,8,0:0:0:0:
256,192,70219,1,0,0:0:0:0:
256,192,70385,1,8,0:0:0:0:
256,192,70552,1,0,0:0:0:0:
256,192,70885,1,12,0:0:0:0:
256,192,71052,1,12,0:0:0:0:
