osu file format v14

[General]
AudioFilename: audio.mp3
AudioLeadIn: 0
PreviewTime: 38803
Countdown: 0
SampleSet: Normal
StackLeniency: 0.7
Mode: 1
LetterboxInBreaks: 0
WidescreenStoryboard: 0

[Editor]
DistanceSpacing: 0.5
BeatDivisor: 4
GridSize: 32
TimelineZoom: 3.399999

[Metadata]
Title:Neppa feat. Butter
TitleUnicode:熱波 feat. Butter
Artist:tephe
ArtistUnicode:tephe
Creator:Haypzeh
Version:Inner Oni
Source:
Tags:Issuko ler1211 Rinze Erowdi japanese rock jrock j-rock j rock j-pop j pop jpop female vocals itovero saw hess featured artist fa
BeatmapID:3934941
BeatmapSetID:1908137

[Difficulty]
HPDrainRate:6
CircleSize:5
OverallDifficulty:6
ApproachRate:4
SliderMultiplier:1.4
SliderTickRate:1

[Events]
//Background and Video events
0,0,"bg.png",0,50
//Break Periods
//Storyboard Layer 0 (Background)
//Storyboard Layer 1 (Fail)
//Storyboard Layer 2 (Pass)
//Storyboard Layer 3 (Foreground)
//Storyboard Layer 4 (Overlay)
//Storyboard Sound Samples

[TimingPoints]
720,333.333333333333,4,1,0,70,1,0
720,-125,4,1,0,55,0,0
2053,333.333333333333,4,1,0,70,1,0
2053,-86.9565217391304,4,1,0,70,0,0
6886,-62.5,4,1,0,80,0,0
7386,-86.9565217391304,4,1,0,70,0,0
12219,-62.5,4,1,0,80,0,0
12719,-86.9565217391304,4,1,0,70,0,0
14886,-62.5,4,1,0,80,0,0
15219,-86.9565217391304,4,1,0,70,0,0
20219,-62.5,4,1,0,80,0,0
20552,-86.9565217391304,4,1,0,70,0,0
25552,-62.5,4,1,0,80,0,0
25886,-86.9565217391304,4,1,0,70,0,0
30886,-62.5,4,1,0,80,0,0
31219,-86.9565217391304,4,1,0,70,0,0
34219,-100,4,1,0,50,0,0
39052,-76.9230769230769,4,1,0,70,0,0
39386,-76.9230769230769,4,1,0,90,0,1
60386,-62.5,4,1,0,90,0,0
60719,-86.9565217391304,4,1,0,70,0,0
65552,-62.5,4,1,0,80,0,0
65886,-86.9565217391304,4,1,0,70,0,0
70886,-62.5,4,1,0,80,0,0
71219,-86.9565217391304,4,1,0,70,0,0

[HitObjects]
256,192,720,5,0,0:0:0:0:
256,192,1053,1,0,0:0:0:0:
256,192,1387,1,0,0:0:0:0:
256,192,1719,1,12,0:0:0:0:
256,192,2053,1,0,0:0:0:0:
256,192,2219,1,8,0:0:0:0:
256,192,2303,1,8,0:0:0:0:
256,192,2386,1,0,0:0:0:0:
256,192,2553,1,8,0:0:0:0:
256,192,2719,1,0,0:0:0:0:
256,192,2803,1,8,0:0:0:0:
256,192,2886,1,0,0:0:0:0:
256,192,2970,1,0,0:0:0:0:
256,192,3053,1,8,0:0:0:0:
256,192,3219,1,0,0:0:0:0:
256,192,3553,1,0,0:0:0:0:
256,192,3719,1,8,0:0:0:0:
256,192,3886,1,0,0:0:0:0:
256,192,3969,1,0,0:0:0:0:
256,192,4053,1,8,0:0:0:0:
256,192,4136,1,8,0:0:0:0:
256,192,4219,1,0,0:0:0:0:
256,192,4386,1,8,0:0:0:0:
256,192,4553,1,0,0:0:0:0:
256,192,4719,1,0,0:0:0:0:
256,192,4803,1,8,0:0:0:0:
256,192,4886,1,8,0:0:0:0:
256,192,4969,1,0,0:0:0:0:
256,192,5053,1,8,0:0:0:0:
256,192,5219,1,0,0:0:0:0:
256,192,5386,1,8,0:0:0:0:
256,192,5470,1,0,0:0:0:0:
256,192,5553,1,8,0:0:0:0:
256,192,5636,1,8,0:0:0:0:
256,192,5719,1,0,0:0:0:0:
256,192,5803,1,0,0:0:0:0:
256,192,5886,1,8,0:0:0:0:
256,192,6219,1,0,0:0:0:0:
256,192,6386,1,8,0:0:0:0:
256,192,6469,1,0,0:0:0:0:
256,192,6553,1,8,0:0:0:0:
256,192,6636,1,8,0:0:0:0:
256,192,6719,1,0,0:0:0:0:
256,192,6887,1,12,0:0:0:0:
256,192,7053,1,12,0:0:0:0:
256,192,7387,1,0,0:0:0:0:
256,192,7552,1,8,0:0:0:0:
256,192,7637,1,0,0:0:0:0:
256,192,7720,1,8,0:0:0:0:
256,192,7887,1,0,0:0:0:0:
256,192,8052,1,8,0:0:0:0:
256,192,8137,1,8,0:0:0:0:
256,192,8220,1,0,0:0:0:0:
256,192,8302,1,0,0:0:0:0:
256,192,8387,1,8,0:0:0:0:
256,192,8470,1,8,0:0:0:0:
256,192,8552,1,0,0:0:0:0:
256,192,8887,1,0,0:0:0:0:
256,192,9053,1,8,0:0:0:0:
256,192,9220,1,0,0:0:0:0:
256,192,9302,1,0,0:0:0:0:
256,192,9387,1,8,0:0:0:0:
256,192,9470,1,8,0:0:0:0:
256,192,9553,1,0,0:0:0:0:
256,192,9637,1,0,0:0:0:0:
256,192,9720,1,8,0:0:0:0:
256,192,9887,1,0,0:0:0:0:
256,192,10053,1,0,0:0:0:0:
256,192,10220,1,8,0:0:0:0:
256,192,10302,1,8,0:0:0:0:
256,192,10387,1,0,0:0:0:0:
256,192,10552,1,8,0:0:0:0:
256,192,10720,1,0,0:0:0:0:
256,192,10802,1,0,0:0:0:0:
256,192,10887,1,8,0:0:0:0:
256,192,10970,1,8,0:0:0:0:
256,192,11052,1,0,0:0:0:0:
256,192,11137,1,0,0:0:0:0:
256,192,11220,1,8,0:0:0:0:
256,192,11552,5,0,0:0:0:0:
256,192,11637,1,0,0:0:0:0:
256,192,11720,1,8,0:0:0:0:
256,192,11802,1,8,0:0:0:0:
256,192,11887,1,0,0:0:0:0:
256,192,11970,1,8,0:0:0:0:
256,192,12052,1,0,0:0:0:0:
256,192,12220,1,12,0:0:0:0:
256,192,12387,1,12,0:0:0:0:
256,192,12719,1,0,0:0:0:0:
256,192,12886,1,8,0:0:0:0:
256,192,13052,1,0,0:0:0:0:
256,192,13136,1,8,0:0:0:0:
256,192,13219,1,0,0:0:0:0:
256,192,13386,1,8,0:0:0:0:
256,192,13552,1,0,0:0:0:0:
256,192,13719,1,8,0:0:0:0:
256,192,13802,1,8,0:0:0:0:
256,192,13886,1,0,0:0:0:0:
256,192,13969,1,0,0:0:0:0:
256,192,14053,1,8,0:0:0:0:
256,192,14219,1,0,0:0:0:0:
256,192,14386,1,8,0:0:0:0:
256,192,14553,1,0,0:0:0:0:
256,192,14886,1,12,0:0:0:0:
256,192,15053,1,12,0:0:0:0:
256,192,15219,1,0,0:0:0:0:
256,192,15303,1,0,0:0:0:0:
256,192,15386,1,0,0:0:0:0:
256,192,15553,1,8,0:0:0:0:
256,192,15719,1,8,0:0:0:0:
256,192,15803,1,8,0:0:0:0:
256,192,15886,1,0,0:0:0:0:
256,192,15969,1,8,0:0:0:0:
256,192,16053,1,8,0:0:0:0:
256,192,16219,1,0,0:0:0:0:
256,192,16386,1,8,0:0:0:0:
256,192,16553,1,0,0:0:0:0:
256,192,16636,1,0,0:0:0:0:
256,192,16719,1,0,0:0:0:0:
256,192,16886,1,8,0:0:0:0:
256,192,17053,1,8,0:0:0:0:
256,192,17136,1,0,0:0:0:0:
256,192,17219,1,0,0:0:0:0:
256,192,17303,1,8,0:0:0:0:
256,192,17386,1,0,0:0:0:0:
256,192,17469,1,8,0:0:0:0:
256,192,17553,1,8,0:0:0:0:
256,192,17636,1,0,0:0:0:0:
256,192,17719,1,8,0:0:0:0:
256,192,17886,1,0,0:0:0:0:
256,192,18219,1,0,0:0:0:0:
256,192,18386,1,8,0:0:0:0:
256,192,18469,1,8,0:0:0:0:
256,192,18553,1,0,0:0:0:0:
256,192,18719,1,8,0:0:0:0:
256,192,18886,1,0,0:0:0:0:
256,192,19053,1,8,0:0:0:0:
256,192,19136,1,0,0:0:0:0:
256,192,19219,1,8,0:0:0:0:
256,192,19303,1,8,0:0:0:0:
256,192,19386,1,8,0:0:0:0:
256,192,19553,1,0,0:0:0:0:
256,192,19719,1,8,0:0:0:0:
256,192,19886,1,0,0:0:0:0:
256,192,20219,1,12,0:0:0:0:
256,192,20385,1,12,0:0:0:0:
256,192,20553,1,0,0:0:0:0:
256,192,20636,1,0,0:0:0:0:
256,192,20719,1,8,0:0:0:0:
256,192,20886,1,0,0:0:0:0:
256,192,21053,1,8,0:0:0:0:
256,192,21136,1,8,0:0:0:0:
256,192,21219,1,0,0:0:0:0:
256,192,21303,1,0,0:0:0:0:
256,192,21386,1,8,0:0:0:0:
256,192,21469,1,0,0:0:0:0:
256,192,21552,1,8,0:0:0:0:
256,192,21719,1,8,0:0:0:0:
256,192,21886,1,0,0:0:0:0:
256,192,21969,1,0,0:0:0:0:
256,192,22053,1,0,0:0:0:0:
256,192,22219,1,8,0:0:0:0:
256,192,22386,1,0,0:0:0:0:
256,192,22469,1,0,0:0:0:0:
256,192,22553,1,8,0:0:0:0:
256,192,22636,1,8,0:0:0:0:
256,192,22719,1,0,0:0:0:0:
256,192,22886,1,8,0:0:0:0:
256,192,22969,1,8,0:0:0:0:
256,192,23053,1,0,0:0:0:0:
256,192,23219,1,0,0:0:0:0:
256,192,23386,1,8,0:0:0:0:
256,192,23553,1,0,0:0:0:0:
256,192,23720,1,8,0:0:0:0:
256,192,23886,1,0,0:0:0:0:
256,192,23970,1,0,0:0:0:0:
256,192,24053,1,8,0:0:0:0:
256,192,24220,1,0,0:0:0:0:
256,192,24386,1,8,0:0:0:0:
256,192,24470,1,8,0:0:0:0:
256,192,24553,1,0,0:0:0:0:
256,192,24636,1,0,0:0:0:0:
256,192,24720,1,8,0:0:0:0:
256,192,24803,1,8,0:0:0:0:
256,192,24886,1,0,0:0:0:0:
256,192,25053,1,8,0:0:0:0:
256,192,25220,1,0,0:0:0:0:
256,192,25552,1,12,0:0:0:0:
256,192,25719,1,12,0:0:0:0:
256,192,25886,1,0,0:0:0:0:
256,192,25969,1,0,0:0:0:0:
256,192,26052,1,0,0:0:0:0:
256,192,26219,1,8,0:0:0:0:
256,192,26386,1,8,0:0:0:0:
256,192,26469,1,8,0:0:0:0:
256,192,26552,1,0,0:0:0:0:
256,192,26636,1,0,0:0:0:0:
256,192,26719,1,8,0:0:0:0:
256,192,26885,1,0,0:0:0:0:
256,192,27052,1,8,0:0:0:0:
256,192,27219,1,0,0:0:0:0:
256,192,27302,1,0,0:0:0:0:
256,192,27385,1,8,0:0:0:0:
256,192,27468,1,8,0:0:0:0:
256,192,27552,1,0,0:0:0:0:
256,192,27719,1,8,0:0:0:0:
256,192,27885,1,0,0:0:0:0:
256,192,27969,1,0,0:0:0:0:
256,192,28052,1,8,0:0:0:0:
256,192,28135,1,8,0:0:0:0:
256,192,28219,1,0,0:0:0:0:
256,192,28302,1,8,0:0:0:0:
256,192,28385,1,0,0:0:0:0:
256,192,28468,1,0,0:0:0:0:
256,192,28552,1,8,0:0:0:0:
256,192,28718,1,8,0:0:0:0:
256,192,28885,1,0,0:0:0:0:
256,192,29052,1,8,0:0:0:0:
256,192,29135,1,0,0:0:0:0:
256,192,29219,1,0,0:0:0:0:
256,192,29302,1,0,0:0:0:0:
256,192,29385,1,8,0:0:0:0:
256,192,29468,1,8,0:0:0:0:
256,192,29552,1,0,0:0:0:0:
256,192,29719,1,8,0:0:0:0:
256,192,29802,1,0,0:0:0:0:
256,192,29885,1,8,0:0:0:0:
256,192,29969,1,8,0:0:0:0:
256,192,30052,1,0,0:0:0:0:
256,192,30219,1,0,0:0:0:0:
256,192,30385,1,8,0:0:0:0:
256,192,30552,1,0,0:0:0:0:
256,192,30886,1,12,0:0:0:0:
256,192,31052,1,12,0:0:0:0:
256,192,31219,1,0,0:0:0:0:
256,192,31302,1,0,0:0:0:0:
256,192,31386,1,8,0:0:0:0:
256,192,31552,1,0,0:0:0:0:
256,192,31718,1,8,0:0:0:0:
256,192,31885,1,8,0:0:0:0:
256,192,31968,1,0,0:0:0:0:
256,192,32052,1,8,0:0:0:0:
256,192,32135,1,8,0:0:0:0:
256,192,32218,1,0,0:0:0:0:
256,192,32302,1,0,0:0:0:0:
256,192,32385,1,8,0:0:0:0:
256,192,32552,1,0,0:0:0:0:
256,192,32635,1,0,0:0:0:0:
256,192,32718,1,0,0:0:0:0:
256,192,32885,1,8,0:0:0:0:
256,192,33052,1,0,0:0:0:0:
256,192,33218,1,8,0:0:0:0:
256,192,33302,1,8,0:0:0:0:
256,192,33385,1,0,0:0:0:0:
256,192,33468,1,8,0:0:0:0:
256,192,33552,1,0,0:0:0:0:
256,192,33718,1,8,0:0:0:0:
256,192,33885,1,0,0:0:0:0:
256,192,34219,1,8,0:0:0:0:
256,192,34385,1,0,0:0:0:0:
256,192,34552,1,0,0:0:0:0:
256,192,34718,1,8,0:0:0:0:
256,192,34885,1,0,0:0:0:0:
256,192,35052,1,8,0:0:0:0:
256,192,35218,1,0,0:0:0:0:
256,192,35385,1,0,0:0:0:0:
256,192,35552,1,8,0:0:0:0:
256,192,35885,1,0,0:0:0:0:
256,192,36218,1,0,0:0:0:0:
256,192,36385,1,0,0:0:0:0:
256,192,36552,1,8,0:0:0:0:
256,192,36885,1,0,0:0:0:0:
256,192,37052,1,0,0:0:0:0:
256,192,37218,1,8,0:0:0:0:
256,192,37385,1,8,0:0:0:0:
256,192,37552,1,0,0:0:0:0:
256,192,37718,1,0,0:0:0:0:
256,192,37885,1,8,0:0:0:0:
256,192,38218,1,4,0:0:0:0:
256,192,38552,1,12,0:0:0:0:
256,192,39052,1,0,0:0:0:0:
256,192,39136,1,0,0:0:0:0:
256,192,39219,1,8,0:0:0:0:
256,192,39302,1,8,0:0:0:0:
256,192,39386,1,4,0:0:0:0:
256,192,39552,1,0,0:0:0:0:
256,192,39718,1,12,0:0:0:0:
256,192,39885,1,0,0:0:0:0:
256,192,40052,1,4,0:0:0:0:
256,192,40218,1,0,0:0:0:0:
256,192,40385,1,12,0:0:0:0:
256,192,40552,1,0,0:0:0:0:
256,192,40635,1,0,0:0:0:0:
256,192,40718,1,8,0:0:0:0:
256,192,40802,1,0,0:0:0:0:
256,192,40885,1,0,0:0:0:0:
256,192,40968,1,0,0:0:0:0:
256,192,41052,1,8,0:0:0:0:
256,192,41218,1,0,0:0:0:0:
256,192,41302,1,8,0:0:0:0:
256,192,41385,1,8,0:0:0:0:
256,192,41552,1,0,0:0:0:0:
256,192,41718,1,8,0:0:0:0:
256,192,42052,1,0,0:0:0:0:
256,192,42218,1,8,0:0:0:0:
256,192,42302,1,0,0:0:0:0:
256,192,42385,1,8,0:0:0:0:
256,192,42552,1,0,0:0:0:0:
256,192,42718,1,0,0:0:0:0:
256,192,42802,1,0,0:0:0:0:
256,192,42885,1,8,0:0:0:0:
256,192,42968,1,8,0:0:0:0:
256,192,43052,1,0,0:0:0:0:
256,192,43219,1,12,0:0:0:0:
256,192,43386,1,0,0:0:0:0:
256,192,43552,1,12,0:0:0:0:
256,192,43719,1,4,0:0:0:0:
256,192,43886,1,12,0:0:0:0:
256,192,44218,1,8,0:0:0:0:
256,192,44385,1,8,0:0:0:0:
256,192,44469,1,0,0:0:0:0:
256,192,44552,1,8,0:0:0:0:
256,192,44635,1,8,0:0:0:0:
256,192,44718,1,4,0:0:0:0:
256,192,44885,1,0,0:0:0:0:
256,192,45051,1,12,0:0:0:0:
256,192,45218,1,0,0:0:0:0:
256,192,45385,1,4,0:0:0:0:
256,192,45551,1,0,0:0:0:0:
256,192,45718,1,12,0:0:0:0:
256,192,45885,1,4,0:0:0:0:
256,192,46052,1,8,0:0:0:0:
256,192,46135,1,8,0:0:0:0:
256,192,46218,1,0,0:0:0:0:
256,192,46302,1,0,0:0:0:0:
256,192,46385,1,8,0:0:0:0:
256,192,46552,1,12,0:0:0:0:
256,192,46885,1,0,0:0:0:0:
256,192,47052,1,8,0:0:0:0:
256,192,47135,1,0,0:0:0:0:
256,192,47218,1,0,0:0:0:0:
256,192,47302,1,0,0:0:0:0:
256,192,47385,1,8,0:0:0:0:
256,192,47552,1,0,0:0:0:0:
256,192,47718,1,8,0:0:0:0:
256,192,47885,1,0,0:0:0:0:
256,192,48052,1,8,0:0:0:0:
256,192,48135,1,8,0:0:0:0:
256,192,48218,1,0,0:0:0:0:
256,192,48302,1,0,0:0:0:0:
256,192,48385,1,8,0:0:0:0:
256,192,48468,1,0,0:0:0:0:
256,192,48552,1,8,0:0:0:0:
256,192,48635,1,8,0:0:0:0:
256,192,48718,1,0,0:0:0:0:
256,192,48885,1,0,0:0:0:0:
256,192,49052,1,8,0:0:0:0:
256,192,49135,1,0,0:0:0:0:
256,192,49218,1,8,0:0:0:0:
256,192,49302,1,8,0:0:0:0:
256,192,49385,1,0,0:0:0:0:
256,192,49552,1,8,0:0:0:0:
256,192,49718,1,8,0:0:0:0:
256,192,49802,1,8,0:0:0:0:
256,192,49885,1,8,0:0:0:0:
256,192,49968,1,8,0:0:0:0:
256,192,50051,1,4,0:0:0:0:
256,192,50218,1,0,0:0:0:0:
256,192,50386,1,12,0:0:0:0:
256,192,50551,1,0,0:0:0:0:
256,192,50718,1,4,0:0:0:0:
256,192,50886,1,0,0:0:0:0:
256,192,51051,1,12,0:0:0:0:
256,192,51218,1,0,0:0:0:0:
256,192,51301,1,0,0:0:0:0:
256,192,51386,1,8,0:0:0:0:
256,192,51468,1,0,0:0:0:0:
256,192,51551,1,0,0:0:0:0:
256,192,51636,1,0,0:0:0:0:
256,192,51718,1,8,0:0:0:0:
256,192,51885,1,0,0:0:0:0:
256,192,51968,1,8,0:0:0:0:
256,192,52052,1,0,0:0:0:0:
256,192,52218,1,0,0:0:0:0:
256,192,52386,1,8,0:0:0:0:
256,192,52718,1,0,0:0:0:0:
256,192,52886,1,8,0:0:0:0:
256,192,52968,1,0,0:0:0:0:
256,192,53051,1,8,0:0:0:0:
256,192,53218,1,0,0:0:0:0:
256,192,53386,1,8,0:0:0:0:
256,192,53468,1,8,0:0:0:0:
256,192,53551,1,0,0:0:0:0:
256,192,53635,1,0,0:0:0:0:
256,192,53718,1,8,0:0:0:0:
256,192,53885,1,12,0:0:0:0:
256,192,54052,1,0,0:0:0:0:
256,192,54218,1,4,0:0:0:0:
256,192,54385,1,4,0:0:0:0:
256,192,54552,1,12,0:0:0:0:
256,192,54885,1,8,0:0:0:0:
256,192,55051,1,0,0:0:0:0:
256,192,55135,1,0,0:0:0:0:
256,192,55218,1,8,0:0:0:0:
256,192,55302,1,8,0:0:0:0:
256,192,55386,1,4,0:0:0:0:
256,192,55551,1,0,0:0:0:0:
256,192,55719,1,12,0:0:0:0:
256,192,55886,1,0,0:0:0:0:
256,192,56051,1,4,0:0:0:0:
256,192,56219,1,0,0:0:0:0:
256,192,56386,1,12,0:0:0:0:
256,192,56551,1,12,0:0:0:0:
256,192,56886,1,8,0:0:0:0:
256,192,56968,1,8,0:0:0:0:
256,192,57051,1,0,0:0:0:0:
256,192,57218,1,12,0:0:0:0:
256,192,57552,1,0,0:0:0:0:
256,192,57718,1,8,0:0:0:0:
256,192,57802,1,8,0:0:0:0:
256,192,57885,1,0,0:0:0:0:
256,192,57968,1,0,0:0:0:0:
256,192,58052,1,8,0:0:0:0:
256,192,58218,1,8,0:0:0:0:
256,192,58385,1,0,0:0:0:0:
256,192,58552,1,0,0:0:0:0:
256,192,58635,1,0,0:0:0:0:
256,192,58718,1,8,0:0:0:0:
256,192,58802,1,0,0:0:0:0:
256,192,58885,1,8,0:0:0:0:
256,192,58968,1,8,0:0:0:0:
256,192,59052,1,0,0:0:0:0:
256,192,59218,1,8,0:0:0:0:
256,192,59302,1,0,0:0:0:0:
256,192,59385,1,0,0:0:0:0:
256,192,59552,1,8,0:0:0:0:
256,192,59635,1,0,0:0:0:0:
256,192,59718,1,8,0:0:0:0:
256,192,59802,1,8,0:0:0:0:
256,192,59885,1,0,0:0:0:0:
256,192,60052,1,8,0:0:0:0:
256,192,60386,1,4,0:0:0:0:
256,192,60719,1,0,0:0:0:0:
256,192,60886,1,8,0:0:0:0:
256,192,60968,1,8,0:0:0:0:
256,192,61051,1,0,0:0:0:0:
256,192,61218,1,8,0:0:0:0:
256,192,61386,1,0,0:0:0:0:
256,192,61468,1,8,0:0:0:0:
256,192,61551,1,0,0:0:0:0:
256,192,61635,1,0,0:0:0:0:
256,192,61718,1,8,0:0:0:0:
256,192,61886,1,0,0:0:0:0:
256,192,62218,1,0,0:0:0:0:
256,192,62386,1,8,0:0:0:0:
256,192,62551,1,0,0:0:0:0:
256,192,62636,1,0,0:0:0:0:
256,192,62718,1,8,0:0:0:0:
256,192,62801,1,8,0:0:0:0:
256,192,62886,1,0,0:0:0:0:
256,192,63051,1,8,0:0:0:0:
256,192,63218,1,0,0:0:0:0:
256,192,63386,1,0,0:0:0:0:
256,192,63468,1,8,0:0:0:0:
256,192,63551,1,8,0:0:0:0:
256,192,63636,1,0,0:0:0:0:
256,192,63718,1,8,0:0:0:0:
256,192,63886,1,0,0:0:0:0:
256,192,64051,1,8,0:0:0:0:
256,192,64135,1,0,0:0:0:0:
256,192,64218,1,8,0:0:0:0:
256,192,64301,1,8,0:0:0:0:
256,192,64386,1,0,0:0:0:0:
256,192,64468,1,0,0:0:0:0:
256,192,64551,1,8,0:0:0:0:
256,192,64886,1,0,0:0:0:0:
256,192,65051,1,8,0:0:0:0:
256,192,65136,1,0,0:0:0:0:
256,192,65218,1,8,0:0:0:0:
256,192,65301,1,8,0:0:0:0:
256,192,65386,1,0,0:0:0:0:
256,192,65552,1,12,0:0:0:0:
256,192,65718,1,12,0:0:0:0:
256,192,66052,1,0,0:0:0:0:
256,192,66219,1,8,0:0:0:0:
256,192,66302,1,0,0:0:0:0:
256,192,66385,1,8,0:0:0:0:
256,192,66552,1,0,0:0:0:0:
256,192,66719,1,8,0:0:0:0:
256,192,66802,1,8,0:0:0:0:
256,192,66885,1,0,0:0:0:0:
256,192,66969,1,0,0:0:0:0:
256,192,67052,1,8,0:0:0:0:
256,192,67135,1,8,0:0:0:0:
256,192,67219,1,0,0:0:0:0:
256,192,67552,1,0,0:0:0:0:
256,192,67718,1,8,0:0:0:0:
256,192,67885,1,0,0:0:0:0:
256,192,67969,1,0,0:0:0:0:
256,192,68052,1,8,0:0:0:0:
256,192,68135,1,8,0:0:0:0:
256,192,68218,1,0,0:0:0:0:
256,192,68302,1,0,0:0:0:0:
256,192,68385,1,8,0:0:0:0:
256,192,68552,1,0,0:0:0:0:
256,192,68718,1,0,0:0:0:0:
256,192,68885,1,8,0:0:0:0:
256,192,68969,1,8,0:0:0:0:
256,192,69052,1,0,0:0:0:0:
256,192,69219,1,8,0:0:0:0:
256,192,69385,1,0,0:0:0:0:
256,192,69469,1,0,0:0:0:0:
256,192,69552,1,8,0:0:0:0:
256,192,69635,1,8,0:0:0:0:
256,192,69719,1,0,0:0:0:0:
256,192,69802,1,0,0:0:0:0:
256,192,69885,1,8,0:0:0:0:
256,192,70219,1,0,0:0:0:0:
256,192,70302,1,0,0:0:0:0:
256,192,70385,1,8,0:0:0:0:
256,192,70469,1,8,0:0:0:0:
256,192,70552,1,0,0:0:0:0:
256,192,70635,1,8,0:0:0:0:
256,192,70719,1,0,0:0:0:0:
256,192,70886,1,12,0:0:0:0:
256,192,71052,1,12,0:0:0:0:
