osu file format v14

[General]
AudioFilename: audio.mp3
AudioLeadIn: 0
PreviewTime: 38803
Countdown: 0
SampleSet: Normal
StackLeniency: 0.7
Mode: 1
LetterboxInBreaks: 0
WidescreenStoryboard: 1

[Editor]
DistanceSpacing: 0.5
BeatDivisor: 4
GridSize: 32
TimelineZoom: 3.399999

[Metadata]
Title:Neppa feat. Butter
TitleUnicode:熱波 feat. Butter
Artist:tephe
ArtistUnicode:tephe
Creator:Haypzeh
Version:Erowdi's Kantan
Source:
Tags:Issuko ler1211 Rinze Erowdi japanese rock jrock j-rock j rock j-pop j pop jpop female vocals itovero saw hess featured artist fa
BeatmapID:4050029
BeatmapSetID:1908137

[Difficulty]
HPDrainRate:9
CircleSize:5
OverallDifficulty:3
ApproachRate:5
SliderMultiplier:1.4
SliderTickRate:1

[Events]
//Background and Video events
0,0,"bg.png",0,50
//Break Periods
//Storyboard Layer 0 (Background)
//Storyboard Layer 1 (Fail)
//Storyboard Layer 2 (Pass)
//Storyboard Layer 3 (Foreground)
//Storyboard Layer 4 (Overlay)
//Storyboard Sound Samples

[TimingPoints]
720,333.333333333333,4,1,0,50,1,0
720,-100,4,1,0,50,0,0
2053,333.333333333333,4,1,0,80,1,0
2053,-100,4,1,0,80,0,0
6886,-100,4,1,0,80,0,0
7386,-100,4,1,0,70,0,0
12219,-100,4,1,0,80,0,0
12719,-100,4,1,0,70,0,0
14886,-100,4,1,0,70,0,0
15219,-100,4,1,0,70,0,0
20219,-100,4,1,0,70,0,0
20552,-100,4,1,0,70,0,0
25553,-100,4,1,0,70,0,0
25886,-100,4,1,0,70,0,0
30886,-100,4,1,0,70,0,0
31219,-100,4,1,0,70,0,0
34219,-100,4,1,0,70,0,0
39386,-100,4,1,0,90,0,1
60386,-100,4,1,0,40,0,0
60719,-100,4,1,0,80,0,0
65553,-100,4,1,0,80,0,0
65886,-100,4,1,0,80,0,0
70886,-100,4,1,0,75,0,0
71219,-100,4,1,0,75,0,0

[HitObjects]
256,192,2053,5,4,0:0:0:0:
256,192,2719,1,0,0:0:0:0:
256,192,3219,1,8,0:0:0:0:
256,192,3719,1,0,0:0:0:0:
256,192,4052,1,8,0:0:0:0:
256,192,4719,1,0,0:0:0:0:
256,192,5053,1,0,0:0:0:0:
256,192,5386,1,8,0:0:0:0:
256,192,5886,1,0,0:0:0:0:
256,192,6386,1,8,0:0:0:0:
256,192,7386,1,12,0:0:0:0:
256,192,8053,1,0,0:0:0:0:
256,192,8553,1,8,0:0:0:0:
256,192,9053,1,0,0:0:0:0:
256,192,9386,1,8,0:0:0:0:
161,85,10052,1,8,0:0:0:0:
42,140,10386,1,0,0:0:0:0:
256,192,10719,1,0,0:0:0:0:
256,192,11219,1,8,0:0:0:0:
256,192,11719,1,8,0:0:0:0:
256,192,12719,1,4,0:0:0:0:
256,192,13386,1,8,0:0:0:0:
256,192,13719,1,8,0:0:0:0:
256,192,14053,1,0,0:0:0:0:
256,192,15386,1,8,0:0:0:0:
256,192,15719,1,0,0:0:0:0:
256,192,16053,1,8,0:0:0:0:
256,192,16553,1,0,0:0:0:0:
256,192,17053,1,0,0:0:0:0:
256,192,17386,1,8,0:0:0:0:
256,192,18053,1,0,0:0:0:0:
256,192,18719,1,8,0:0:0:0:
256,192,19053,1,0,0:0:0:0:
256,192,19386,1,8,0:0:0:0:
256,192,20719,1,0,0:0:0:0:
256,192,21053,1,0,0:0:0:0:
256,192,21386,1,8,0:0:0:0:
256,192,21886,1,0,0:0:0:0:
256,192,22219,1,8,0:0:0:0:
256,192,22553,1,0,0:0:0:0:
256,192,23386,1,12,0:0:0:0:
256,192,24053,1,0,0:0:0:0:
256,192,24386,1,8,0:0:0:0:
256,192,24719,1,0,0:0:0:0:
256,192,26053,1,8,0:0:0:0:
256,192,26386,1,8,0:0:0:0:
256,192,26720,1,0,0:0:0:0:
256,192,27219,1,0,0:0:0:0:
256,192,27552,1,8,0:0:0:0:
256,192,27886,1,0,0:0:0:0:
256,192,28719,1,8,0:0:0:0:
256,192,29053,1,8,0:0:0:0:
256,192,29386,1,0,0:0:0:0:
256,192,30053,1,8,0:0:0:0:
256,192,31386,1,8,0:0:0:0:
256,192,31719,1,8,0:0:0:0:
256,192,32053,1,0,0:0:0:0:
256,192,32553,1,0,0:0:0:0:
256,192,32886,1,8,0:0:0:0:
256,192,33386,1,0,0:0:0:0:
256,192,33719,1,0,0:0:0:0:
256,192,34053,1,8,0:0:0:0:
256,192,34553,1,0,0:0:0:0:
256,192,35053,1,0,0:0:0:0:
256,192,35386,1,8,0:0:0:0:
256,192,35886,1,8,0:0:0:0:
256,192,36386,1,0,0:0:0:0:
256,192,37053,1,0,0:0:0:0:
256,192,37386,1,0,0:0:0:0:
256,192,37719,1,8,0:0:0:0:
256,192,38219,1,8,0:0:0:0:
256,192,38553,1,8,0:0:0:0:
256,192,39386,5,12,0:0:0:0:
256,192,39719,1,0,0:0:0:0:
256,192,40053,1,8,0:0:0:0:
256,192,40553,1,8,0:0:0:0:
256,192,41053,1,0,0:0:0:0:
256,192,41386,1,8,0:0:0:0:
256,192,42386,1,8,0:0:0:0:
256,192,42719,1,0,0:0:0:0:
256,192,43219,1,0,0:0:0:0:
256,192,43886,1,8,0:0:0:0:
256,192,44719,1,12,0:0:0:0:
256,192,45053,1,8,0:0:0:0:
256,192,45386,1,0,0:0:0:0:
256,192,45886,1,4,0:0:0:0:
256,192,46553,1,4,0:0:0:0:
256,192,47053,1,0,0:0:0:0:
256,192,47386,1,8,0:0:0:0:
256,192,48053,1,8,0:0:0:0:
256,192,48553,1,0,0:0:0:0:
256,192,49053,1,8,0:0:0:0:
256,192,49386,1,0,0:0:0:0:
256,192,50053,1,12,0:0:0:0:
256,192,50386,1,8,0:0:0:0:
256,192,50719,1,0,0:0:0:0:
256,192,51219,1,8,0:0:0:0:
256,192,51719,1,0,0:0:0:0:
256,192,52053,1,8,0:0:0:0:
256,192,53052,1,8,0:0:0:0:
256,192,53386,1,8,0:0:0:0:
256,192,53886,1,0,0:0:0:0:
256,192,54553,1,8,0:0:0:0:
256,192,55386,1,4,0:0:0:0:
256,192,55719,1,0,0:0:0:0:
256,192,56053,1,8,0:0:0:0:
256,192,56553,5,12,0:0:0:0:
256,192,57219,1,4,0:0:0:0:
256,192,57719,1,0,0:0:0:0:
256,192,58053,1,12,0:0:0:0:
256,192,58719,1,0,0:0:0:0:
256,192,59219,1,8,0:0:0:0:
256,192,60386,1,8,0:0:0:0:
256,192,60719,1,4,0:0:0:0:
256,192,61386,1,8,0:0:0:0:
256,192,61886,1,0,0:0:0:0:
256,192,62386,1,8,0:0:0:0:
256,192,62720,1,0,0:0:0:0:
256,192,63386,1,0,0:0:0:0:
256,192,63720,1,8,0:0:0:0:
256,192,64053,1,0,0:0:0:0:
256,192,64552,1,0,0:0:0:0:
256,192,65053,1,8,0:0:0:0:
256,192,66053,1,12,0:0:0:0:
256,192,66720,1,0,0:0:0:0:
256,192,67220,1,8,0:0:0:0:
256,192,67720,1,0,0:0:0:0:
256,192,68053,1,8,0:0:0:0:
256,192,68720,1,0,0:0:0:0:
256,192,69053,1,8,0:0:0:0:
256,192,69386,1,0,0:0:0:0:
256,192,69886,1,8,0:0:0:0:
256,192,70386,1,8,0:0:0:0:
256,192,71053,1,8,0:0:0:0:
