osu file format v14

[General]
AudioFilename: audio_1.15.mp3
AudioLeadIn: 0
PreviewTime: 50960
Countdown: 0
SampleSet: Normal
StackLeniency: 0.7
Mode: 3
LetterboxInBreaks: 0
SpecialStyle: 0
WidescreenStoryboard: 0

[Editor]
DistanceSpacing: 0.8
BeatDivisor: 4
GridSize: 32
TimelineZoom: 1.4

[Metadata]
Title:Catch Us
TitleUnicode:Catch Us
Artist:Tenshi Hinanawi
ArtistUnicode:Tenshi Hinanawi
Creator:Azubeur
Version:Another SpeedUp
Source:
Tags:
BeatmapID:1936721
BeatmapSetID:927270

[Difficulty]
HPDrainRate:7
CircleSize:4
OverallDifficulty:7
ApproachRate:5
SliderMultiplier:1.4
SliderTickRate:1

[Events]
//Background and Video events
0,0,"wallhaven-258713.jpg",0,0
//Break Periods
//Storyboard Layer 0 (Background)
//Storyboard Layer 1 (Fail)
//Storyboard Layer 2 (Pass)
//Storyboard Layer 3 (Foreground)
//Storyboard Sound Samples

[TimingPoints]
1069,326.086956521739,4,1,0,0,1,0

[HitObjects]
64,192,1069,5,0,0:0:0:0:
448,192,1069,1,0,0:0:0:0:
192,192,1232,1,0,0:0:0:0:
448,192,1313,1,0,0:0:0:0:
320,192,1395,1,0,0:0:0:0:
64,192,1395,1,0,0:0:0:0:
448,192,1558,1,0,0:0:0:0:
64,192,1640,1,0,0:0:0:0:
320,192,1721,1,0,0:0:0:0:
192,192,1721,1,0,0:0:0:0:
320,192,1884,1,0,0:0:0:0:
64,192,1966,1,0,0:0:0:0:
192,192,2047,1,0,0:0:0:0:
448,192,2047,1,0,0:0:0:0:
64,192,2210,1,0,0:0:0:0:
192,192,2292,1,0,0:0:0:0:
448,192,2373,1,0,0:0:0:0:
320,192,2373,1,0,0:0:0:0:
320,192,2536,1,0,0:0:0:0:
448,192,2618,1,0,0:0:0:0:
192,192,2700,1,0,0:0:0:0:
64,192,2700,1,0,0:0:0:0:
192,192,2862,1,0,0:0:0:0:
448,192,2944,1,0,0:0:0:0:
64,192,3026,1,0,0:0:0:0:
320,192,3026,1,0,0:0:0:0:
320,192,3188,1,0,0:0:0:0:
64,192,3270,1,0,0:0:0:0:
448,192,3352,1,0,0:0:0:0:
192,192,3352,1,0,0:0:0:0:
64,192,3514,1,0,0:0:0:0:
448,192,3596,1,0,0:0:0:0:
192,192,3678,1,0,0:0:0:0:
320,192,3678,1,0,0:0:0:0:
192,192,3840,1,0,0:0:0:0:
448,192,3922,1,0,0:0:0:0:
320,192,4004,1,0,0:0:0:0:
64,192,4004,1,0,0:0:0:0:
448,192,4166,1,0,0:0:0:0:
320,192,4248,1,0,0:0:0:0:
192,192,4330,1,0,0:0:0:0:
64,192,4330,1,0,0:0:0:0:
64,192,4493,1,0,0:0:0:0:
320,192,4574,1,0,0:0:0:0:
192,192,4656,1,0,0:0:0:0:
448,192,4656,1,0,0:0:0:0:
320,192,4819,1,0,0:0:0:0:
448,192,4900,1,0,0:0:0:0:
192,192,4982,1,0,0:0:0:0:
64,192,4982,1,0,0:0:0:0:
192,192,5145,1,0,0:0:0:0:
448,192,5226,1,0,0:0:0:0:
64,192,5308,1,0,0:0:0:0:
320,192,5308,1,0,0:0:0:0:
448,192,5471,1,0,0:0:0:0:
320,192,5553,1,0,0:0:0:0:
64,192,5634,1,0,0:0:0:0:
192,192,5634,1,0,0:0:0:0:
448,192,5715,1,0,0:0:0:0:
64,192,5797,1,0,0:0:0:0:
192,192,5879,1,0,0:0:0:0:
320,192,5960,1,0,0:0:0:0:
448,192,5960,1,0,0:0:0:0:
192,192,6041,1,0,0:0:0:0:
64,192,6041,1,0,0:0:0:0:
320,192,6123,1,0,0:0:0:0:
448,192,6123,1,0,0:0:0:0:
192,192,6205,1,0,0:0:0:0:
64,192,6286,1,0,0:0:0:0:
320,192,6286,1,0,0:0:0:0:
448,192,6286,1,0,0:0:0:0:
192,192,6367,1,0,0:0:0:0:
320,192,6449,1,0,0:0:0:0:
448,192,6531,1,0,0:0:0:0:
320,192,6613,1,0,0:0:0:0:
64,192,6613,1,0,0:0:0:0:
192,192,6693,1,0,0:0:0:0:
448,192,6775,1,0,0:0:0:0:
64,192,6857,1,0,0:0:0:0:
192,192,6939,1,0,0:0:0:0:
320,192,6939,1,0,0:0:0:0:
448,192,7020,1,0,0:0:0:0:
64,192,7101,1,0,0:0:0:0:
320,192,7183,1,0,0:0:0:0:
192,192,7265,1,0,0:0:0:0:
448,192,7265,1,0,0:0:0:0:
64,192,7346,1,0,0:0:0:0:
320,192,7427,1,0,0:0:0:0:
448,192,7509,1,0,0:0:0:0:
192,192,7591,1,0,0:0:0:0:
64,192,7591,1,0,0:0:0:0:
320,192,7672,1,0,0:0:0:0:
192,192,7753,1,0,0:0:0:0:
448,192,7835,1,0,0:0:0:0:
320,192,7917,1,0,0:0:0:0:
64,192,7917,1,0,0:0:0:0:
192,192,7998,1,0,0:0:0:0:
448,192,8080,1,0,0:0:0:0:
64,192,8161,1,0,0:0:0:0:
192,192,8243,1,0,0:0:0:0:
320,192,8243,1,0,0:0:0:0:
448,192,8324,1,0,0:0:0:0:
320,192,8406,1,0,0:0:0:0:
64,192,8487,1,0,0:0:0:0:
192,192,8569,1,0,0:0:0:0:
320,192,8569,1,0,0:0:0:0:
64,192,8650,1,0,0:0:0:0:
320,192,8732,1,0,0:0:0:0:
448,192,8813,1,0,0:0:0:0:
192,192,8895,1,0,0:0:0:0:
64,192,8895,1,0,0:0:0:0:
448,192,8976,1,0,0:0:0:0:
192,192,9058,1,0,0:0:0:0:
320,192,9140,1,0,0:0:0:0:
64,192,9221,1,0,0:0:0:0:
448,192,9221,1,0,0:0:0:0:
192,192,9302,1,0,0:0:0:0:
64,192,9384,1,0,0:0:0:0:
320,192,9384,1,0,0:0:0:0:
448,192,9466,1,0,0:0:0:0:
320,192,9547,1,0,0:0:0:0:
192,192,9547,1,0,0:0:0:0:
64,192,9628,1,0,0:0:0:0:
448,192,9710,1,0,0:0:0:0:
192,192,9710,1,0,0:0:0:0:
320,192,9792,1,0,0:0:0:0:
192,192,9873,1,0,0:0:0:0:
64,192,9873,1,0,0:0:0:0:
448,192,9954,1,0,0:0:0:0:
192,192,10036,1,0,0:0:0:0:
320,192,10036,1,0,0:0:0:0:
64,192,10118,1,0,0:0:0:0:
320,192,10200,128,0,11178:0:0:0:0:
448,192,10200,128,0,11178:0:0:0:0:
64,192,11178,1,0,0:0:0:0:
192,192,11178,1,0,0:0:0:0:
320,192,11259,1,0,0:0:0:0:
448,192,11259,1,0,0:0:0:0:
192,192,11340,1,0,0:0:0:0:
64,192,11340,1,0,0:0:0:0:
320,192,11422,1,0,0:0:0:0:
448,192,11422,1,0,0:0:0:0:
192,192,11504,1,0,0:0:0:0:
64,192,11504,1,0,0:0:0:0:
320,192,11585,1,0,0:0:0:0:
448,192,11585,1,0,0:0:0:0:
448,192,11666,1,0,0:0:0:0:
192,192,11666,1,0,0:0:0:0:
64,192,11748,1,0,0:0:0:0:
320,192,11830,1,0,0:0:0:0:
192,192,11830,1,0,0:0:0:0:
320,192,11911,1,0,0:0:0:0:
448,192,11911,1,0,0:0:0:0:
192,192,11993,1,0,0:0:0:0:
64,192,12074,1,0,0:0:0:0:
448,192,12074,1,0,0:0:0:0:
320,192,12156,1,0,0:0:0:0:
64,192,12156,1,0,0:0:0:0:
448,192,12237,1,0,0:0:0:0:
320,192,12319,1,0,0:0:0:0:
192,192,12319,1,0,0:0:0:0:
192,192,12400,1,0,0:0:0:0:
64,192,12400,1,0,0:0:0:0:
320,192,12482,1,0,0:0:0:0:
448,192,12563,1,0,0:0:0:0:
192,192,12563,1,0,0:0:0:0:
448,192,12645,1,0,0:0:0:0:
64,192,12645,1,0,0:0:0:0:
192,192,12726,1,0,0:0:0:0:
320,192,12808,1,0,0:0:0:0:
448,192,12808,1,0,0:0:0:0:
64,192,12889,1,0,0:0:0:0:
192,192,12889,1,0,0:0:0:0:
64,192,12971,1,0,0:0:0:0:
448,192,12971,1,0,0:0:0:0:
320,192,13053,1,0,0:0:0:0:
192,192,13134,1,0,0:0:0:0:
448,192,13134,1,0,0:0:0:0:
192,192,13215,1,0,0:0:0:0:
64,192,13215,1,0,0:0:0:0:
320,192,13297,1,0,0:0:0:0:
64,192,13379,1,0,0:0:0:0:
448,192,13379,1,0,0:0:0:0:
64,192,13460,1,0,0:0:0:0:
320,192,13460,1,0,0:0:0:0:
192,192,13541,1,0,0:0:0:0:
448,192,13623,1,0,0:0:0:0:
320,192,13623,1,0,0:0:0:0:
448,192,13705,1,0,0:0:0:0:
64,192,13705,1,0,0:0:0:0:
320,192,13786,1,0,0:0:0:0:
64,192,13867,1,0,0:0:0:0:
192,192,13867,1,0,0:0:0:0:
448,192,13949,1,0,0:0:0:0:
192,192,13949,1,0,0:0:0:0:
448,192,14031,1,0,0:0:0:0:
320,192,14031,1,0,0:0:0:0:
64,192,14113,1,0,0:0:0:0:
192,192,14113,1,0,0:0:0:0:
448,192,14193,1,0,0:0:0:0:
320,192,14193,1,0,0:0:0:0:
64,192,14275,1,0,0:0:0:0:
320,192,14275,1,0,0:0:0:0:
192,192,14357,1,0,0:0:0:0:
448,192,14439,1,0,0:0:0:0:
64,192,14439,1,0,0:0:0:0:
64,192,14520,1,0,0:0:0:0:
320,192,14520,1,0,0:0:0:0:
448,192,14601,1,0,0:0:0:0:
192,192,14683,1,0,0:0:0:0:
320,192,14683,1,0,0:0:0:0:
192,192,14765,1,0,0:0:0:0:
64,192,14765,1,0,0:0:0:0:
448,192,14846,1,0,0:0:0:0:
64,192,14927,1,0,0:0:0:0:
320,192,14927,1,0,0:0:0:0:
64,192,15009,1,0,0:0:0:0:
448,192,15009,1,0,0:0:0:0:
192,192,15091,1,0,0:0:0:0:
320,192,15172,1,0,0:0:0:0:
64,192,15172,1,0,0:0:0:0:
320,192,15253,1,0,0:0:0:0:
448,192,15253,1,0,0:0:0:0:
192,192,15335,1,0,0:0:0:0:
448,192,15417,1,0,0:0:0:0:
64,192,15417,1,0,0:0:0:0:
320,192,15471,1,0,0:0:0:0:
192,192,15526,1,0,0:0:0:0:
448,192,15580,1,0,0:0:0:0:
64,192,15634,1,0,0:0:0:0:
320,192,15688,1,0,0:0:0:0:
448,192,15743,1,0,0:0:0:0:
192,192,15797,1,0,0:0:0:0:
320,192,15852,1,0,0:0:0:0:
64,192,15906,1,0,0:0:0:0:
448,192,15960,1,0,0:0:0:0:
320,192,16014,1,0,0:0:0:0:
192,192,16069,1,0,0:0:0:0:
64,192,16069,1,0,0:0:0:0:
64,192,16150,1,0,0:0:0:0:
448,192,16150,1,0,0:0:0:0:
192,192,16232,1,0,0:0:0:0:
320,192,16232,1,0,0:0:0:0:
192,192,16313,1,0,0:0:0:0:
64,192,16313,1,0,0:0:0:0:
320,192,16395,1,0,0:0:0:0:
448,192,16395,1,0,0:0:0:0:
192,192,16476,1,0,0:0:0:0:
64,192,16476,1,0,0:0:0:0:
320,192,16558,1,0,0:0:0:0:
448,192,16558,1,0,0:0:0:0:
192,192,16640,1,0,0:0:0:0:
64,192,16640,1,0,0:0:0:0:
320,192,16721,1,0,0:0:0:0:
448,192,16721,1,0,0:0:0:0:
192,192,16802,1,0,0:0:0:0:
64,192,16802,1,0,0:0:0:0:
64,192,16884,1,0,0:0:0:0:
320,192,16884,1,0,0:0:0:0:
448,192,16966,1,0,0:0:0:0:
192,192,17047,1,0,0:0:0:0:
320,192,17047,1,0,0:0:0:0:
192,192,17128,1,0,0:0:0:0:
64,192,17128,1,0,0:0:0:0:
320,192,17210,1,0,0:0:0:0:
448,192,17292,1,0,0:0:0:0:
64,192,17292,1,0,0:0:0:0:
192,192,17373,1,0,0:0:0:0:
448,192,17373,1,0,0:0:0:0:
64,192,17454,1,0,0:0:0:0:
192,192,17536,1,0,0:0:0:0:
320,192,17536,1,0,0:0:0:0:
320,192,17618,1,0,0:0:0:0:
448,192,17618,1,0,0:0:0:0:
192,192,17700,1,0,0:0:0:0:
64,192,17780,1,0,0:0:0:0:
320,192,17780,1,0,0:0:0:0:
64,192,17862,1,0,0:0:0:0:
448,192,17862,1,0,0:0:0:0:
320,192,17944,1,0,0:0:0:0:
192,192,18026,1,0,0:0:0:0:
64,192,18026,1,0,0:0:0:0:
448,192,18106,1,0,0:0:0:0:
320,192,18106,1,0,0:0:0:0:
448,192,18188,1,0,0:0:0:0:
64,192,18188,1,0,0:0:0:0:
192,192,18270,1,0,0:0:0:0:
320,192,18352,1,0,0:0:0:0:
64,192,18352,1,0,0:0:0:0:
320,192,18433,1,0,0:0:0:0:
448,192,18433,1,0,0:0:0:0:
192,192,18514,1,0,0:0:0:0:
448,192,18596,1,0,0:0:0:0:
64,192,18596,1,0,0:0:0:0:
448,192,18678,1,0,0:0:0:0:
192,192,18678,1,0,0:0:0:0:
320,192,18759,1,0,0:0:0:0:
64,192,18840,1,0,0:0:0:0:
192,192,18840,1,0,0:0:0:0:
64,192,18922,1,0,0:0:0:0:
448,192,18922,1,0,0:0:0:0:
192,192,19004,1,0,0:0:0:0:
448,192,19085,1,0,0:0:0:0:
320,192,19085,1,0,0:0:0:0:
64,192,19166,1,0,0:0:0:0:
320,192,19166,1,0,0:0:0:0:
64,192,19248,1,0,0:0:0:0:
192,192,19248,1,0,0:0:0:0:
448,192,19330,1,0,0:0:0:0:
320,192,19330,1,0,0:0:0:0:
64,192,19411,1,0,0:0:0:0:
192,192,19411,1,0,0:0:0:0:
448,192,19493,1,0,0:0:0:0:
192,192,19493,1,0,0:0:0:0:
320,192,19574,1,0,0:0:0:0:
64,192,19656,1,0,0:0:0:0:
448,192,19656,1,0,0:0:0:0:
448,192,19737,1,0,0:0:0:0:
192,192,19737,1,0,0:0:0:0:
64,192,19819,1,0,0:0:0:0:
320,192,19900,1,0,0:0:0:0:
192,192,19900,1,0,0:0:0:0:
320,192,19982,1,0,0:0:0:0:
448,192,19982,1,0,0:0:0:0:
64,192,20063,1,0,0:0:0:0:
448,192,20145,1,0,0:0:0:0:
192,192,20145,1,0,0:0:0:0:
448,192,20226,1,0,0:0:0:0:
64,192,20226,1,0,0:0:0:0:
320,192,20308,1,0,0:0:0:0:
192,192,20389,1,0,0:0:0:0:
448,192,20389,1,0,0:0:0:0:
192,192,20471,1,0,0:0:0:0:
64,192,20471,1,0,0:0:0:0:
320,192,20553,1,0,0:0:0:0:
64,192,20634,1,0,0:0:0:0:
448,192,20634,1,0,0:0:0:0:
192,192,20688,1,0,0:0:0:0:
320,192,20743,1,0,0:0:0:0:
64,192,20797,1,0,0:0:0:0:
448,192,20852,1,0,0:0:0:0:
192,192,20906,1,0,0:0:0:0:
64,192,20960,1,0,0:0:0:0:
320,192,21014,1,0,0:0:0:0:
192,192,21069,1,0,0:0:0:0:
448,192,21123,1,0,0:0:0:0:
64,192,21178,1,0,0:0:0:0:
192,192,21232,1,0,0:0:0:0:
320,192,21286,1,0,0:0:0:0:
448,192,21286,1,0,0:0:0:0:
448,192,21367,1,0,0:0:0:0:
64,192,21367,1,0,0:0:0:0:
320,192,21449,1,0,0:0:0:0:
192,192,21449,1,0,0:0:0:0:
320,192,21531,1,0,0:0:0:0:
448,192,21531,1,0,0:0:0:0:
192,192,21613,1,0,0:0:0:0:
64,192,21613,1,0,0:0:0:0:
320,192,21693,1,0,0:0:0:0:
448,192,21693,1,0,0:0:0:0:
192,192,21775,1,0,0:0:0:0:
64,192,21775,1,0,0:0:0:0:
320,192,21857,1,0,0:0:0:0:
448,192,21939,1,0,0:0:0:0:
192,192,21939,1,0,0:0:0:0:
64,192,21939,1,0,0:0:0:0:
320,192,22101,1,0,0:0:0:0:
320,192,22265,1,0,0:0:0:0:
192,192,22265,1,0,0:0:0:0:
64,192,22427,1,0,0:0:0:0:
320,192,22591,1,0,0:0:0:0:
64,192,22591,1,0,0:0:0:0:
448,192,22753,128,0,22917:0:0:0:0:
320,192,22917,128,0,23080:0:0:0:0:
192,192,22917,1,0,0:0:0:0:
64,192,23080,128,0,23243:0:0:0:0:
320,192,23243,128,0,23406:0:0:0:0:
448,192,23243,1,0,0:0:0:0:
192,192,23406,1,0,0:0:0:0:
64,192,23569,1,0,0:0:0:0:
320,192,23569,1,0,0:0:0:0:
192,192,23732,1,0,0:0:0:0:
64,192,23895,1,0,0:0:0:0:
192,192,23895,1,0,0:0:0:0:
320,192,24058,128,0,24221:0:0:0:0:
448,192,24221,128,0,24384:0:0:0:0:
64,192,24221,1,0,0:0:0:0:
192,192,24384,128,0,24547:0:0:0:0:
64,192,24547,128,0,24710:0:0:0:0:
448,192,24547,1,0,0:0:0:0:
192,192,24710,1,0,0:0:0:0:
64,192,24873,1,0,0:0:0:0:
320,192,24873,1,0,0:0:0:0:
448,192,25036,1,0,0:0:0:0:
64,192,25200,1,0,0:0:0:0:
448,192,25200,1,0,0:0:0:0:
320,192,25362,128,0,25526:0:0:0:0:
448,192,25526,128,0,25688:0:0:0:0:
64,192,25526,1,0,0:0:0:0:
192,192,25688,128,0,25852:0:0:0:0:
320,192,25852,128,0,26014:0:0:0:0:
448,192,25852,1,0,0:0:0:0:
192,192,26014,128,0,26178:0:0:0:0:
448,192,26178,128,0,26340:0:0:0:0:
64,192,26178,1,0,0:0:0:0:
64,192,26340,128,0,26504:0:0:0:0:
192,192,26504,1,0,0:0:0:0:
320,192,26504,1,0,0:0:0:0:
448,192,26666,1,0,0:0:0:0:
448,192,26830,1,0,0:0:0:0:
192,192,26830,1,0,0:0:0:0:
64,192,26993,1,0,0:0:0:0:
192,192,27156,128,0,27319:0:0:0:0:
320,192,27156,1,0,0:0:0:0:
64,192,27319,1,0,0:0:0:0:
64,192,27482,1,0,0:0:0:0:
320,192,27482,1,0,0:0:0:0:
448,192,27645,128,0,27808:0:0:0:0:
192,192,27808,1,0,0:0:0:0:
64,192,27808,1,0,0:0:0:0:
320,192,27971,128,0,28134:0:0:0:0:
64,192,28134,128,0,28297:0:0:0:0:
448,192,28134,1,0,0:0:0:0:
320,192,28297,128,0,28460:0:0:0:0:
192,192,28460,128,0,28786:0:0:0:0:
64,192,28460,1,0,0:0:0:0:
448,192,28623,1,0,0:0:0:0:
448,192,28786,1,0,0:0:0:0:
64,192,28786,1,0,0:0:0:0:
320,192,28949,128,0,29113:0:0:0:0:
64,192,29113,1,0,0:0:0:0:
192,192,29113,1,0,0:0:0:0:
448,192,29275,128,0,29439:0:0:0:0:
64,192,29439,128,0,29765:0:0:0:0:
320,192,29439,1,0,0:0:0:0:
448,192,29601,1,0,0:0:0:0:
192,192,29765,1,0,0:0:0:0:
448,192,29846,1,0,0:0:0:0:
192,192,29927,1,0,0:0:0:0:
320,192,30009,1,0,0:0:0:0:
64,192,30091,1,0,0:0:0:0:
448,192,30091,1,0,0:0:0:0:
320,192,30172,1,0,0:0:0:0:
192,192,30253,1,0,0:0:0:0:
64,192,30335,1,0,0:0:0:0:
192,192,30417,1,0,0:0:0:0:
448,192,30417,1,0,0:0:0:0:
320,192,30498,1,0,0:0:0:0:
448,192,30580,1,0,0:0:0:0:
192,192,30661,1,0,0:0:0:0:
448,192,30743,1,0,0:0:0:0:
64,192,30743,1,0,0:0:0:0:
192,192,30824,1,0,0:0:0:0:
320,192,30906,1,0,0:0:0:0:
448,192,30987,1,0,0:0:0:0:
64,192,31069,1,0,0:0:0:0:
192,192,31069,1,0,0:0:0:0:
320,192,31150,1,0,0:0:0:0:
448,192,31232,1,0,0:0:0:0:
64,192,31232,1,0,0:0:0:0:
192,192,31313,1,0,0:0:0:0:
320,192,31395,1,0,0:0:0:0:
448,192,31395,1,0,0:0:0:0:
64,192,31476,1,0,0:0:0:0:
320,192,31558,1,0,0:0:0:0:
192,192,31558,1,0,0:0:0:0:
448,192,31640,1,0,0:0:0:0:
192,192,31721,1,0,0:0:0:0:
64,192,31721,1,0,0:0:0:0:
320,192,31802,1,0,0:0:0:0:
448,192,31884,1,0,0:0:0:0:
64,192,31884,1,0,0:0:0:0:
192,192,31966,1,0,0:0:0:0:
320,192,32047,1,0,0:0:0:0:
448,192,32047,1,0,0:0:0:0:
192,192,32128,1,0,0:0:0:0:
64,192,32128,1,0,0:0:0:0:
320,192,32210,1,0,0:0:0:0:
448,192,32210,1,0,0:0:0:0:
192,192,32292,1,0,0:0:0:0:
64,192,32373,1,0,0:0:0:0:
320,192,32373,1,0,0:0:0:0:
448,192,32373,1,0,0:0:0:0:
192,192,32536,1,0,0:0:0:0:
192,192,32700,1,0,0:0:0:0:
448,192,32700,1,0,0:0:0:0:
64,192,32862,1,0,0:0:0:0:
64,192,33026,1,0,0:0:0:0:
448,192,33026,1,0,0:0:0:0:
320,192,33188,128,0,33352:0:0:0:0:
192,192,33352,1,0,0:0:0:0:
64,192,33352,128,0,33514:0:0:0:0:
448,192,33514,128,0,33678:0:0:0:0:
320,192,33678,1,0,0:0:0:0:
192,192,33678,128,0,33840:0:0:0:0:
64,192,33840,1,0,0:0:0:0:
64,192,34004,1,0,0:0:0:0:
192,192,34004,1,0,0:0:0:0:
320,192,34166,1,0,0:0:0:0:
320,192,34330,1,0,0:0:0:0:
64,192,34330,1,0,0:0:0:0:
64,192,34493,128,0,34656:0:0:0:0:
320,192,34656,1,0,0:0:0:0:
448,192,34656,128,0,34819:0:0:0:0:
192,192,34819,128,0,34982:0:0:0:0:
64,192,34982,1,0,0:0:0:0:
320,192,34982,128,0,35145:0:0:0:0:
448,192,35145,1,0,0:0:0:0:
448,192,35308,1,0,0:0:0:0:
64,192,35308,1,0,0:0:0:0:
320,192,35389,1,0,0:0:0:0:
192,192,35471,1,0,0:0:0:0:
64,192,35471,1,0,0:0:0:0:
448,192,35553,1,0,0:0:0:0:
320,192,35634,1,0,0:0:0:0:
192,192,35634,1,0,0:0:0:0:
64,192,35715,1,0,0:0:0:0:
448,192,35797,1,0,0:0:0:0:
192,192,35879,1,0,0:0:0:0:
320,192,35960,1,0,0:0:0:0:
64,192,35960,1,0,0:0:0:0:
448,192,36041,1,0,0:0:0:0:
192,192,36123,1,0,0:0:0:0:
64,192,36205,1,0,0:0:0:0:
320,192,36286,1,0,0:0:0:0:
448,192,36286,128,0,36449:0:0:0:0:
64,192,36449,128,0,36613:0:0:0:0:
448,192,36613,1,0,0:0:0:0:
320,192,36613,128,0,36775:0:0:0:0:
192,192,36775,128,0,36939:0:0:0:0:
64,192,36939,1,0,0:0:0:0:
448,192,36939,128,0,37101:0:0:0:0:
192,192,37101,1,0,0:0:0:0:
192,192,37265,1,0,0:0:0:0:
320,192,37265,1,0,0:0:0:0:
64,192,37427,1,0,0:0:0:0:
64,192,37591,1,0,0:0:0:0:
320,192,37591,1,0,0:0:0:0:
448,192,37591,1,0,0:0:0:0:
192,192,37753,1,0,0:0:0:0:
192,192,37917,1,0,0:0:0:0:
448,192,37917,1,0,0:0:0:0:
320,192,38080,1,0,0:0:0:0:
320,192,38243,1,0,0:0:0:0:
64,192,38243,1,0,0:0:0:0:
64,192,38406,1,0,0:0:0:0:
64,192,38569,1,0,0:0:0:0:
448,192,38569,128,0,38732:0:0:0:0:
320,192,38732,128,0,38895:0:0:0:0:
192,192,38895,1,0,0:0:0:0:
64,192,38895,128,0,39058:0:0:0:0:
320,192,39058,128,0,39221:0:0:0:0:
64,192,39221,1,0,0:0:0:0:
448,192,39221,1,0,0:0:0:0:
192,192,39384,1,0,0:0:0:0:
192,192,39547,1,0,0:0:0:0:
448,192,39547,1,0,0:0:0:0:
320,192,39710,1,0,0:0:0:0:
320,192,39873,1,0,0:0:0:0:
64,192,39873,1,0,0:0:0:0:
448,192,40036,1,0,0:0:0:0:
448,192,40200,1,0,0:0:0:0:
64,192,40200,1,0,0:0:0:0:
192,192,40280,1,0,0:0:0:0:
320,192,40362,1,0,0:0:0:0:
64,192,40444,1,0,0:0:0:0:
448,192,40526,1,0,0:0:0:0:
192,192,40526,1,0,0:0:0:0:
320,192,40606,1,0,0:0:0:0:
64,192,40688,1,0,0:0:0:0:
320,192,40770,1,0,0:0:0:0:
192,192,40852,1,0,0:0:0:0:
64,192,40852,1,0,0:0:0:0:
448,192,40933,1,0,0:0:0:0:
320,192,41014,1,0,0:0:0:0:
64,192,41096,1,0,0:0:0:0:
448,192,41178,1,0,0:0:0:0:
320,192,41178,1,0,0:0:0:0:
192,192,41259,1,0,0:0:0:0:
320,192,41340,1,0,0:0:0:0:
192,192,41422,1,0,0:0:0:0:
64,192,41422,1,0,0:0:0:0:
448,192,41504,1,0,0:0:0:0:
320,192,41504,128,0,41830:0:0:0:0:
64,192,41830,1,0,0:0:0:0:
192,192,41830,1,0,0:0:0:0:
64,192,41911,1,0,0:0:0:0:
448,192,41911,1,0,0:0:0:0:
192,192,41993,1,0,0:0:0:0:
320,192,41993,1,0,0:0:0:0:
320,192,42074,1,0,0:0:0:0:
64,192,42074,1,0,0:0:0:0:
192,192,42156,1,0,0:0:0:0:
448,192,42156,1,0,0:0:0:0:
192,192,42319,1,0,0:0:0:0:
320,192,42319,1,0,0:0:0:0:
64,192,42400,1,0,0:0:0:0:
320,192,42482,1,0,0:0:0:0:
448,192,42482,1,0,0:0:0:0:
192,192,42563,1,0,0:0:0:0:
64,192,42563,1,0,0:0:0:0:
320,192,42645,1,0,0:0:0:0:
448,192,42645,1,0,0:0:0:0:
192,192,42726,1,0,0:0:0:0:
64,192,42726,1,0,0:0:0:0:
320,192,42808,1,0,0:0:0:0:
448,192,42808,1,0,0:0:0:0:
192,192,42889,1,0,0:0:0:0:
64,192,42971,1,0,0:0:0:0:
320,192,43053,1,0,0:0:0:0:
448,192,43134,128,0,43460:0:0:0:0:
192,192,43215,1,0,0:0:0:0:
64,192,43297,1,0,0:0:0:0:
320,192,43379,1,0,0:0:0:0:
64,192,43460,128,0,43786:0:0:0:0:
320,192,43541,1,0,0:0:0:0:
448,192,43623,1,0,0:0:0:0:
192,192,43705,1,0,0:0:0:0:
320,192,43786,128,0,43949:0:0:0:0:
448,192,43867,1,0,0:0:0:0:
192,192,43949,128,0,44113:0:0:0:0:
64,192,44031,1,0,0:0:0:0:
320,192,44113,128,0,44275:0:0:0:0:
448,192,44193,1,0,0:0:0:0:
192,192,44275,1,0,0:0:0:0:
64,192,44357,1,0,0:0:0:0:
448,192,44439,128,0,44765:0:0:0:0:
192,192,44520,1,0,0:0:0:0:
320,192,44601,1,0,0:0:0:0:
64,192,44683,1,0,0:0:0:0:
192,192,44765,128,0,45091:0:0:0:0:
320,192,44846,1,0,0:0:0:0:
448,192,44927,1,0,0:0:0:0:
64,192,45009,1,0,0:0:0:0:
320,192,45091,128,0,45253:0:0:0:0:
448,192,45172,1,0,0:0:0:0:
192,192,45253,128,0,45417:0:0:0:0:
64,192,45335,1,0,0:0:0:0:
320,192,45417,128,0,45580:0:0:0:0:
448,192,45498,1,0,0:0:0:0:
192,192,45580,1,0,0:0:0:0:
64,192,45661,1,0,0:0:0:0:
448,192,45743,1,0,0:0:0:0:
320,192,45743,1,0,0:0:0:0:
192,192,45824,1,0,0:0:0:0:
320,192,45906,1,0,0:0:0:0:
64,192,45906,1,0,0:0:0:0:
192,192,45987,1,0,0:0:0:0:
448,192,46069,1,0,0:0:0:0:
320,192,46150,1,0,0:0:0:0:
64,192,46232,1,0,0:0:0:0:
192,192,46232,1,0,0:0:0:0:
448,192,46313,1,0,0:0:0:0:
320,192,46395,1,0,0:0:0:0:
192,192,46395,1,0,0:0:0:0:
64,192,46476,1,0,0:0:0:0:
320,192,46558,1,0,0:0:0:0:
192,192,46640,1,0,0:0:0:0:
448,192,46721,128,0,47536:0:0:0:0:
320,192,46721,1,0,0:0:0:0:
64,192,46802,1,0,0:0:0:0:
192,192,46884,1,0,0:0:0:0:
64,192,46966,1,0,0:0:0:0:
192,192,47047,1,0,0:0:0:0:
320,192,47128,1,0,0:0:0:0:
192,192,47210,1,0,0:0:0:0:
64,192,47292,1,0,0:0:0:0:
192,192,47373,1,0,0:0:0:0:
64,192,47454,1,0,0:0:0:0:
320,192,47536,1,0,0:0:0:0:
192,192,47618,1,0,0:0:0:0:
64,192,47700,1,0,0:0:0:0:
448,192,47700,1,0,0:0:0:0:
192,192,47780,1,0,0:0:0:0:
448,192,47862,1,0,0:0:0:0:
320,192,47944,1,0,0:0:0:0:
64,192,48026,1,0,0:0:0:0:
192,192,48026,1,0,0:0:0:0:
448,192,48106,1,0,0:0:0:0:
64,192,48188,1,0,0:0:0:0:
192,192,48270,1,0,0:0:0:0:
448,192,48352,128,0,48514:0:0:0:0:
64,192,48433,1,0,0:0:0:0:
192,192,48514,128,0,48678:0:0:0:0:
320,192,48596,1,0,0:0:0:0:
448,192,48678,1,0,0:0:0:0:
64,192,48759,1,0,0:0:0:0:
320,192,48840,128,0,49004:0:0:0:0:
192,192,48922,1,0,0:0:0:0:
448,192,49004,128,0,49166:0:0:0:0:
64,192,49085,1,0,0:0:0:0:
192,192,49166,1,0,0:0:0:0:
320,192,49248,1,0,0:0:0:0:
64,192,49330,128,0,49493:0:0:0:0:
448,192,49411,1,0,0:0:0:0:
192,192,49493,1,0,0:0:0:0:
64,192,49574,1,0,0:0:0:0:
320,192,49656,128,0,49819:0:0:0:0:
448,192,49737,1,0,0:0:0:0:
192,192,49819,128,0,49982:0:0:0:0:
64,192,49900,1,0,0:0:0:0:
320,192,50063,1,0,0:0:0:0:
448,192,50145,128,0,50308:0:0:0:0:
64,192,50226,1,0,0:0:0:0:
192,192,50308,128,0,50471:0:0:0:0:
320,192,50389,1,0,0:0:0:0:
448,192,50471,1,0,0:0:0:0:
64,192,50553,1,0,0:0:0:0:
320,192,50634,128,0,50797:0:0:0:0:
192,192,50715,1,0,0:0:0:0:
448,192,50879,1,0,0:0:0:0:
64,192,50960,128,0,51123:0:0:0:0:
192,192,51041,1,0,0:0:0:0:
320,192,51123,128,0,51286:0:0:0:0:
448,192,51205,1,0,0:0:0:0:
64,192,51367,1,0,0:0:0:0:
192,192,51449,128,0,51613:0:0:0:0:
448,192,51531,1,0,0:0:0:0:
320,192,51613,128,0,51775:0:0:0:0:
64,192,51693,1,0,0:0:0:0:
448,192,51775,1,0,0:0:0:0:
192,192,51857,1,0,0:0:0:0:
448,192,51939,1,0,0:0:0:0:
320,192,51939,1,0,0:0:0:0:
64,192,51939,1,0,0:0:0:0:
192,192,52020,1,0,0:0:0:0:
320,192,52101,1,0,0:0:0:0:
64,192,52183,1,0,0:0:0:0:
448,192,52265,1,0,0:0:0:0:
192,192,52265,1,0,0:0:0:0:
320,192,52346,1,0,0:0:0:0:
64,192,52427,1,0,0:0:0:0:
448,192,52427,1,0,0:0:0:0:
192,192,52427,1,0,0:0:0:0:
320,192,52509,1,0,0:0:0:0:
64,192,52591,1,0,0:0:0:0:
192,192,52672,1,0,0:0:0:0:
320,192,52753,1,0,0:0:0:0:
448,192,52753,1,0,0:0:0:0:
64,192,52835,1,0,0:0:0:0:
192,192,52917,1,0,0:0:0:0:
320,192,52917,1,0,0:0:0:0:
448,192,52917,1,0,0:0:0:0:
64,192,52998,1,0,0:0:0:0:
192,192,53080,1,0,0:0:0:0:
448,192,53161,1,0,0:0:0:0:
320,192,53243,1,0,0:0:0:0:
64,192,53243,1,0,0:0:0:0:
192,192,53324,1,0,0:0:0:0:
448,192,53406,1,0,0:0:0:0:
320,192,53406,1,0,0:0:0:0:
64,192,53487,1,0,0:0:0:0:
192,192,53569,1,0,0:0:0:0:
448,192,53569,1,0,0:0:0:0:
320,192,53569,1,0,0:0:0:0:
64,192,53650,1,0,0:0:0:0:
192,192,53732,1,0,0:0:0:0:
320,192,53732,1,0,0:0:0:0:
448,192,53813,1,0,0:0:0:0:
192,192,53895,1,0,0:0:0:0:
64,192,53895,1,0,0:0:0:0:
320,192,53895,1,0,0:0:0:0:
448,192,53976,1,0,0:0:0:0:
320,192,54058,1,0,0:0:0:0:
64,192,54058,1,0,0:0:0:0:
192,192,54140,1,0,0:0:0:0:
64,192,54221,1,0,0:0:0:0:
320,192,54221,1,0,0:0:0:0:
448,192,54221,1,0,0:0:0:0:
192,192,54302,1,0,0:0:0:0:
448,192,54384,1,0,0:0:0:0:
64,192,54384,1,0,0:0:0:0:
320,192,54466,1,0,0:0:0:0:
192,192,54547,1,0,0:0:0:0:
64,192,54547,1,0,0:0:0:0:
448,192,54547,1,0,0:0:0:0:
320,192,54628,1,0,0:0:0:0:
192,192,54710,1,0,0:0:0:0:
448,192,54710,1,0,0:0:0:0:
64,192,54792,1,0,0:0:0:0:
192,192,54873,1,0,0:0:0:0:
320,192,54873,1,0,0:0:0:0:
448,192,54873,1,0,0:0:0:0:
64,192,54954,1,0,0:0:0:0:
320,192,55036,1,0,0:0:0:0:
192,192,55036,1,0,0:0:0:0:
448,192,55118,1,0,0:0:0:0:
320,192,55200,1,0,0:0:0:0:
192,192,55200,1,0,0:0:0:0:
64,192,55200,1,0,0:0:0:0:
448,192,55280,1,0,0:0:0:0:
320,192,55362,1,0,0:0:0:0:
64,192,55362,1,0,0:0:0:0:
192,192,55444,1,0,0:0:0:0:
320,192,55526,1,0,0:0:0:0:
64,192,55526,1,0,0:0:0:0:
448,192,55526,1,0,0:0:0:0:
192,192,55606,1,0,0:0:0:0:
448,192,55688,1,0,0:0:0:0:
64,192,55688,1,0,0:0:0:0:
320,192,55770,1,0,0:0:0:0:
64,192,55852,1,0,0:0:0:0:
192,192,55852,1,0,0:0:0:0:
448,192,55852,1,0,0:0:0:0:
320,192,55933,1,0,0:0:0:0:
192,192,56014,1,0,0:0:0:0:
448,192,56014,1,0,0:0:0:0:
64,192,56096,1,0,0:0:0:0:
192,192,56178,1,0,0:0:0:0:
320,192,56178,1,0,0:0:0:0:
448,192,56178,1,0,0:0:0:0:
64,192,56259,1,0,0:0:0:0:
192,192,56340,1,0,0:0:0:0:
320,192,56340,1,0,0:0:0:0:
448,192,56422,1,0,0:0:0:0:
320,192,56504,1,0,0:0:0:0:
192,192,56504,1,0,0:0:0:0:
64,192,56504,1,0,0:0:0:0:
448,192,56585,1,0,0:0:0:0:
320,192,56666,1,0,0:0:0:0:
64,192,56666,1,0,0:0:0:0:
192,192,56748,1,0,0:0:0:0:
64,192,56830,1,0,0:0:0:0:
320,192,56830,1,0,0:0:0:0:
448,192,56830,1,0,0:0:0:0:
192,192,56911,1,0,0:0:0:0:
448,192,56993,1,0,0:0:0:0:
64,192,56993,1,0,0:0:0:0:
320,192,57074,1,0,0:0:0:0:
192,192,57156,1,0,0:0:0:0:
64,192,57156,1,0,0:0:0:0:
448,192,57156,1,0,0:0:0:0:
320,192,57237,1,0,0:0:0:0:
192,192,57319,1,0,0:0:0:0:
448,192,57319,1,0,0:0:0:0:
64,192,57400,1,0,0:0:0:0:
192,192,57482,1,0,0:0:0:0:
320,192,57482,1,0,0:0:0:0:
448,192,57482,1,0,0:0:0:0:
64,192,57563,1,0,0:0:0:0:
320,192,57645,1,0,0:0:0:0:
192,192,57645,1,0,0:0:0:0:
448,192,57726,1,0,0:0:0:0:
320,192,57808,1,0,0:0:0:0:
192,192,57808,1,0,0:0:0:0:
64,192,57808,1,0,0:0:0:0:
448,192,57889,1,0,0:0:0:0:
192,192,57971,1,0,0:0:0:0:
64,192,57971,1,0,0:0:0:0:
64,192,58134,1,0,0:0:0:0:
448,192,58134,1,0,0:0:0:0:
320,192,58215,1,0,0:0:0:0:
192,192,58215,1,0,0:0:0:0:
64,192,58297,1,0,0:0:0:0:
448,192,58297,1,0,0:0:0:0:
320,192,58379,1,0,0:0:0:0:
192,192,58379,1,0,0:0:0:0:
64,192,58460,1,0,0:0:0:0:
448,192,58460,1,0,0:0:0:0:
320,192,58541,1,0,0:0:0:0:
192,192,58623,1,0,0:0:0:0:
320,192,58705,1,0,0:0:0:0:
64,192,58786,1,0,0:0:0:0:
448,192,58786,1,0,0:0:0:0:
192,192,58867,1,0,0:0:0:0:
320,192,58949,1,0,0:0:0:0:
64,192,59031,1,0,0:0:0:0:
192,192,59113,1,0,0:0:0:0:
448,192,59113,1,0,0:0:0:0:
320,192,59193,1,0,0:0:0:0:
64,192,59275,1,0,0:0:0:0:
192,192,59357,1,0,0:0:0:0:
320,192,59439,1,0,0:0:0:0:
448,192,59439,1,0,0:0:0:0:
64,192,59520,1,0,0:0:0:0:
448,192,59601,1,0,0:0:0:0:
320,192,59683,1,0,0:0:0:0:
192,192,59765,1,0,0:0:0:0:
64,192,59765,1,0,0:0:0:0:
448,192,59846,1,0,0:0:0:0:
192,192,59927,1,0,0:0:0:0:
320,192,60009,1,0,0:0:0:0:
64,192,60091,1,0,0:0:0:0:
448,192,60091,1,0,0:0:0:0:
192,192,60172,1,0,0:0:0:0:
64,192,60253,1,0,0:0:0:0:
320,192,60335,1,0,0:0:0:0:
192,192,60417,1,0,0:0:0:0:
448,192,60417,1,0,0:0:0:0:
64,192,60498,1,0,0:0:0:0:
320,192,60580,1,0,0:0:0:0:
192,192,60661,1,0,0:0:0:0:
448,192,60743,1,0,0:0:0:0:
320,192,60743,1,0,0:0:0:0:
64,192,60824,1,0,0:0:0:0:
192,192,60906,1,0,0:0:0:0:
448,192,60987,1,0,0:0:0:0:
320,192,61069,1,0,0:0:0:0:
192,192,61069,1,0,0:0:0:0:
64,192,61150,1,0,0:0:0:0:
448,192,61232,1,0,0:0:0:0:
192,192,61313,1,0,0:0:0:0:
320,192,61395,1,0,0:0:0:0:
64,192,61395,1,0,0:0:0:0:
448,192,61476,1,0,0:0:0:0:
192,192,61558,1,0,0:0:0:0:
320,192,61640,1,0,0:0:0:0:
64,192,61721,1,0,0:0:0:0:
192,192,61721,1,0,0:0:0:0:
448,192,61802,1,0,0:0:0:0:
64,192,61884,1,0,0:0:0:0:
320,192,61966,1,0,0:0:0:0:
192,192,62047,1,0,0:0:0:0:
448,192,62047,1,0,0:0:0:0:
64,192,62128,1,0,0:0:0:0:
320,192,62210,1,0,0:0:0:0:
192,192,62292,1,0,0:0:0:0:
448,192,62373,1,0,0:0:0:0:
64,192,62373,1,0,0:0:0:0:
320,192,62454,1,0,0:0:0:0:
192,192,62536,1,0,0:0:0:0:
320,192,62618,1,0,0:0:0:0:
192,192,62700,1,0,0:0:0:0:
64,192,62700,1,0,0:0:0:0:
448,192,62700,1,0,0:0:0:0:
320,192,62862,1,0,0:0:0:0:
192,192,62862,1,0,0:0:0:0:
64,192,63026,1,0,0:0:0:0:
320,192,63026,1,0,0:0:0:0:
192,192,63026,1,0,0:0:0:0:
64,192,63188,1,0,0:0:0:0:
448,192,63188,1,0,0:0:0:0:
320,192,63352,1,0,0:0:0:0:
448,192,63352,1,0,0:0:0:0:
192,192,63433,1,0,0:0:0:0:
64,192,63433,1,0,0:0:0:0:
320,192,63514,1,0,0:0:0:0:
448,192,63514,1,0,0:0:0:0:
192,192,63596,1,0,0:0:0:0:
64,192,63596,1,0,0:0:0:0:
320,192,63678,1,0,0:0:0:0:
448,192,63678,1,0,0:0:0:0:
64,192,63759,1,0,0:0:0:0:
192,192,63840,1,0,0:0:0:0:
320,192,63840,1,0,0:0:0:0:
448,192,63922,1,0,0:0:0:0:
320,192,64004,1,0,0:0:0:0:
64,192,64004,1,0,0:0:0:0:
192,192,64004,1,0,0:0:0:0:
448,192,64085,1,0,0:0:0:0:
320,192,64166,1,0,0:0:0:0:
64,192,64166,1,0,0:0:0:0:
192,192,64248,1,0,0:0:0:0:
320,192,64330,1,0,0:0:0:0:
64,192,64330,1,0,0:0:0:0:
448,192,64330,1,0,0:0:0:0:
192,192,64411,1,0,0:0:0:0:
448,192,64493,1,0,0:0:0:0:
64,192,64493,1,0,0:0:0:0:
320,192,64574,1,0,0:0:0:0:
192,192,64656,1,0,0:0:0:0:
64,192,64656,1,0,0:0:0:0:
448,192,64656,1,0,0:0:0:0:
320,192,64737,1,0,0:0:0:0:
192,192,64819,1,0,0:0:0:0:
448,192,64819,1,0,0:0:0:0:
64,192,64900,1,0,0:0:0:0:
192,192,64982,1,0,0:0:0:0:
320,192,64982,1,0,0:0:0:0:
448,192,64982,1,0,0:0:0:0:
64,192,65063,1,0,0:0:0:0:
320,192,65145,1,0,0:0:0:0:
192,192,65145,1,0,0:0:0:0:
448,192,65226,1,0,0:0:0:0:
320,192,65308,1,0,0:0:0:0:
192,192,65308,1,0,0:0:0:0:
64,192,65308,1,0,0:0:0:0:
448,192,65389,1,0,0:0:0:0:
64,192,65471,1,0,0:0:0:0:
320,192,65471,1,0,0:0:0:0:
192,192,65553,1,0,0:0:0:0:
448,192,65634,1,0,0:0:0:0:
64,192,65634,1,0,0:0:0:0:
320,192,65634,1,0,0:0:0:0:
192,192,65715,1,0,0:0:0:0:
448,192,65797,1,0,0:0:0:0:
64,192,65797,1,0,0:0:0:0:
320,192,65879,1,0,0:0:0:0:
192,192,65960,1,0,0:0:0:0:
64,192,65960,1,0,0:0:0:0:
448,192,65960,1,0,0:0:0:0:
320,192,66041,1,0,0:0:0:0:
448,192,66123,1,0,0:0:0:0:
192,192,66123,1,0,0:0:0:0:
64,192,66205,1,0,0:0:0:0:
192,192,66286,1,0,0:0:0:0:
320,192,66286,1,0,0:0:0:0:
448,192,66286,1,0,0:0:0:0:
64,192,66367,1,0,0:0:0:0:
192,192,66449,1,0,0:0:0:0:
320,192,66449,1,0,0:0:0:0:
448,192,66531,1,0,0:0:0:0:
320,192,66613,1,0,0:0:0:0:
192,192,66613,1,0,0:0:0:0:
64,192,66613,1,0,0:0:0:0:
448,192,66693,1,0,0:0:0:0:
64,192,66775,1,0,0:0:0:0:
320,192,66775,1,0,0:0:0:0:
192,192,66857,1,0,0:0:0:0:
64,192,66939,1,0,0:0:0:0:
320,192,66939,1,0,0:0:0:0:
448,192,66939,1,0,0:0:0:0:
192,192,67020,1,0,0:0:0:0:
64,192,67101,1,0,0:0:0:0:
448,192,67101,1,0,0:0:0:0:
320,192,67183,1,0,0:0:0:0:
192,192,67265,1,0,0:0:0:0:
64,192,67265,1,0,0:0:0:0:
448,192,67265,1,0,0:0:0:0:
320,192,67346,1,0,0:0:0:0:
192,192,67427,1,0,0:0:0:0:
448,192,67427,1,0,0:0:0:0:
64,192,67509,1,0,0:0:0:0:
192,192,67591,1,0,0:0:0:0:
320,192,67591,1,0,0:0:0:0:
448,192,67591,1,0,0:0:0:0:
64,192,67672,1,0,0:0:0:0:
192,192,67753,1,0,0:0:0:0:
320,192,67753,1,0,0:0:0:0:
448,192,67835,1,0,0:0:0:0:
320,192,67917,1,0,0:0:0:0:
192,192,67917,1,0,0:0:0:0:
64,192,67917,1,0,0:0:0:0:
448,192,67998,1,0,0:0:0:0:
320,192,68080,1,0,0:0:0:0:
192,192,68080,1,0,0:0:0:0:
64,192,68161,1,0,0:0:0:0:
320,192,68243,1,0,0:0:0:0:
192,192,68243,1,0,0:0:0:0:
448,192,68243,1,0,0:0:0:0:
64,192,68324,1,0,0:0:0:0:
192,192,68406,1,0,0:0:0:0:
448,192,68406,1,0,0:0:0:0:
448,192,68569,1,0,0:0:0:0:
64,192,68569,1,0,0:0:0:0:
320,192,68650,1,0,0:0:0:0:
192,192,68650,1,0,0:0:0:0:
448,192,68732,1,0,0:0:0:0:
64,192,68732,1,0,0:0:0:0:
320,192,68813,1,0,0:0:0:0:
192,192,68813,1,0,0:0:0:0:
64,192,68895,1,0,0:0:0:0:
448,192,68895,1,0,0:0:0:0:
192,192,68976,1,0,0:0:0:0:
320,192,69058,1,0,0:0:0:0:
64,192,69140,1,0,0:0:0:0:
192,192,69221,1,0,0:0:0:0:
448,192,69221,1,0,0:0:0:0:
320,192,69302,1,0,0:0:0:0:
192,192,69384,1,0,0:0:0:0:
320,192,69466,1,0,0:0:0:0:
64,192,69547,1,0,0:0:0:0:
192,192,69547,1,0,0:0:0:0:
448,192,69628,1,0,0:0:0:0:
64,192,69710,1,0,0:0:0:0:
320,192,69792,1,0,0:0:0:0:
192,192,69873,1,0,0:0:0:0:
448,192,69873,1,0,0:0:0:0:
64,192,69954,1,0,0:0:0:0:
320,192,70036,1,0,0:0:0:0:
448,192,70118,1,0,0:0:0:0:
320,192,70200,1,0,0:0:0:0:
192,192,70200,1,0,0:0:0:0:
64,192,70280,1,0,0:0:0:0:
448,192,70362,1,0,0:0:0:0:
192,192,70444,1,0,0:0:0:0:
320,192,70526,1,0,0:0:0:0:
64,192,70526,1,0,0:0:0:0:
448,192,70606,1,0,0:0:0:0:
192,192,70688,1,0,0:0:0:0:
320,192,70770,1,0,0:0:0:0:
64,192,70852,1,0,0:0:0:0:
192,192,70852,1,0,0:0:0:0:
448,192,70933,1,0,0:0:0:0:
64,192,71014,1,0,0:0:0:0:
320,192,71096,1,0,0:0:0:0:
192,192,71178,1,0,0:0:0:0:
64,192,71178,1,0,0:0:0:0:
448,192,71259,1,0,0:0:0:0:
192,192,71340,1,0,0:0:0:0:
320,192,71422,1,0,0:0:0:0:
192,192,71504,1,0,0:0:0:0:
448,192,71504,1,0,0:0:0:0:
64,192,71585,1,0,0:0:0:0:
320,192,71666,1,0,0:0:0:0:
448,192,71666,1,0,0:0:0:0:
192,192,71748,1,0,0:0:0:0:
320,192,71830,1,0,0:0:0:0:
64,192,71830,1,0,0:0:0:0:
448,192,71830,1,0,0:0:0:0:
192,192,71911,1,0,0:0:0:0:
320,192,71993,1,0,0:0:0:0:
64,192,71993,1,0,0:0:0:0:
448,192,72074,1,0,0:0:0:0:
320,192,72156,1,0,0:0:0:0:
192,192,72156,1,0,0:0:0:0:
64,192,72156,1,0,0:0:0:0:
448,192,72237,1,0,0:0:0:0:
320,192,72319,1,0,0:0:0:0:
192,192,72319,1,0,0:0:0:0:
64,192,72400,1,0,0:0:0:0:
320,192,72482,1,0,0:0:0:0:
192,192,72482,1,0,0:0:0:0:
448,192,72482,1,0,0:0:0:0:
64,192,72563,1,0,0:0:0:0:
320,192,72645,1,0,0:0:0:0:
448,192,72645,1,0,0:0:0:0:
192,192,72726,1,0,0:0:0:0:
64,192,72808,1,0,0:0:0:0:
320,192,72808,128,0,73460:0:0:0:0:
448,192,72808,128,0,73460:0:0:0:0:
192,192,73460,1,0,0:0:0:0:
64,192,73541,1,0,0:0:0:0:
320,192,73623,1,0,0:0:0:0:
192,192,73705,1,0,0:0:0:0:
320,192,73786,1,0,0:0:0:0:
448,192,73786,1,0,0:0:0:0:
192,192,73867,1,0,0:0:0:0:
64,192,73867,1,0,0:0:0:0:
320,192,73949,1,0,0:0:0:0:
448,192,73949,1,0,0:0:0:0:
192,192,74031,1,0,0:0:0:0:
64,192,74031,1,0,0:0:0:0:
320,192,74113,1,0,0:0:0:0:
448,192,74113,1,0,0:0:0:0:
192,192,74193,1,0,0:0:0:0:
64,192,74193,1,0,0:0:0:0:
192,192,74275,1,0,0:0:0:0:
320,192,74275,1,0,0:0:0:0:
448,192,74357,1,0,0:0:0:0:
192,192,74439,1,0,0:0:0:0:
64,192,74439,1,0,0:0:0:0:
64,192,74520,1,0,0:0:0:0:
448,192,74520,1,0,0:0:0:0:
320,192,74601,1,0,0:0:0:0:
448,192,74683,1,0,0:0:0:0:
192,192,74683,1,0,0:0:0:0:
64,192,74765,1,0,0:0:0:0:
448,192,74765,1,0,0:0:0:0:
192,192,74846,1,0,0:0:0:0:
64,192,74927,1,0,0:0:0:0:
320,192,74927,1,0,0:0:0:0:
320,192,75009,1,0,0:0:0:0:
448,192,75009,1,0,0:0:0:0:
192,192,75091,1,0,0:0:0:0:
64,192,75172,1,0,0:0:0:0:
320,192,75172,1,0,0:0:0:0:
64,192,75253,1,0,0:0:0:0:
448,192,75253,1,0,0:0:0:0:
320,192,75335,1,0,0:0:0:0:
448,192,75417,1,0,0:0:0:0:
64,192,75417,1,0,0:0:0:0:
192,192,75498,1,0,0:0:0:0:
320,192,75498,1,0,0:0:0:0:
448,192,75580,1,0,0:0:0:0:
192,192,75580,1,0,0:0:0:0:
64,192,75661,1,0,0:0:0:0:
320,192,75743,1,0,0:0:0:0:
192,192,75743,1,0,0:0:0:0:
320,192,75824,1,0,0:0:0:0:
64,192,75824,1,0,0:0:0:0:
192,192,75906,1,0,0:0:0:0:
448,192,75987,1,0,0:0:0:0:
320,192,75987,1,0,0:0:0:0:
64,192,76069,1,0,0:0:0:0:
448,192,76069,1,0,0:0:0:0:
320,192,76150,1,0,0:0:0:0:
64,192,76232,1,0,0:0:0:0:
192,192,76232,1,0,0:0:0:0:
64,192,76313,1,0,0:0:0:0:
320,192,76313,1,0,0:0:0:0:
192,192,76395,1,0,0:0:0:0:
448,192,76476,1,0,0:0:0:0:
320,192,76476,1,0,0:0:0:0:
64,192,76558,1,0,0:0:0:0:
320,192,76558,1,0,0:0:0:0:
448,192,76640,1,0,0:0:0:0:
192,192,76640,1,0,0:0:0:0:
64,192,76721,1,0,0:0:0:0:
320,192,76721,1,0,0:0:0:0:
448,192,76802,1,0,0:0:0:0:
192,192,76802,1,0,0:0:0:0:
64,192,76884,1,0,0:0:0:0:
192,192,76884,1,0,0:0:0:0:
320,192,76966,1,0,0:0:0:0:
192,192,77047,1,0,0:0:0:0:
448,192,77047,1,0,0:0:0:0:
64,192,77128,1,0,0:0:0:0:
448,192,77128,1,0,0:0:0:0:
320,192,77210,1,0,0:0:0:0:
448,192,77291,1,0,0:0:0:0:
192,192,77292,1,0,0:0:0:0:
192,192,77373,1,0,0:0:0:0:
64,192,77373,1,0,0:0:0:0:
320,192,77454,1,0,0:0:0:0:
448,192,77536,1,0,0:0:0:0:
64,192,77536,1,0,0:0:0:0:
192,192,77618,1,0,0:0:0:0:
64,192,77618,1,0,0:0:0:0:
320,192,77700,1,0,0:0:0:0:
192,192,77780,1,0,0:0:0:0:
448,192,77780,1,0,0:0:0:0:
448,192,77862,1,0,0:0:0:0:
64,192,77862,1,0,0:0:0:0:
192,192,77944,1,0,0:0:0:0:
320,192,78026,1,0,0:0:0:0:
448,192,78026,1,0,0:0:0:0:
192,192,78080,1,0,0:0:0:0:
64,192,78134,1,0,0:0:0:0:
320,192,78188,1,0,0:0:0:0:
192,192,78243,1,0,0:0:0:0:
448,192,78297,1,0,0:0:0:0:
192,192,78352,1,0,0:0:0:0:
64,192,78406,1,0,0:0:0:0:
320,192,78460,1,0,0:0:0:0:
448,192,78514,1,0,0:0:0:0:
64,192,78569,1,0,0:0:0:0:
192,192,78623,1,0,0:0:0:0:
320,192,78678,1,0,0:0:0:0:
448,192,78678,1,0,0:0:0:0:
448,192,78759,1,0,0:0:0:0:
64,192,78759,1,0,0:0:0:0:
320,192,78840,1,0,0:0:0:0:
192,192,78840,1,0,0:0:0:0:
320,192,78922,1,0,0:0:0:0:
448,192,78922,1,0,0:0:0:0:
192,192,79004,1,0,0:0:0:0:
64,192,79004,1,0,0:0:0:0:
320,192,79085,1,0,0:0:0:0:
448,192,79085,1,0,0:0:0:0:
192,192,79166,1,0,0:0:0:0:
64,192,79166,1,0,0:0:0:0:
320,192,79248,1,0,0:0:0:0:
448,192,79248,1,0,0:0:0:0:
192,192,79330,1,0,0:0:0:0:
64,192,79330,1,0,0:0:0:0:
320,192,79411,1,0,0:0:0:0:
448,192,79411,1,0,0:0:0:0:
320,192,79493,1,0,0:0:0:0:
192,192,79493,1,0,0:0:0:0:
64,192,79574,1,0,0:0:0:0:
448,192,79656,1,0,0:0:0:0:
192,192,79656,1,0,0:0:0:0:
320,192,79737,1,0,0:0:0:0:
448,192,79737,1,0,0:0:0:0:
64,192,79819,1,0,0:0:0:0:
192,192,79900,1,0,0:0:0:0:
448,192,79900,1,0,0:0:0:0:
320,192,79982,1,0,0:0:0:0:
192,192,79982,1,0,0:0:0:0:
64,192,80063,1,0,0:0:0:0:
320,192,80145,1,0,0:0:0:0:
448,192,80145,1,0,0:0:0:0:
192,192,80226,1,0,0:0:0:0:
448,192,80226,1,0,0:0:0:0:
320,192,80308,1,0,0:0:0:0:
64,192,80389,1,0,0:0:0:0:
192,192,80389,1,0,0:0:0:0:
448,192,80471,1,0,0:0:0:0:
64,192,80471,1,0,0:0:0:0:
192,192,80553,1,0,0:0:0:0:
320,192,80634,1,0,0:0:0:0:
448,192,80634,1,0,0:0:0:0:
64,192,80715,1,0,0:0:0:0:
192,192,80715,1,0,0:0:0:0:
192,192,80797,1,0,0:0:0:0:
448,192,80797,1,0,0:0:0:0:
64,192,80879,1,0,0:0:0:0:
320,192,80960,1,0,0:0:0:0:
448,192,80960,1,0,0:0:0:0:
320,192,81041,1,0,0:0:0:0:
64,192,81041,1,0,0:0:0:0:
192,192,81123,1,0,0:0:0:0:
64,192,81205,1,0,0:0:0:0:
448,192,81205,1,0,0:0:0:0:
64,192,81286,1,0,0:0:0:0:
320,192,81286,1,0,0:0:0:0:
192,192,81367,1,0,0:0:0:0:
448,192,81449,1,0,0:0:0:0:
320,192,81449,1,0,0:0:0:0:
448,192,81531,1,0,0:0:0:0:
64,192,81531,1,0,0:0:0:0:
320,192,81613,1,0,0:0:0:0:
64,192,81693,1,0,0:0:0:0:
192,192,81693,1,0,0:0:0:0:
448,192,81775,1,0,0:0:0:0:
320,192,81775,1,0,0:0:0:0:
192,192,81857,1,0,0:0:0:0:
320,192,81857,1,0,0:0:0:0:
64,192,81939,1,0,0:0:0:0:
448,192,81939,1,0,0:0:0:0:
192,192,82020,1,0,0:0:0:0:
320,192,82020,1,0,0:0:0:0:
64,192,82101,1,0,0:0:0:0:
192,192,82101,1,0,0:0:0:0:
448,192,82183,1,0,0:0:0:0:
320,192,82265,1,0,0:0:0:0:
64,192,82265,1,0,0:0:0:0:
192,192,82346,1,0,0:0:0:0:
320,192,82346,1,0,0:0:0:0:
448,192,82427,1,0,0:0:0:0:
64,192,82509,1,0,0:0:0:0:
320,192,82509,1,0,0:0:0:0:
192,192,82591,1,0,0:0:0:0:
64,192,82591,1,0,0:0:0:0:
448,192,82672,1,0,0:0:0:0:
192,192,82753,1,0,0:0:0:0:
320,192,82753,1,0,0:0:0:0:
320,192,82835,1,0,0:0:0:0:
448,192,82835,1,0,0:0:0:0:
64,192,82917,1,0,0:0:0:0:
192,192,82998,1,0,0:0:0:0:
448,192,82998,1,0,0:0:0:0:
192,192,83080,1,0,0:0:0:0:
64,192,83080,1,0,0:0:0:0:
320,192,83161,1,0,0:0:0:0:
448,192,83243,1,0,0:0:0:0:
64,192,83243,1,0,0:0:0:0:
192,192,83297,1,0,0:0:0:0:
320,192,83352,1,0,0:0:0:0:
64,192,83406,1,0,0:0:0:0:
448,192,83460,1,0,0:0:0:0:
320,192,83514,1,0,0:0:0:0:
192,192,83569,1,0,0:0:0:0:
448,192,83623,1,0,0:0:0:0:
64,192,83678,1,0,0:0:0:0:
192,192,83732,1,0,0:0:0:0:
448,192,83786,1,0,0:0:0:0:
320,192,83840,1,0,0:0:0:0:
192,192,83895,1,0,0:0:0:0:
64,192,83895,1,0,0:0:0:0:
64,192,83976,1,0,0:0:0:0:
448,192,83976,1,0,0:0:0:0:
192,192,84058,1,0,0:0:0:0:
320,192,84058,1,0,0:0:0:0:
192,192,84140,1,0,0:0:0:0:
64,192,84140,1,0,0:0:0:0:
320,192,84221,1,0,0:0:0:0:
448,192,84221,1,0,0:0:0:0:
192,192,84302,1,0,0:0:0:0:
64,192,84302,1,0,0:0:0:0:
320,192,84384,1,0,0:0:0:0:
448,192,84384,1,0,0:0:0:0:
192,192,84466,1,0,0:0:0:0:
64,192,84547,1,0,0:0:0:0:
320,192,84547,1,0,0:0:0:0:
448,192,84547,1,0,0:0:0:0:
64,192,84710,1,0,0:0:0:0:
320,192,84873,1,0,0:0:0:0:
64,192,84873,1,0,0:0:0:0:
448,192,85036,1,0,0:0:0:0:
448,192,85200,1,0,0:0:0:0:
64,192,85200,1,0,0:0:0:0:
320,192,85362,128,0,85526:0:0:0:0:
192,192,85526,1,0,0:0:0:0:
448,192,85526,128,0,85688:0:0:0:0:
64,192,85688,128,0,85852:0:0:0:0:
320,192,85852,1,0,0:0:0:0:
192,192,85852,128,0,86014:0:0:0:0:
448,192,86014,1,0,0:0:0:0:
448,192,86178,1,0,0:0:0:0:
320,192,86178,1,0,0:0:0:0:
192,192,86340,1,0,0:0:0:0:
192,192,86504,1,0,0:0:0:0:
448,192,86504,1,0,0:0:0:0:
320,192,86666,128,0,86830:0:0:0:0:
192,192,86830,1,0,0:0:0:0:
64,192,86830,128,0,86993:0:0:0:0:
448,192,86993,128,0,87156:0:0:0:0:
320,192,87156,1,0,0:0:0:0:
192,192,87156,128,0,87319:0:0:0:0:
64,192,87319,1,0,0:0:0:0:
64,192,87482,1,0,0:0:0:0:
448,192,87482,1,0,0:0:0:0:
192,192,87563,1,0,0:0:0:0:
320,192,87645,1,0,0:0:0:0:
448,192,87645,1,0,0:0:0:0:
64,192,87726,1,0,0:0:0:0:
192,192,87808,1,0,0:0:0:0:
320,192,87808,1,0,0:0:0:0:
448,192,87889,1,0,0:0:0:0:
64,192,87971,1,0,0:0:0:0:
320,192,88053,1,0,0:0:0:0:
192,192,88134,1,0,0:0:0:0:
448,192,88134,1,0,0:0:0:0:
64,192,88215,1,0,0:0:0:0:
320,192,88297,1,0,0:0:0:0:
448,192,88379,1,0,0:0:0:0:
64,192,88460,1,0,0:0:0:0:
192,192,88460,128,0,88623:0:0:0:0:
448,192,88623,128,0,88786:0:0:0:0:
64,192,88786,1,0,0:0:0:0:
192,192,88786,128,0,88949:0:0:0:0:
320,192,88949,128,0,89113:0:0:0:0:
64,192,89113,1,0,0:0:0:0:
448,192,89113,128,0,89275:0:0:0:0:
320,192,89275,1,0,0:0:0:0:
320,192,89439,1,0,0:0:0:0:
192,192,89439,1,0,0:0:0:0:
448,192,89601,1,0,0:0:0:0:
448,192,89765,1,0,0:0:0:0:
192,192,89765,1,0,0:0:0:0:
64,192,89765,1,0,0:0:0:0:
320,192,89927,1,0,0:0:0:0:
320,192,90091,1,0,0:0:0:0:
64,192,90091,1,0,0:0:0:0:
192,192,90253,1,0,0:0:0:0:
192,192,90417,1,0,0:0:0:0:
448,192,90417,1,0,0:0:0:0:
448,192,90580,1,0,0:0:0:0:
448,192,90743,1,0,0:0:0:0:
192,192,90743,128,0,90906:0:0:0:0:
64,192,90906,128,0,91069:0:0:0:0:
192,192,91069,1,0,0:0:0:0:
448,192,91069,128,0,91232:0:0:0:0:
320,192,91232,128,0,91395:0:0:0:0:
448,192,91395,1,0,0:0:0:0:
64,192,91395,1,0,0:0:0:0:
320,192,91558,1,0,0:0:0:0:
320,192,91721,1,0,0:0:0:0:
64,192,91721,1,0,0:0:0:0:
192,192,91884,1,0,0:0:0:0:
192,192,92047,1,0,0:0:0:0:
448,192,92047,1,0,0:0:0:0:
64,192,92210,1,0,0:0:0:0:
192,192,92373,1,0,0:0:0:0:
448,192,92373,1,0,0:0:0:0:
64,192,92454,1,0,0:0:0:0:
192,192,92536,1,0,0:0:0:0:
320,192,92618,1,0,0:0:0:0:
64,192,92700,1,0,0:0:0:0:
448,192,92700,1,0,0:0:0:0:
192,192,92780,1,0,0:0:0:0:
64,192,92862,1,0,0:0:0:0:
320,192,92944,1,0,0:0:0:0:
192,192,93026,1,0,0:0:0:0:
448,192,93026,1,0,0:0:0:0:
64,192,93106,1,0,0:0:0:0:
192,192,93188,1,0,0:0:0:0:
448,192,93270,1,0,0:0:0:0:
64,192,93352,1,0,0:0:0:0:
192,192,93352,1,0,0:0:0:0:
320,192,93433,1,0,0:0:0:0:
192,192,93514,1,0,0:0:0:0:
320,192,93596,1,0,0:0:0:0:
448,192,93596,1,0,0:0:0:0:
64,192,93678,1,0,0:0:0:0:
192,192,93678,128,0,94004:0:0:0:0:
448,192,94004,1,0,0:0:0:0:
320,192,94004,1,0,0:0:0:0:
448,192,94085,1,0,0:0:0:0:
64,192,94085,1,0,0:0:0:0:
320,192,94166,1,0,0:0:0:0:
192,192,94166,1,0,0:0:0:0:
192,192,94248,1,0,0:0:0:0:
448,192,94248,1,0,0:0:0:0:
320,192,94330,1,0,0:0:0:0:
64,192,94330,1,0,0:0:0:0:
320,192,94493,1,0,0:0:0:0:
192,192,94493,1,0,0:0:0:0:
448,192,94574,1,0,0:0:0:0:
192,192,94656,1,0,0:0:0:0:
64,192,94656,1,0,0:0:0:0:
320,192,94737,1,0,0:0:0:0:
448,192,94737,1,0,0:0:0:0:
192,192,94819,1,0,0:0:0:0:
64,192,94819,1,0,0:0:0:0:
320,192,94900,1,0,0:0:0:0:
448,192,94900,1,0,0:0:0:0:
192,192,94982,1,0,0:0:0:0:
64,192,94982,1,0,0:0:0:0:
320,192,95063,1,0,0:0:0:0:
448,192,95145,1,0,0:0:0:0:
64,192,95226,1,0,0:0:0:0:
192,192,95308,128,0,95634:0:0:0:0:
448,192,95389,1,0,0:0:0:0:
64,192,95471,1,0,0:0:0:0:
320,192,95553,1,0,0:0:0:0:
448,192,95634,128,0,95960:0:0:0:0:
64,192,95715,1,0,0:0:0:0:
320,192,95797,1,0,0:0:0:0:
192,192,95879,1,0,0:0:0:0:
64,192,95960,128,0,96123:0:0:0:0:
192,192,96041,1,0,0:0:0:0:
320,192,96123,128,0,96286:0:0:0:0:
448,192,96205,1,0,0:0:0:0:
192,192,96286,128,0,96449:0:0:0:0:
64,192,96367,1,0,0:0:0:0:
320,192,96449,1,0,0:0:0:0:
448,192,96531,1,0,0:0:0:0:
64,192,96613,128,0,96939:0:0:0:0:
192,192,96693,1,0,0:0:0:0:
448,192,96775,1,0,0:0:0:0:
320,192,96857,1,0,0:0:0:0:
192,192,96939,128,0,97265:0:0:0:0:
448,192,97020,1,0,0:0:0:0:
64,192,97101,1,0,0:0:0:0:
320,192,97183,1,0,0:0:0:0:
448,192,97265,128,0,97427:0:0:0:0:
64,192,97346,1,0,0:0:0:0:
320,192,97427,128,0,97591:0:0:0:0:
192,192,97509,1,0,0:0:0:0:
64,192,97591,128,0,97753:0:0:0:0:
448,192,97672,1,0,0:0:0:0:
320,192,97753,1,0,0:0:0:0:
192,192,97835,1,0,0:0:0:0:
64,192,97917,1,0,0:0:0:0:
448,192,97917,1,0,0:0:0:0:
320,192,97998,1,0,0:0:0:0:
192,192,98080,1,0,0:0:0:0:
64,192,98080,1,0,0:0:0:0:
320,192,98161,1,0,0:0:0:0:
448,192,98243,1,0,0:0:0:0:
192,192,98324,1,0,0:0:0:0:
448,192,98406,1,0,0:0:0:0:
320,192,98406,1,0,0:0:0:0:
64,192,98487,1,0,0:0:0:0:
192,192,98569,1,0,0:0:0:0:
320,192,98569,1,0,0:0:0:0:
448,192,98650,1,0,0:0:0:0:
192,192,98732,1,0,0:0:0:0:
320,192,98813,1,0,0:0:0:0:
64,192,98895,128,0,99710:0:0:0:0:
192,192,98895,1,0,0:0:0:0:
320,192,98976,1,0,0:0:0:0:
448,192,99058,1,0,0:0:0:0:
192,192,99140,1,0,0:0:0:0:
448,192,99221,1,0,0:0:0:0:
192,192,99302,1,0,0:0:0:0:
320,192,99384,1,0,0:0:0:0:
192,192,99466,1,0,0:0:0:0:
448,192,99547,1,0,0:0:0:0:
192,192,99628,1,0,0:0:0:0:
448,192,99710,1,0,0:0:0:0:
320,192,99792,1,0,0:0:0:0:
448,192,99873,1,0,0:0:0:0:
64,192,99873,1,0,0:0:0:0:
192,192,99954,1,0,0:0:0:0:
320,192,100036,1,0,0:0:0:0:
192,192,100118,1,0,0:0:0:0:
448,192,100200,1,0,0:0:0:0:
320,192,100200,1,0,0:0:0:0:
64,192,100280,1,0,0:0:0:0:
448,192,100362,1,0,0:0:0:0:
320,192,100444,1,0,0:0:0:0:
64,192,100526,128,0,100688:0:0:0:0:
448,192,100606,1,0,0:0:0:0:
320,192,100688,128,0,100852:0:0:0:0:
192,192,100770,1,0,0:0:0:0:
64,192,100852,1,0,0:0:0:0:
448,192,100933,1,0,0:0:0:0:
64,192,101014,128,0,101178:0:0:0:0:
320,192,101096,1,0,0:0:0:0:
192,192,101178,128,0,101340:0:0:0:0:
448,192,101259,1,0,0:0:0:0:
320,192,101340,1,0,0:0:0:0:
192,192,101422,1,0,0:0:0:0:
448,192,101504,128,0,101666:0:0:0:0:
64,192,101585,1,0,0:0:0:0:
320,192,101666,1,0,0:0:0:0:
448,192,101748,1,0,0:0:0:0:
320,192,101830,128,0,101993:0:0:0:0:
64,192,101911,1,0,0:0:0:0:
192,192,101993,128,0,102156:0:0:0:0:
448,192,102074,1,0,0:0:0:0:
192,192,102237,1,0,0:0:0:0:
320,192,102319,128,0,102482:0:0:0:0:
448,192,102400,1,0,0:0:0:0:
64,192,102482,128,0,102645:0:0:0:0:
192,192,102563,1,0,0:0:0:0:
320,192,102645,1,0,0:0:0:0:
448,192,102726,1,0,0:0:0:0:
192,192,102808,128,0,102971:0:0:0:0:
320,192,102889,1,0,0:0:0:0:
64,192,103053,1,0,0:0:0:0:
448,192,103134,128,0,103297:0:0:0:0:
192,192,103215,1,0,0:0:0:0:
320,192,103297,128,0,103460:0:0:0:0:
64,192,103379,1,0,0:0:0:0:
448,192,103541,1,0,0:0:0:0:
192,192,103623,128,0,103786:0:0:0:0:
64,192,103705,1,0,0:0:0:0:
320,192,103786,128,0,103949:0:0:0:0:
448,192,103867,1,0,0:0:0:0:
64,192,103949,1,0,0:0:0:0:
320,192,104031,1,0,0:0:0:0:
64,192,104113,1,0,0:0:0:0:
192,192,104113,1,0,0:0:0:0:
448,192,104113,1,0,0:0:0:0:
320,192,104193,1,0,0:0:0:0:
192,192,104275,1,0,0:0:0:0:
448,192,104357,1,0,0:0:0:0:
64,192,104439,1,0,0:0:0:0:
320,192,104439,1,0,0:0:0:0:
192,192,104520,1,0,0:0:0:0:
448,192,104601,1,0,0:0:0:0:
64,192,104601,1,0,0:0:0:0:
320,192,104601,1,0,0:0:0:0:
192,192,104683,1,0,0:0:0:0:
448,192,104765,1,0,0:0:0:0:
320,192,104846,1,0,0:0:0:0:
192,192,104927,1,0,0:0:0:0:
64,192,104927,1,0,0:0:0:0:
448,192,105009,1,0,0:0:0:0:
320,192,105091,1,0,0:0:0:0:
192,192,105091,1,0,0:0:0:0:
64,192,105091,1,0,0:0:0:0:
448,192,105172,1,0,0:0:0:0:
320,192,105253,1,0,0:0:0:0:
64,192,105335,1,0,0:0:0:0:
192,192,105417,1,0,0:0:0:0:
448,192,105417,1,0,0:0:0:0:
320,192,105498,1,0,0:0:0:0:
64,192,105580,1,0,0:0:0:0:
192,192,105580,1,0,0:0:0:0:
448,192,105661,1,0,0:0:0:0:
320,192,105743,1,0,0:0:0:0:
64,192,105743,1,0,0:0:0:0:
192,192,105743,1,0,0:0:0:0:
448,192,105824,1,0,0:0:0:0:
320,192,105906,1,0,0:0:0:0:
192,192,105906,1,0,0:0:0:0:
64,192,105987,1,0,0:0:0:0:
320,192,106069,1,0,0:0:0:0:
448,192,106069,1,0,0:0:0:0:
192,192,106069,1,0,0:0:0:0:
64,192,106150,1,0,0:0:0:0:
192,192,106232,1,0,0:0:0:0:
448,192,106232,1,0,0:0:0:0:
320,192,106313,1,0,0:0:0:0:
448,192,106395,1,0,0:0:0:0:
192,192,106395,1,0,0:0:0:0:
64,192,106395,1,0,0:0:0:0:
320,192,106476,1,0,0:0:0:0:
64,192,106558,1,0,0:0:0:0:
448,192,106558,1,0,0:0:0:0:
192,192,106640,1,0,0:0:0:0:
320,192,106721,1,0,0:0:0:0:
448,192,106721,1,0,0:0:0:0:
64,192,106721,1,0,0:0:0:0:
192,192,106802,1,0,0:0:0:0:
320,192,106884,1,0,0:0:0:0:
64,192,106884,1,0,0:0:0:0:
448,192,106966,1,0,0:0:0:0:
320,192,107047,1,0,0:0:0:0:
192,192,107047,1,0,0:0:0:0:
64,192,107047,1,0,0:0:0:0:
448,192,107128,1,0,0:0:0:0:
192,192,107210,1,0,0:0:0:0:
320,192,107210,1,0,0:0:0:0:
64,192,107292,1,0,0:0:0:0:
192,192,107373,1,0,0:0:0:0:
320,192,107373,1,0,0:0:0:0:
448,192,107373,1,0,0:0:0:0:
64,192,107454,1,0,0:0:0:0:
192,192,107536,1,0,0:0:0:0:
448,192,107536,1,0,0:0:0:0:
320,192,107618,1,0,0:0:0:0:
192,192,107700,1,0,0:0:0:0:
448,192,107700,1,0,0:0:0:0:
64,192,107700,1,0,0:0:0:0:
320,192,107780,1,0,0:0:0:0:
64,192,107862,1,0,0:0:0:0:
448,192,107862,1,0,0:0:0:0:
192,192,107944,1,0,0:0:0:0:
448,192,108026,1,0,0:0:0:0:
320,192,108026,1,0,0:0:0:0:
64,192,108026,1,0,0:0:0:0:
192,192,108106,1,0,0:0:0:0:
320,192,108188,1,0,0:0:0:0:
64,192,108188,1,0,0:0:0:0:
448,192,108270,1,0,0:0:0:0:
320,192,108352,1,0,0:0:0:0:
192,192,108352,1,0,0:0:0:0:
64,192,108352,1,0,0:0:0:0:
448,192,108433,1,0,0:0:0:0:
320,192,108514,1,0,0:0:0:0:
192,192,108514,1,0,0:0:0:0:
64,192,108596,1,0,0:0:0:0:
192,192,108678,1,0,0:0:0:0:
320,192,108678,1,0,0:0:0:0:
448,192,108678,1,0,0:0:0:0:
64,192,108759,1,0,0:0:0:0:
192,192,108840,1,0,0:0:0:0:
448,192,108840,1,0,0:0:0:0:
320,192,108922,1,0,0:0:0:0:
448,192,109004,1,0,0:0:0:0:
192,192,109004,1,0,0:0:0:0:
64,192,109004,1,0,0:0:0:0:
320,192,109085,1,0,0:0:0:0:
64,192,109166,1,0,0:0:0:0:
448,192,109166,1,0,0:0:0:0:
192,192,109248,1,0,0:0:0:0:
320,192,109330,1,0,0:0:0:0:
448,192,109330,1,0,0:0:0:0:
64,192,109330,1,0,0:0:0:0:
192,192,109411,1,0,0:0:0:0:
320,192,109493,1,0,0:0:0:0:
64,192,109493,1,0,0:0:0:0:
448,192,109574,1,0,0:0:0:0:
320,192,109656,1,0,0:0:0:0:
192,192,109656,1,0,0:0:0:0:
64,192,109656,1,0,0:0:0:0:
448,192,109737,1,0,0:0:0:0:
192,192,109819,1,0,0:0:0:0:
320,192,109819,1,0,0:0:0:0:
64,192,109900,1,0,0:0:0:0:
192,192,109982,1,0,0:0:0:0:
320,192,109982,1,0,0:0:0:0:
448,192,109982,1,0,0:0:0:0:
64,192,110063,1,0,0:0:0:0:
320,192,110145,1,0,0:0:0:0:
448,192,110145,1,0,0:0:0:0:
448,192,110308,1,0,0:0:0:0:
192,192,110308,1,0,0:0:0:0:
64,192,110389,1,0,0:0:0:0:
320,192,110389,1,0,0:0:0:0:
448,192,110471,1,0,0:0:0:0:
192,192,110471,1,0,0:0:0:0:
64,192,110553,1,0,0:0:0:0:
320,192,110553,1,0,0:0:0:0:
448,192,110634,1,0,0:0:0:0:
192,192,110634,1,0,0:0:0:0:
64,192,110715,1,0,0:0:0:0:
320,192,110797,1,0,0:0:0:0:
192,192,110879,1,0,0:0:0:0:
448,192,110960,1,0,0:0:0:0:
64,192,110960,1,0,0:0:0:0:
320,192,111041,1,0,0:0:0:0:
192,192,111123,1,0,0:0:0:0:
448,192,111205,1,0,0:0:0:0:
320,192,111286,1,0,0:0:0:0:
64,192,111286,1,0,0:0:0:0:
192,192,111367,1,0,0:0:0:0:
448,192,111449,1,0,0:0:0:0:
320,192,111531,1,0,0:0:0:0:
192,192,111613,1,0,0:0:0:0:
64,192,111613,1,0,0:0:0:0:
448,192,111693,1,0,0:0:0:0:
64,192,111775,1,0,0:0:0:0:
192,192,111857,1,0,0:0:0:0:
320,192,111939,1,0,0:0:0:0:
448,192,111939,1,0,0:0:0:0:
64,192,112020,1,0,0:0:0:0:
320,192,112101,1,0,0:0:0:0:
192,192,112183,1,0,0:0:0:0:
448,192,112265,1,0,0:0:0:0:
64,192,112265,1,0,0:0:0:0:
320,192,112346,1,0,0:0:0:0:
448,192,112427,1,0,0:0:0:0:
192,192,112509,1,0,0:0:0:0:
320,192,112591,1,0,0:0:0:0:
64,192,112591,1,0,0:0:0:0:
448,192,112672,1,0,0:0:0:0:
192,192,112753,1,0,0:0:0:0:
320,192,112835,1,0,0:0:0:0:
64,192,112917,1,0,0:0:0:0:
192,192,112917,1,0,0:0:0:0:
448,192,112998,1,0,0:0:0:0:
320,192,113080,1,0,0:0:0:0:
64,192,113161,1,0,0:0:0:0:
192,192,113243,1,0,0:0:0:0:
320,192,113243,1,0,0:0:0:0:
448,192,113324,1,0,0:0:0:0:
64,192,113406,1,0,0:0:0:0:
320,192,113487,1,0,0:0:0:0:
192,192,113569,1,0,0:0:0:0:
448,192,113569,1,0,0:0:0:0:
64,192,113650,1,0,0:0:0:0:
320,192,113732,1,0,0:0:0:0:
192,192,113813,1,0,0:0:0:0:
448,192,113895,1,0,0:0:0:0:
320,192,113895,1,0,0:0:0:0:
64,192,113976,1,0,0:0:0:0:
448,192,114058,1,0,0:0:0:0:
192,192,114140,1,0,0:0:0:0:
320,192,114221,1,0,0:0:0:0:
64,192,114221,1,0,0:0:0:0:
448,192,114302,1,0,0:0:0:0:
192,192,114384,1,0,0:0:0:0:
320,192,114466,1,0,0:0:0:0:
64,192,114547,1,0,0:0:0:0:
448,192,114547,1,0,0:0:0:0:
192,192,114628,1,0,0:0:0:0:
320,192,114710,1,0,0:0:0:0:
192,192,114792,1,0,0:0:0:0:
320,192,114873,1,0,0:0:0:0:
448,192,114873,1,0,0:0:0:0:
64,192,114873,1,0,0:0:0:0:
192,192,115036,1,0,0:0:0:0:
320,192,115036,1,0,0:0:0:0:
448,192,115200,1,0,0:0:0:0:
192,192,115200,1,0,0:0:0:0:
64,192,115200,1,0,0:0:0:0:
448,192,115362,1,0,0:0:0:0:
64,192,115362,1,0,0:0:0:0:
192,192,115526,1,0,0:0:0:0:
64,192,115526,1,0,0:0:0:0:
320,192,115606,1,0,0:0:0:0:
448,192,115606,1,0,0:0:0:0:
192,192,115688,1,0,0:0:0:0:
64,192,115688,1,0,0:0:0:0:
320,192,115770,1,0,0:0:0:0:
448,192,115770,1,0,0:0:0:0:
192,192,115852,1,0,0:0:0:0:
64,192,115852,1,0,0:0:0:0:
448,192,115933,1,0,0:0:0:0:
320,192,116014,1,0,0:0:0:0:
192,192,116014,1,0,0:0:0:0:
64,192,116096,1,0,0:0:0:0:
192,192,116178,1,0,0:0:0:0:
448,192,116178,1,0,0:0:0:0:
320,192,116178,1,0,0:0:0:0:
64,192,116259,1,0,0:0:0:0:
192,192,116340,1,0,0:0:0:0:
448,192,116340,1,0,0:0:0:0:
320,192,116422,1,0,0:0:0:0:
192,192,116504,1,0,0:0:0:0:
448,192,116504,1,0,0:0:0:0:
64,192,116504,1,0,0:0:0:0:
320,192,116585,1,0,0:0:0:0:
64,192,116666,1,0,0:0:0:0:
448,192,116666,1,0,0:0:0:0:
192,192,116748,1,0,0:0:0:0:
320,192,116830,1,0,0:0:0:0:
448,192,116830,1,0,0:0:0:0:
64,192,116830,1,0,0:0:0:0:
192,192,116911,1,0,0:0:0:0:
320,192,116993,1,0,0:0:0:0:
64,192,116993,1,0,0:0:0:0:
448,192,117074,1,0,0:0:0:0:
320,192,117156,1,0,0:0:0:0:
192,192,117156,1,0,0:0:0:0:
64,192,117156,1,0,0:0:0:0:
448,192,117237,1,0,0:0:0:0:
192,192,117319,1,0,0:0:0:0:
320,192,117319,1,0,0:0:0:0:
64,192,117400,1,0,0:0:0:0:
192,192,117482,1,0,0:0:0:0:
320,192,117482,1,0,0:0:0:0:
448,192,117482,1,0,0:0:0:0:
64,192,117563,1,0,0:0:0:0:
448,192,117645,1,0,0:0:0:0:
192,192,117645,1,0,0:0:0:0:
320,192,117726,1,0,0:0:0:0:
64,192,117808,1,0,0:0:0:0:
448,192,117808,1,0,0:0:0:0:
192,192,117808,1,0,0:0:0:0:
320,192,117889,1,0,0:0:0:0:
64,192,117971,1,0,0:0:0:0:
448,192,117971,1,0,0:0:0:0:
192,192,118053,1,0,0:0:0:0:
320,192,118134,1,0,0:0:0:0:
448,192,118134,1,0,0:0:0:0:
64,192,118134,1,0,0:0:0:0:
192,192,118215,1,0,0:0:0:0:
64,192,118297,1,0,0:0:0:0:
320,192,118297,1,0,0:0:0:0:
448,192,118379,1,0,0:0:0:0:
320,192,118460,1,0,0:0:0:0:
192,192,118460,1,0,0:0:0:0:
64,192,118460,1,0,0:0:0:0:
448,192,118541,1,0,0:0:0:0:
320,192,118623,1,0,0:0:0:0:
192,192,118623,1,0,0:0:0:0:
64,192,118705,1,0,0:0:0:0:
192,192,118786,1,0,0:0:0:0:
320,192,118786,1,0,0:0:0:0:
448,192,118786,1,0,0:0:0:0:
64,192,118867,1,0,0:0:0:0:
448,192,118949,1,0,0:0:0:0:
192,192,118949,1,0,0:0:0:0:
320,192,119031,1,0,0:0:0:0:
448,192,119113,1,0,0:0:0:0:
192,192,119113,1,0,0:0:0:0:
64,192,119113,1,0,0:0:0:0:
320,192,119193,1,0,0:0:0:0:
448,192,119275,1,0,0:0:0:0:
64,192,119275,1,0,0:0:0:0:
192,192,119357,1,0,0:0:0:0:
320,192,119439,1,0,0:0:0:0:
448,192,119439,1,0,0:0:0:0:
64,192,119439,1,0,0:0:0:0:
192,192,119520,1,0,0:0:0:0:
448,192,119601,1,0,0:0:0:0:
320,192,119601,1,0,0:0:0:0:
64,192,119683,1,0,0:0:0:0:
448,192,119765,1,0,0:0:0:0:
192,192,119765,1,0,0:0:0:0:
320,192,119765,1,0,0:0:0:0:
64,192,119846,1,0,0:0:0:0:
320,192,119927,1,0,0:0:0:0:
192,192,119927,1,0,0:0:0:0:
448,192,120009,1,0,0:0:0:0:
192,192,120091,1,0,0:0:0:0:
320,192,120091,1,0,0:0:0:0:
64,192,120091,1,0,0:0:0:0:
448,192,120172,1,0,0:0:0:0:
64,192,120253,1,0,0:0:0:0:
320,192,120253,1,0,0:0:0:0:
192,192,120335,1,0,0:0:0:0:
448,192,120417,1,0,0:0:0:0:
320,192,120417,1,0,0:0:0:0:
64,192,120417,1,0,0:0:0:0:
192,192,120498,1,0,0:0:0:0:
64,192,120580,1,0,0:0:0:0:
448,192,120580,1,0,0:0:0:0:
192,192,120743,1,0,0:0:0:0:
448,192,120743,1,0,0:0:0:0:
64,192,120824,1,0,0:0:0:0:
320,192,120824,1,0,0:0:0:0:
192,192,120906,1,0,0:0:0:0:
448,192,120906,1,0,0:0:0:0:
64,192,120987,1,0,0:0:0:0:
320,192,120987,1,0,0:0:0:0:
448,192,121069,1,0,0:0:0:0:
192,192,121069,1,0,0:0:0:0:
320,192,121150,1,0,0:0:0:0:
192,192,121232,1,0,0:0:0:0:
448,192,121313,1,0,0:0:0:0:
320,192,121395,1,0,0:0:0:0:
64,192,121395,1,0,0:0:0:0:
192,192,121476,1,0,0:0:0:0:
320,192,121558,1,0,0:0:0:0:
192,192,121640,1,0,0:0:0:0:
448,192,121721,1,0,0:0:0:0:
320,192,121721,1,0,0:0:0:0:
64,192,121802,1,0,0:0:0:0:
448,192,121884,1,0,0:0:0:0:
192,192,121966,1,0,0:0:0:0:
320,192,122047,1,0,0:0:0:0:
64,192,122047,1,0,0:0:0:0:
448,192,122128,1,0,0:0:0:0:
192,192,122210,1,0,0:0:0:0:
64,192,122292,1,0,0:0:0:0:
192,192,122373,1,0,0:0:0:0:
320,192,122373,1,0,0:0:0:0:
448,192,122454,1,0,0:0:0:0:
64,192,122536,1,0,0:0:0:0:
320,192,122618,1,0,0:0:0:0:
192,192,122700,1,0,0:0:0:0:
448,192,122700,1,0,0:0:0:0:
64,192,122780,1,0,0:0:0:0:
320,192,122862,1,0,0:0:0:0:
192,192,122944,1,0,0:0:0:0:
448,192,123026,1,0,0:0:0:0:
320,192,123026,1,0,0:0:0:0:
64,192,123106,1,0,0:0:0:0:
448,192,123188,1,0,0:0:0:0:
192,192,123270,1,0,0:0:0:0:
320,192,123352,1,0,0:0:0:0:
448,192,123352,1,0,0:0:0:0:
64,192,123433,1,0,0:0:0:0:
320,192,123514,1,0,0:0:0:0:
192,192,123596,1,0,0:0:0:0:
320,192,123678,1,0,0:0:0:0:
64,192,123678,1,0,0:0:0:0:
448,192,123759,1,0,0:0:0:0:
192,192,123840,1,0,0:0:0:0:
64,192,123840,1,0,0:0:0:0:
320,192,123922,1,0,0:0:0:0:
192,192,124004,1,0,0:0:0:0:
448,192,124004,1,0,0:0:0:0:
64,192,124004,1,0,0:0:0:0:
320,192,124085,1,0,0:0:0:0:
192,192,124166,1,0,0:0:0:0:
448,192,124166,1,0,0:0:0:0:
64,192,124248,1,0,0:0:0:0:
192,192,124330,1,0,0:0:0:0:
320,192,124330,1,0,0:0:0:0:
448,192,124330,1,0,0:0:0:0:
64,192,124411,1,0,0:0:0:0:
192,192,124493,1,0,0:0:0:0:
320,192,124493,1,0,0:0:0:0:
448,192,124574,1,0,0:0:0:0:
192,192,124656,1,0,0:0:0:0:
320,192,124656,1,0,0:0:0:0:
64,192,124656,1,0,0:0:0:0:
448,192,124737,1,0,0:0:0:0:
192,192,124819,1,0,0:0:0:0:
64,192,124819,1,0,0:0:0:0:
320,192,124900,1,0,0:0:0:0:
448,192,124982,1,0,0:0:0:0:
192,192,124982,128,0,125634:0:0:0:0:
64,192,124982,128,0,125634:0:0:0:0:
320,192,125634,1,0,0:0:0:0:
448,192,125715,1,0,0:0:0:0:
192,192,125797,1,0,0:0:0:0:
320,192,125879,1,0,0:0:0:0:
192,192,125960,1,0,0:0:0:0:
64,192,125960,1,0,0:0:0:0:
320,192,126041,1,0,0:0:0:0:
448,192,126041,1,0,0:0:0:0:
192,192,126123,1,0,0:0:0:0:
64,192,126123,1,0,0:0:0:0:
320,192,126205,1,0,0:0:0:0:
448,192,126205,1,0,0:0:0:0:
192,192,126286,1,0,0:0:0:0:
64,192,126286,1,0,0:0:0:0:
320,192,126367,1,0,0:0:0:0:
448,192,126367,1,0,0:0:0:0:
448,192,126449,1,0,0:0:0:0:
192,192,126449,1,0,0:0:0:0:
64,192,126531,1,0,0:0:0:0:
320,192,126613,1,0,0:0:0:0:
192,192,126613,1,0,0:0:0:0:
320,192,126693,1,0,0:0:0:0:
448,192,126693,1,0,0:0:0:0:
192,192,126775,1,0,0:0:0:0:
64,192,126857,1,0,0:0:0:0:
448,192,126857,1,0,0:0:0:0:
320,192,126939,1,0,0:0:0:0:
64,192,126939,1,0,0:0:0:0:
448,192,127020,1,0,0:0:0:0:
320,192,127101,1,0,0:0:0:0:
192,192,127101,1,0,0:0:0:0:
192,192,127183,1,0,0:0:0:0:
64,192,127183,1,0,0:0:0:0:
320,192,127265,1,0,0:0:0:0:
448,192,127346,1,0,0:0:0:0:
192,192,127346,1,0,0:0:0:0:
448,192,127427,1,0,0:0:0:0:
64,192,127427,1,0,0:0:0:0:
192,192,127509,1,0,0:0:0:0:
320,192,127591,1,0,0:0:0:0:
448,192,127591,1,0,0:0:0:0:
64,192,127672,1,0,0:0:0:0:
192,192,127672,1,0,0:0:0:0:
64,192,127753,1,0,0:0:0:0:
448,192,127753,1,0,0:0:0:0:
320,192,127835,1,0,0:0:0:0:
192,192,127917,1,0,0:0:0:0:
448,192,127917,1,0,0:0:0:0:
192,192,127998,1,0,0:0:0:0:
64,192,127998,1,0,0:0:0:0:
320,192,128080,1,0,0:0:0:0:
64,192,128161,1,0,0:0:0:0:
448,192,128161,1,0,0:0:0:0:
64,192,128243,1,0,0:0:0:0:
320,192,128243,1,0,0:0:0:0:
192,192,128324,1,0,0:0:0:0:
448,192,128406,1,0,0:0:0:0:
320,192,128406,1,0,0:0:0:0:
448,192,128487,1,0,0:0:0:0:
64,192,128487,1,0,0:0:0:0:
320,192,128569,1,0,0:0:0:0:
64,192,128650,1,0,0:0:0:0:
192,192,128650,1,0,0:0:0:0:
448,192,128732,1,0,0:0:0:0:
192,192,128732,1,0,0:0:0:0:
448,192,128813,1,0,0:0:0:0:
320,192,128813,1,0,0:0:0:0:
64,192,128895,1,0,0:0:0:0:
192,192,128895,1,0,0:0:0:0:
448,192,128976,1,0,0:0:0:0:
320,192,128976,1,0,0:0:0:0:
64,192,129058,1,0,0:0:0:0:
320,192,129058,1,0,0:0:0:0:
192,192,129140,1,0,0:0:0:0:
448,192,129221,1,0,0:0:0:0:
64,192,129221,1,0,0:0:0:0:
64,192,129302,1,0,0:0:0:0:
320,192,129302,1,0,0:0:0:0:
448,192,129384,1,0,0:0:0:0:
192,192,129466,1,0,0:0:0:0:
320,192,129466,1,0,0:0:0:0:
192,192,129547,1,0,0:0:0:0:
64,192,129547,1,0,0:0:0:0:
448,192,129628,1,0,0:0:0:0:
64,192,129710,1,0,0:0:0:0:
320,192,129710,1,0,0:0:0:0:
64,192,129792,1,0,0:0:0:0:
448,192,129792,1,0,0:0:0:0:
192,192,129873,1,0,0:0:0:0:
320,192,129954,1,0,0:0:0:0:
64,192,129954,1,0,0:0:0:0:
320,192,130036,1,0,0:0:0:0:
448,192,130036,1,0,0:0:0:0:
192,192,130118,1,0,0:0:0:0:
448,192,130200,1,0,0:0:0:0:
64,192,130200,1,0,0:0:0:0:
320,192,130253,1,0,0:0:0:0:
192,192,130308,1,0,0:0:0:0:
448,192,130362,1,0,0:0:0:0:
64,192,130417,1,0,0:0:0:0:
320,192,130471,1,0,0:0:0:0:
448,192,130526,1,0,0:0:0:0:
192,192,130580,1,0,0:0:0:0:
320,192,130634,1,0,0:0:0:0:
64,192,130688,1,0,0:0:0:0:
448,192,130743,1,0,0:0:0:0:
320,192,130797,1,0,0:0:0:0:
192,192,130852,1,0,0:0:0:0:
64,192,130852,1,0,0:0:0:0:
64,192,130933,1,0,0:0:0:0:
448,192,130933,1,0,0:0:0:0:
192,192,131014,1,0,0:0:0:0:
320,192,131014,1,0,0:0:0:0:
192,192,131096,1,0,0:0:0:0:
64,192,131096,1,0,0:0:0:0:
320,192,131178,1,0,0:0:0:0:
448,192,131178,1,0,0:0:0:0:
192,192,131259,1,0,0:0:0:0:
64,192,131259,1,0,0:0:0:0:
320,192,131340,1,0,0:0:0:0:
448,192,131340,1,0,0:0:0:0:
192,192,131422,1,0,0:0:0:0:
64,192,131422,1,0,0:0:0:0:
320,192,131504,1,0,0:0:0:0:
448,192,131504,1,0,0:0:0:0:
192,192,131585,1,0,0:0:0:0:
64,192,131585,1,0,0:0:0:0:
64,192,131666,1,0,0:0:0:0:
320,192,131666,1,0,0:0:0:0:
448,192,131748,1,0,0:0:0:0:
192,192,131830,1,0,0:0:0:0:
320,192,131830,1,0,0:0:0:0:
192,192,131911,1,0,0:0:0:0:
64,192,131911,1,0,0:0:0:0:
320,192,131993,1,0,0:0:0:0:
448,192,132074,1,0,0:0:0:0:
64,192,132074,1,0,0:0:0:0:
192,192,132156,1,0,0:0:0:0:
448,192,132156,1,0,0:0:0:0:
64,192,132237,1,0,0:0:0:0:
192,192,132319,1,0,0:0:0:0:
320,192,132319,1,0,0:0:0:0:
320,192,132400,1,0,0:0:0:0:
448,192,132400,1,0,0:0:0:0:
192,192,132482,1,0,0:0:0:0:
64,192,132563,1,0,0:0:0:0:
320,192,132563,1,0,0:0:0:0:
64,192,132645,1,0,0:0:0:0:
448,192,132645,1,0,0:0:0:0:
320,192,132726,1,0,0:0:0:0:
192,192,132808,1,0,0:0:0:0:
64,192,132808,1,0,0:0:0:0:
448,192,132889,1,0,0:0:0:0:
320,192,132889,1,0,0:0:0:0:
448,192,132971,1,0,0:0:0:0:
64,192,132971,1,0,0:0:0:0:
192,192,133053,1,0,0:0:0:0:
320,192,133134,1,0,0:0:0:0:
64,192,133134,1,0,0:0:0:0:
320,192,133215,1,0,0:0:0:0:
448,192,133215,1,0,0:0:0:0:
192,192,133297,1,0,0:0:0:0:
448,192,133379,1,0,0:0:0:0:
64,192,133379,1,0,0:0:0:0:
448,192,133460,1,0,0:0:0:0:
192,192,133460,1,0,0:0:0:0:
320,192,133541,1,0,0:0:0:0:
64,192,133623,1,0,0:0:0:0:
192,192,133623,1,0,0:0:0:0:
64,192,133705,1,0,0:0:0:0:
448,192,133705,1,0,0:0:0:0:
192,192,133786,1,0,0:0:0:0:
448,192,133867,1,0,0:0:0:0:
320,192,133867,1,0,0:0:0:0:
64,192,133949,1,0,0:0:0:0:
320,192,133949,1,0,0:0:0:0:
64,192,134031,1,0,0:0:0:0:
192,192,134031,1,0,0:0:0:0:
448,192,134113,1,0,0:0:0:0:
320,192,134113,1,0,0:0:0:0:
64,192,134193,1,0,0:0:0:0:
192,192,134193,1,0,0:0:0:0:
448,192,134275,1,0,0:0:0:0:
192,192,134275,1,0,0:0:0:0:
320,192,134357,1,0,0:0:0:0:
64,192,134439,1,0,0:0:0:0:
448,192,134439,1,0,0:0:0:0:
448,192,134520,1,0,0:0:0:0:
192,192,134520,1,0,0:0:0:0:
64,192,134601,1,0,0:0:0:0:
320,192,134683,1,0,0:0:0:0:
192,192,134683,1,0,0:0:0:0:
320,192,134765,1,0,0:0:0:0:
448,192,134765,1,0,0:0:0:0:
64,192,134846,1,0,0:0:0:0:
448,192,134927,1,0,0:0:0:0:
192,192,134927,1,0,0:0:0:0:
448,192,135009,1,0,0:0:0:0:
64,192,135009,1,0,0:0:0:0:
320,192,135091,1,0,0:0:0:0:
192,192,135172,1,0,0:0:0:0:
448,192,135172,1,0,0:0:0:0:
192,192,135253,1,0,0:0:0:0:
64,192,135253,1,0,0:0:0:0:
320,192,135335,1,0,0:0:0:0:
64,192,135417,1,0,0:0:0:0:
448,192,135417,1,0,0:0:0:0:
192,192,135471,1,0,0:0:0:0:
320,192,135526,1,0,0:0:0:0:
64,192,135580,1,0,0:0:0:0:
448,192,135634,1,0,0:0:0:0:
192,192,135688,1,0,0:0:0:0:
64,192,135743,1,0,0:0:0:0:
320,192,135797,1,0,0:0:0:0:
192,192,135852,1,0,0:0:0:0:
448,192,135906,1,0,0:0:0:0:
64,192,135960,1,0,0:0:0:0:
192,192,136014,1,0,0:0:0:0:
320,192,136069,1,0,0:0:0:0:
448,192,136069,1,0,0:0:0:0:
448,192,136150,1,0,0:0:0:0:
64,192,136150,1,0,0:0:0:0:
320,192,136232,1,0,0:0:0:0:
192,192,136232,1,0,0:0:0:0:
320,192,136313,1,0,0:0:0:0:
448,192,136313,1,0,0:0:0:0:
192,192,136395,1,0,0:0:0:0:
64,192,136395,1,0,0:0:0:0:
320,192,136476,1,0,0:0:0:0:
448,192,136476,1,0,0:0:0:0:
192,192,136558,1,0,0:0:0:0:
64,192,136558,1,0,0:0:0:0:
320,192,136640,1,0,0:0:0:0:
448,192,136721,1,0,0:0:0:0:
192,192,136721,1,0,0:0:0:0:
64,192,136721,1,0,0:0:0:0:
