osu file format v14

[General]
AudioFilename: audio.mp3
AudioLeadIn: 0
PreviewTime: -1
Countdown: 1
SampleSet: Normal
StackLeniency: 0.7
Mode: 0
LetterboxInBreaks: 0
WidescreenStoryboard: 0

[Editor]
Bookmarks: 5462,5692,7308,7539,8000,13077,13308,14462,15385,18154,19077,20923,21154,21385,21616,21731,21846,22308,22769,23000,23231,23692,23923,24616,25539,25769,26000,26231,26462,26692,26923,27385,27616,27846,29692,29923,30039,30154,30385,30616,31077,31308,31539,32000,32462,32923,33154,33385,33616,33846,35692,36385,36500,36616,36846,36962,37077,37539,38692,38923,40539,40769,44000,44231,44462,44692,44808,44923,46077,46308,47923,48154,48616,48846,49077,49539,49769,50000,50462,50692,50923,51385,51616,51846,52077,52308,52539,52769,53231,53462,53692,53923,54154,54385,54616,55308,55539,55769,56000,56462,56923,57385,57616,57846,58077,58308,58539,58769,59346,59692,60616,61077,61539,62462,62923,63154,63269,63385,64539,64769,65692,66154,66385,66616,67539,68231,68462,69385,69846,69962,70077,70308,70539,70654,70769,73539,76308,76769,77231,77692,78154,78616,79077,79539,80000,80462,80923,81385,81846,82308,82769,83231,83692
DistanceSpacing: 1
BeatDivisor: 4
GridSize: 8
TimelineZoom: 2.4

[Metadata]
Title:Tenshi-teki Kenpou Yon-jou (TV Size)
TitleUnicode:Tenshi-teki Kenpou Yon-jou (TV Size)
Artist:Tenshi (CV: Matsumoto Tamaki)
ArtistUnicode:Tenshi (CV: Matsumoto Tamaki)
Creator:-YoYo-
Version:Kokonattsu!
Source:
Tags:
BeatmapID:1745872
BeatmapSetID:833471

[Difficulty]
HPDrainRate:4.5
CircleSize:4.5
OverallDifficulty:7
ApproachRate:8.5
SliderMultiplier:2.1
SliderTickRate:1

[Events]
//Background and Video events
0,0,"766210.jpg",0,0
//Break Periods
//Storyboard Layer 0 (Background)
//Storyboard Layer 1 (Fail)
//Storyboard Layer 2 (Pass)
//Storyboard Layer 3 (Foreground)
//Storyboard Sound Samples

[TimingPoints]
616,461.538461538462,4,1,0,80,1,0
22769,-83.3333333333333,4,1,0,100,0,0
22885,-83.3333333333333,4,1,0,5,0,0
23000,-83.3333333333333,4,1,0,100,0,0
23116,-83.3333333333333,4,1,0,5,0,0
23231,-83.3333333333333,4,1,0,100,0,0
23692,-83.3333333333333,4,1,0,100,0,0
23808,-83.3333333333333,4,1,0,5,0,0
23923,-83.3333333333333,4,1,0,100,0,0
24039,-83.3333333333333,4,1,0,5,0,0
24154,-100,4,1,0,80,0,0
26462,-83.3333333333333,4,1,0,100,0,0
26577,-83.3333333333333,4,1,0,5,0,0
26692,-83.3333333333333,4,1,0,100,0,0
26808,-83.3333333333333,4,1,0,5,0,0
26923,-100,4,1,0,80,0,0
27385,-83.3333333333333,4,1,0,100,0,0
27500,-83.3333333333333,4,1,0,5,0,0
27616,-83.3333333333333,4,1,0,100,0,0
27731,-83.3333333333333,4,1,0,5,0,0
27846,-100,4,1,0,80,0,0
34308,-83.3333333333333,4,1,0,80,0,0
34768,-76.9230769230769,4,1,0,80,0,0
35231,-71.4285714285714,4,1,0,80,0,0
35692,-66.6666666666667,4,1,0,80,0,0
36154,-100,4,1,0,80,0,0
37539,-83.3333333333333,4,1,0,80,0,1
42846,-71.4285714285714,4,1,0,80,0,1
43308,-83.3333333333333,4,1,0,80,0,1
48154,-83.3333333333333,4,1,0,80,0,0
71231,-83.3333333333333,4,1,0,50,0,0
73539,-83.3333333333333,4,1,0,100,0,0
76308,-83.3333333333333,4,1,0,90,0,0
76769,-83.3333333333333,4,1,0,80,0,0
77231,-83.3333333333333,4,1,0,75,0,0
77692,-83.3333333333333,4,1,0,70,0,0
78154,-83.3333333333333,4,1,0,65,0,0
78616,-83.3333333333333,4,1,0,60,0,0
79077,-83.3333333333333,4,1,0,55,0,0
79539,-83.3333333333333,4,1,0,50,0,0
80000,-83.3333333333333,4,1,0,45,0,0
80462,-83.3333333333333,4,1,0,40,0,0
80923,-83.3333333333333,4,1,0,35,0,0
81385,-83.3333333333333,4,1,0,30,0,0
81846,-83.3333333333333,4,1,0,25,0,0
82308,-83.3333333333333,4,1,0,20,0,0
82769,-83.3333333333333,4,1,0,15,0,0
83231,-83.3333333333333,4,1,0,10,0,0
83692,-83.3333333333333,4,1,0,5,0,0

[HitObjects]
112,192,616,5,4,0:0:0:0:
256,192,846,1,0,3:0:0:0:
130,119,1077,1,0,3:0:0:0:
256,192,1308,1,0,3:0:0:0:
184,66,1539,1,0,3:0:0:0:
256,192,1769,5,8,0:0:0:0:
256,192,2000,5,8,0:0:0:0:
256,47,2231,5,0,3:0:0:0:
256,192,2462,1,0,3:0:0:0:
328,66,2692,1,0,3:0:0:0:
256,192,2923,1,0,3:0:0:0:
376,116,3154,1,0,3:0:0:0:
256,192,3385,1,0,3:0:0:0:
400,192,3616,5,8,0:0:0:0:
400,192,3846,5,8,0:0:0:0:
274,264,4077,5,0,3:0:0:0:
419,264,4308,1,0,3:0:0:0:
274,264,4539,1,0,3:0:0:0:
396,332,4769,1,0,3:0:0:0:
274,264,5000,1,0,3:0:0:0:
150,336,5231,1,0,3:0:0:0:
274,264,5462,5,8,0:0:0:0:
274,264,5692,5,8,0:0:0:0:
130,262,5923,5,0,3:0:0:0:
274,264,6154,1,0,3:0:0:0:
148,191,6385,1,0,3:0:0:0:
274,264,6616,1,0,3:0:0:0:
201,139,6846,1,0,3:0:0:0:
274,264,7077,1,0,3:0:0:0:
273,119,7308,5,8,0:0:0:0:
273,119,7539,5,8,0:0:0:0:
274,264,7769,5,0,0:0:0:0:
128,344,8000,6,0,P|104:297|99:245,1,105,0|0,2:0|2:0,2:0:0:0:
104,140,8462,2,0,P|152:158|184:199,1,105,8|0,2:0|2:0,2:0:0:0:
224,296,8923,2,0,P|275:303|323:284,1,105,0|0,2:0|2:0,2:0:0:0:
424,192,9385,1,8,2:0:0:0:
279,146,9616,1,0,2:0:0:0:
424,192,9846,6,0,P|409:141|374:103,1,105,0|0,2:0|2:0,2:0:0:0:
309,49,10308,2,0,P|273:87|256:136,1,105,8|0,2:0|2:0,2:0:0:0:
256,272,10769,5,0,3:0:0:0:
387,272,11000,1,0,3:0:0:0:
256,272,11231,1,8,2:0:0:0:
369,206,11462,1,0,3:0:0:0:
433,93,11692,6,0,P|386:73|333:74,1,105,0|0,2:0|2:0,2:0:0:0:
221,133,12154,2,0,P|185:171|169:220,1,105,8|0,2:0|2:0,2:0:0:0:
136,321,12616,2,0,P|89:296|56:241,1,105,0|0,3:0|3:0,3:0:0:0:
37,107,13077,1,8,2:0:0:0:
145,165,13308,1,0,3:0:0:0:
208,267,13539,6,0,P|259:260|299:227,1,105,0|0,2:0|2:0,2:0:0:0:
300,90,14000,2,0,P|350:101|388:137,1,105,8|0,2:0|2:0,2:0:0:0:
392,274,14462,5,0,3:0:0:0:
260,274,14692,1,0,3:0:0:0:
374,339,14923,1,8,2:0:0:0:
260,274,15154,1,0,3:0:0:0:
376,202,15385,6,0,P|379:151|355:105,1,105,0|0,2:0|2:0,2:0:0:0:
258,8,15846,2,0,P|213:34|190:80,1,105,8|0,2:0|2:0,2:0:0:0:
287,177,16308,2,0,P|264:223|219:251,1,105,0|0,2:0|2:0,2:0:0:0:
104,144,16769,1,8,2:0:0:0:
104,144,17000,1,0,3:0:0:0:
105,265,17231,6,0,P|115:316|154:350,1,105,0|0,2:0|2:0,2:0:0:0:
292,350,17692,2,0,P|282:298|243:265,1,105,8|0,2:0|2:0,2:0:0:0:
92,160,18154,5,0,3:0:0:0:
205,94,18385,1,0,3:0:0:0:
92,160,18616,1,8,2:0:0:0:
223,160,18846,1,0,3:0:0:0:
327,80,19077,6,0,P|376:94|415:130,1,105,0|0,2:0|2:0,2:0:0:0:
390,222,19539,2,0,P|362:178|317:150,1,105,8|0,2:0|2:0,2:0:0:0:
223,160,20000,2,0,P|250:204|294:232,1,105,0|0,2:0|2:0,2:0:0:0:
368,291,20462,2,0,P|321:315|269:316,1,105,8|0,2:0|2:0,2:0:0:0:
107,276,20923,5,8,3:0:0:0:
294,158,21154,1,8,3:0:0:0:
67,164,21385,1,8,3:0:0:0:
255,44,21616,1,8,2:0:0:0:
255,44,21731,1,8,3:0:0:0:
255,44,21846,1,8,3:0:0:0:
437,325,22308,5,4,0:0:0:0:
13,294,22769,6,0,P|39:276|59:252,1,62.9999980773926,4|0,2:0|2:0,2:0:0:0:
0,207,23000,2,0,P|20:183|46:165,1,62.9999980773926,4|0,2:0|2:0,2:0:0:0:
135,161,23231,5,0,0:0:0:0:
462,36,23692,6,0,P|476:64|481:94,1,62.9999980773926,4|0,2:0|2:0,2:0:0:0:
407,103,23923,2,0,P|412:133|427:161,1,62.9999980773926,4|0,2:0|2:0,2:0:0:0:
501,212,24154,5,4,0:0:0:0:
89,41,24616,6,0,P|120:82|123:134,1,105,0|0,2:0|2:0,2:0:0:0:
43,113,25077,2,0,P|46:164|77:206,1,105,8|0,2:0|2:0,2:0:0:0:
157,235,25539,6,0,P|119:270|69:284,2,105,0|0|8,3:0|3:0|2:0,3:0:0:0:
206,142,26231,1,4,3:0:0:0:
348,271,26462,6,0,P|336:300|334:331,1,62.9999980773926,4|0,2:0|2:0,2:0:0:0:
403,313,26693,2,0,P|415:284|418:253,1,62.9999980773926,4|0,2:0|2:0,2:0:0:0:
375,180,26923,5,4,0:0:0:0:
114,77,27385,6,0,P|102:106|100:137,1,62.9999980773926,4|0,2:0|2:0,2:0:0:0:
86,295,27616,2,0,P|98:266|101:235,1,62.9999980773926,4|0,2:0|2:0,2:0:0:0:
99,188,27846,5,4,0:0:0:0:
221,59,28308,6,0,P|269:78|301:124,1,105,0|0,2:0|2:0,2:0:0:0:
215,163,28769,2,0,P|255:195|306:199,1,105,8|0,2:0|2:0,2:0:0:0:
439,182,29231,5,4,3:0:0:0:
299,325,29462,1,4,3:0:0:0:
439,182,29692,1,8,2:0:0:0:
249,235,29923,1,4,3:0:0:0:
249,235,30039,1,4,3:0:0:0:
249,235,30154,5,4,2:0:0:0:
56,89,30385,1,4,2:0:0:0:
294,130,30616,1,4,0:0:0:0:
119,303,31077,5,4,2:0:0:0:
189,117,31308,1,4,2:0:0:0:
376,52,31539,1,4,0:0:0:0:
472,330,32000,6,0,P|416:323|370:271,1,105,0|0,2:0|2:0,2:0:0:0:
452,247,32462,2,0,P|411:214|360:209,1,105,0|0,2:0|2:0,2:0:0:0:
208,204,32923,5,0,3:0:0:0:
401,127,33154,1,0,3:0:0:0:
192,124,33385,1,8,2:0:0:0:
401,127,33616,6,4,L|436:87,2,52.5
271,293,34077,1,0,3:0:0:0:
184,184,34308,6,0,P|184:244|148:308,1,125.999996154785,8|0,2:0|2:0,2:0:0:0:
142,156,34769,2,0,P|76:156|36:104,1,136.499993751526,0|0,2:0|2:0,2:3:0:0:
182,114,35231,2,0,P|181:45|247:29,1,146.999995513916,8|0,2:0|2:0,2:3:0:0:
217,156,35692,2,0,P|279:155|251:223,1,157.500006008148,4|0,2:0|2:0,2:3:0:0:
76,316,36154,5,8,2:0:0:0:
224,240,36385,5,4,3:0:0:0:
223,187,36500,1,4,3:0:0:0:
197,143,36615,1,4,3:0:0:0:
50,130,36846,5,4,3:0:0:0:
75,85,36961,1,4,3:0:0:0:
119,59,37076,1,4,3:0:0:0:
320,144,37308,5,8,3:0:0:0:
328,339,37539,6,4,P|265:338|214:303,1,125.999996154785,4|4,2:0|2:0,2:0:0:0:
119,284,38000,2,0,P|153:231|211:209,1,125.999996154785,8|0,2:0|2:0,2:0:0:0:
376,212,38462,1,0,3:0:0:0:
237,131,38692,2,0,P|214:107|186:95,2,62.9999980773926,8|0|8,2:0|2:0|2:0,2:0:0:0:
236,336,39154,6,0,P|173:331|118:301,1,125.999996154785,0|0,2:0|2:0,2:0:0:0:
32,244,39616,2,0,P|88:216|150:215,1,125.999996154785,0|8,2:0|2:0,2:0:0:0:
296,264,40077,1,0,3:0:0:0:
440,216,40308,1,0,3:0:0:0:
313,141,40539,2,0,P|339:120|370:114,2,62.9999980773926,8|0|8,2:0|2:0|2:0,2:0:0:0:
225,308,41000,6,0,P|165:289|123:243,1,125.999996154785,0|0,2:0|2:0,2:0:0:0:
32,208,41462,2,0,P|74:162|136:148,1,125.999996154785,0|8,2:0|2:0,2:0:0:0:
284,160,41923,1,0,3:0:0:0:
161,229,42154,2,0,P|132:237|112:263,2,62.9999980773926,8|0|8,3:0|3:0|3:0,3:0:0:0:
286,265,42616,5,8,2:0:0:0:
396,193,42846,2,0,P|360:62|225:71,1,293.999991027832,2|0,3:0|3:0,3:0:0:0:
188,168,43539,1,8,2:0:0:0:
307,313,43769,1,0,3:0:0:0:
122,271,44000,6,8,P|91:276|61:267,2,62.9999980773926,8|8|8,3:0|3:0|3:0,3:0:0:0:
289,227,44462,1,8,2:0:0:0:
432,160,44693,1,8,3:0:0:0:
434,209,44808,1,8,3:0:0:0:
410,253,44923,1,4,1:0:0:0:
231,327,45154,5,0,3:0:0:0:
63,228,45385,2,0,P|99:177|152:144,1,125.999996154785,8|0,2:0|2:0,2:0:0:0:
317,51,45846,1,0,3:0:0:0:
216,209,46077,2,0,P|194:236|166:247,2,62.9999980773926,8|0|8,2:0|2:0|2:0,2:0:0:0:
341,83,46539,6,0,P|373:136|379:198,1,125.999996154785,0|0,2:0|2:0,2:0:0:0:
260,329,47000,1,0,3:0:0:0:
436,329,47231,1,8,2:0:0:0:
311,204,47462,1,0,3:0:0:0:
436,329,47692,1,0,3:0:0:0:
260,329,47923,2,0,P|229:310|215:284,2,62.9999980773926,8|0|8,2:0|2:0|2:0,2:0:0:0:
463,258,48385,5,4,3:0:0:0:
338,133,48616,1,4,3:0:0:0:
162,133,48846,1,4,3:0:0:0:
286,257,49077,1,4,3:0:0:0:
72,328,49539,5,4,3:0:0:0:
254,147,49769,1,4,3:0:0:0:
432,325,50000,1,4,3:0:0:0:
71,56,50462,5,4,3:0:0:0:
192,265,50692,1,4,3:0:0:0:
432,325,50923,1,4,3:0:0:0:
200,104,51385,5,4,3:0:0:0:
452,104,51616,1,4,3:0:0:0:
274,281,51846,2,8,P|214:291|150:256,1,125.999996154785,0|0,0:0|0:0,3:0:0:0:
336,85,52308,1,4,1:0:0:0:
336,337,52539,1,4,3:0:0:0:
336,85,52769,1,4,3:0:0:0:
432,325,53231,5,4,3:0:0:0:
192,265,53462,1,4,3:0:0:0:
70,56,53692,2,8,P|133:53|192:74,1,125.999996154785,8|8,3:0|3:0,3:0:0:0:
371,253,54154,1,4,3:0:0:0:
118,253,54385,1,4,3:0:0:0:
296,74,54616,1,4,3:0:0:0:
336,328,55308,5,0,0:0:0:0:
290,157,55539,1,4,3:0:0:0:
116,203,55769,1,4,3:0:0:0:
249,69,56000,6,0,P|309:54|371:66,1,125.999996154785,4|0,2:0|2:0,2:0:0:0:
465,77,56462,2,0,P|435:135|376:160,1,125.999996154785,0|0,2:0|2:0,2:0:0:0:
295,117,56923,2,0,P|289:178|324:235,1,125.999996154785,0|8,2:0|2:0,2:0:0:0:
422,312,57385,1,8,2:0:0:0:
295,316,57616,6,0,P|233:304|175:278,2,125.999996154785,0|0|0,2:0|2:0|2:0,2:0:0:0:
419,229,58308,1,0,3:0:0:0:
267,229,58539,1,0,3:0:0:0:
372,120,58769,2,0,L|400:91,8,31.4999990386963,0|0|0|0|8|0|0|0|8,2:0|2:0|2:0|2:0|2:0|2:0|2:0|2:0|2:0,2:0:0:0:
232,176,59462,5,0,3:0:0:0:
117,75,59692,2,8,B|55:119|79:185,1,125.999996154785,0|0,2:0|2:0,2:0:0:0:
158,152,60154,2,8,P|165:214|128:263,1,125.999996154785,8|0,2:0|2:0,2:0:0:0:
26,331,60616,2,0,L|-5:312,8,31.4999990386963,0|0|0|0|0|0|0|0|2,2:0|2:0|2:0|2:0|2:0|2:0|2:0|2:0|2:0,2:0:0:0:
181,303,61308,5,0,3:0:0:0:
323,235,61539,2,0,P|310:174|261:135,1,125.999996154785,0|0,2:0|2:0,2:0:0:0:
167,161,62000,2,0,P|174:99|214:52,1,125.999996154785,8|0,2:0|2:0,2:0:0:0:
366,52,62462,2,0,P|378:42|388:24,8,31.4999990386963,0|0|0|0|8|0|0|0|8,2:0|2:0|2:0|2:0|2:0|2:0|2:0|2:0|2:0,2:0:0:0:
256,169,63154,5,0,0:0:0:0:
242,211,63269,1,0,0:0:0:0:
251,255,63384,1,4,1:0:0:0:
392,208,63616,5,0,3:0:0:0:
304,328,63846,2,0,P|232:336|184:304,1,125.999996154785,8|0,2:0|2:0,2:0:0:0:
81,201,64308,1,0,3:0:0:0:
188,93,64539,2,0,P|201:65|235:31,2,62.9999980773926,8|0|8,2:0|2:0|2:0,2:0:0:0:
187,231,65000,6,0,P|249:219|294:177,1,125.999996154785,0|0,2:0|2:0,2:0:0:0:
402,70,65462,1,0,3:0:0:0:
362,218,65692,1,8,2:0:0:0:
320,72,65923,1,0,3:0:0:0:
435,180,66154,2,0,L|457:202,8,31.4999990386963,0|0|0|0|8|0|0|0|8,2:0|2:0|2:0|2:0|2:0|2:0|2:0|2:0|2:0,2:0:0:0:
334,292,66846,5,0,3:0:0:0:
173,342,67077,2,0,P|145:285|143:223,1,125.999996154785,0|0,2:0|2:0,2:0:0:0:
204,84,67539,2,0,P|231:140|233:202,1,125.999996154785,8|0,2:0|2:0,2:0:0:0:
173,342,68000,1,0,3:0:0:0:
65,234,68231,2,0,P|35:224|10:204,2,62.9999980773926,8|0|8,2:0|2:0|2:0,2:0:0:0:
216,234,68692,1,0,3:0:0:0:
322,125,68923,2,0,P|354:179|361:242,1,125.999996154785,0|0,2:0|2:0,2:0:0:0:
365,336,69385,2,0,P|429:307|459:250,1,125.999996154785,8|0,2:0|2:0,2:0:0:0:
447,102,69846,5,4,3:0:0:0:
415,69,69961,1,4,3:0:0:0:
371,59,70076,1,4,3:0:0:0:
232,132,70308,1,4,0:0:0:0:
155,232,70539,1,4,3:0:0:0:
111,222,70654,1,4,3:0:0:0:
79,189,70769,1,4,3:0:0:0:
256,48,71231,5,0,2:0:0:0:
256,176,71462,1,0,2:0:0:0:
256,304,71692,1,0,2:0:0:0:
384,304,71923,1,0,2:0:0:0:
256,304,72154,1,0,2:0:0:0:
128,304,72385,1,0,2:0:0:0:
256,304,72616,1,0,2:0:0:0:
256,192,73539,12,0,83692,0:0:0:0:
