osu file format v14

[General]
AudioFilename: audio.mp3
AudioLeadIn: 0
PreviewTime: 37413
Countdown: 0
SampleSet: Normal
StackLeniency: 0.7
Mode: 1
LetterboxInBreaks: 0
WidescreenStoryboard: 0

[Editor]
Bookmarks: 606,7990,22759,37529,48606,55990,73529,79990
DistanceSpacing: 1
BeatDivisor: 2
GridSize: 32
TimelineZoom: 1

[Metadata]
Title:Tenshi Teki Kenpou Yonjou (TV Size)
TitleUnicode:天子的憲法四条 (TV Size)
Artist:Tenshi (CV: Matsumoto Tamaki)
ArtistUnicode:天子 (CV: 松元環季)
Creator:Reed_405
Version:Roger's Futsuu
Source:コードギアス 反逆のルルーシュ R2
Tags:jpop j-pop 黒石ひとみ Kuroishi Hitomi 中野定博 nakano sadahiro album single small nature anime japanese novelty Lelouch of the Rebellion R2 tianzi Jiang Lihua Code Geass ][ -GH- ][ Roger Luqua
BeatmapID:2077760
BeatmapSetID:992637

[Difficulty]
HPDrainRate:8
CircleSize:2
OverallDifficulty:3
ApproachRate:0
SliderMultiplier:1.4
SliderTickRate:1

[Events]
//Background and Video events
0,0,"thumb-1920-900196.jpg",0,50
//Break Periods
//Storyboard Layer 0 (Background)
//Storyboard Layer 1 (Fail)
//Storyboard Layer 2 (Pass)
//Storyboard Layer 3 (Foreground)
//Storyboard Layer 4 (Overlay)
//Storyboard Sound Samples

[TimingPoints]
611,461.538461538462,4,1,0,60,1,0
611,-107.52688172043,4,1,0,60,0,0
7995,-107.52688172043,4,1,0,70,0,0
37534,-107.52688172043,4,1,0,80,0,1
55995,461.538461538462,4,1,0,80,1,0
55995,-107.52688172043,4,1,0,80,0,0
70764,-107.52688172043,4,1,0,80,0,0
70995,-107.52688172043,4,1,0,40,0,0
73533,-107.52688172043,4,1,0,50,0,0
74456,-107.52688172043,4,1,0,43,0,0
75379,-107.52688172043,4,1,0,36,0,0
76302,-107.52688172043,4,1,0,30,0,0
77225,-107.52688172043,4,1,0,23,0,0
78148,-107.52688172043,4,1,0,16,0,0
79071,-107.52688172043,4,1,0,10,0,0

[HitObjects]
32,352,7995,5,0,0:0:0:0:
32,352,8457,1,0,0:0:0:0:
32,352,8918,1,8,0:0:0:0:
32,352,9611,1,0,0:0:0:0:
32,352,9841,1,8,0:0:0:0:
32,352,10303,1,8,0:0:0:0:
32,352,10764,1,0,0:0:0:0:
32,352,11687,1,0,0:0:0:0:
32,352,11918,1,0,0:0:0:0:
32,352,12149,1,8,0:0:0:0:
32,352,12611,1,0,0:0:0:0:
32,352,13072,1,0,0:0:0:0:
32,352,13534,1,8,0:0:0:0:
32,352,13995,1,8,0:0:0:0:
32,352,14457,1,0,0:0:0:0:
32,352,15380,1,8,0:0:0:0:
32,352,15841,1,0,0:0:0:0:
32,352,16303,1,8,0:0:0:0:
32,352,16995,1,0,0:0:0:0:
32,352,17226,1,8,0:0:0:0:
32,352,17687,1,8,0:0:0:0:
32,352,18149,1,0,0:0:0:0:
32,352,19072,1,0,0:0:0:0:
32,352,19534,1,8,0:0:0:0:
32,352,19764,1,8,0:0:0:0:
32,352,19995,1,0,0:0:0:0:
32,352,20457,1,0,0:0:0:0:
32,352,20918,1,8,0:0:0:0:
32,352,22764,1,4,0:0:0:0:
32,352,22995,1,4,0:0:0:0:
32,352,23687,1,12,0:0:0:0:
32,352,23918,1,12,0:0:0:0:
32,352,24611,1,0,0:0:0:0:
32,352,25072,1,8,0:0:0:0:
32,352,25303,1,8,0:0:0:0:
32,352,25534,1,0,0:0:0:0:
32,352,25995,1,8,0:0:0:0:
32,352,26457,1,4,0:0:0:0:
32,352,26687,1,4,0:0:0:0:
32,352,27380,1,12,0:0:0:0:
32,352,27611,1,12,0:0:0:0:
32,352,28303,1,0,0:0:0:0:
32,352,28764,1,8,0:0:0:0:
32,352,28995,1,0,0:0:0:0:
32,352,29226,1,0,0:0:0:0:
32,352,29687,1,8,0:0:0:0:
32,352,30149,1,4,0:0:0:0:
32,352,30380,1,4,0:0:0:0:
32,352,31072,1,12,0:0:0:0:
32,352,31303,1,12,0:0:0:0:
32,352,31995,1,0,0:0:0:0:
32,352,32457,1,8,0:0:0:0:
32,352,32687,1,8,0:0:0:0:
32,352,32918,1,0,0:0:0:0:
32,352,33380,1,8,0:0:0:0:
32,352,33841,1,4,0:0:0:0:
32,352,34303,1,0,0:0:0:0:
32,352,34764,1,8,0:0:0:0:
32,352,35226,1,0,0:0:0:0:
32,352,35687,1,12,0:0:0:0:
32,352,36149,1,8,0:0:0:0:
32,352,36380,1,0,0:0:0:0:
32,352,36611,1,8,0:0:0:0:
32,352,37072,1,0,0:0:0:0:
32,352,37534,1,12,0:0:0:0:
32,352,37995,1,0,0:0:0:0:
32,352,38457,1,8,0:0:0:0:
32,352,38687,1,8,0:0:0:0:
32,352,39149,1,0,0:0:0:0:
32,352,39841,1,8,0:0:0:0:
32,352,40303,1,0,0:0:0:0:
32,352,40534,1,0,0:0:0:0:
32,352,40995,1,8,0:0:0:0:
32,352,41687,1,0,0:0:0:0:
32,352,42149,1,8,0:0:0:0:
32,352,42380,1,0,0:0:0:0:
32,352,42841,1,8,0:0:0:0:
32,352,43303,1,0,0:0:0:0:
32,352,43534,1,8,0:0:0:0:
32,352,43764,1,8,0:0:0:0:
32,352,43995,1,0,0:0:0:0:
32,352,44457,1,0,0:0:0:0:
32,352,44918,1,12,0:0:0:0:
32,352,45380,1,0,0:0:0:0:
32,352,45841,1,8,0:0:0:0:
32,352,46072,1,8,0:0:0:0:
32,352,46534,1,0,0:0:0:0:
32,352,47226,1,8,0:0:0:0:
32,352,47687,1,0,0:0:0:0:
32,352,47918,1,0,0:0:0:0:
32,352,48149,1,8,0:0:0:0:
32,352,48611,1,4,0:0:0:0:
32,352,48841,1,4,0:0:0:0:
32,352,49534,1,12,0:0:0:0:
32,352,49764,1,12,0:0:0:0:
32,352,50457,1,4,0:0:0:0:
32,352,50687,1,4,0:0:0:0:
32,352,52303,1,12,0:0:0:0:
32,352,52534,1,12,0:0:0:0:
32,352,53226,1,4,0:0:0:0:
32,352,53457,1,4,0:0:0:0:
32,352,54149,1,12,0:0:0:0:
32,352,54380,1,12,0:0:0:0:
32,352,55995,1,4,0:0:0:0:
32,352,56457,1,0,0:0:0:0:
32,352,56918,1,8,0:0:0:0:
32,352,57611,1,0,0:0:0:0:
32,352,57841,1,8,0:0:0:0:
32,352,58303,1,8,0:0:0:0:
32,352,58534,1,8,0:0:0:0:
32,352,58764,1,0,0:0:0:0:
32,352,59687,1,8,0:0:0:0:
32,352,60149,1,8,0:0:0:0:
32,352,60380,1,8,0:0:0:0:
32,352,60611,1,0,0:0:0:0:
32,352,61072,1,0,0:0:0:0:
32,352,61303,1,0,0:0:0:0:
32,352,61534,1,8,0:0:0:0:
32,352,61995,1,8,0:0:0:0:
32,352,62457,1,0,0:0:0:0:
32,352,63380,1,12,0:0:0:0:
32,352,63841,1,0,0:0:0:0:
32,352,64303,1,8,0:0:0:0:
32,352,64995,1,0,0:0:0:0:
32,352,65226,1,8,0:0:0:0:
32,352,65687,1,8,0:0:0:0:
32,352,65918,1,8,0:0:0:0:
32,352,66149,1,0,0:0:0:0:
32,352,67072,1,8,0:0:0:0:
32,352,67534,1,0,0:0:0:0:
32,352,67995,1,8,0:0:0:0:
32,352,68226,1,0,0:0:0:0:
32,352,68457,1,0,0:0:0:0:
32,352,68918,1,8,0:0:0:0:
32,352,69380,1,0,0:0:0:0:
32,352,69841,1,8,0:0:0:0:
32,352,70072,1,0,0:0:0:0:
32,352,70303,1,8,0:0:0:0:
32,352,70534,1,8,0:0:0:0:
32,352,70764,1,0,0:0:0:0:
32,352,71687,1,8,0:0:0:0:
32,352,72149,1,8,0:0:0:0:
32,352,72611,1,8,0:0:0:0:
256,192,73534,8,0,79995,0:0:0:0:
