osu file format v14

[General]
AudioFilename: audio.mp3
AudioLeadIn: 0
PreviewTime: 37413
Countdown: 0
SampleSet: Normal
StackLeniency: 0.7
Mode: 1
LetterboxInBreaks: 0
WidescreenStoryboard: 0

[Editor]
DistanceSpacing: 1
BeatDivisor: 4
GridSize: 32
TimelineZoom: 1

[Metadata]
Title:Tenshi Teki Kenpou Yonjou (TV Size)
TitleUnicode:天子的憲法四条 (TV Size)
Artist:Tenshi (CV: Matsumoto Tamaki)
ArtistUnicode:天子 (CV: 松元環季)
Creator:Reed_405
Version:Oni
Source:コードギアス 反逆のルルーシュ R2
Tags:jpop j-pop 黒石ひとみ Kuroishi Hitomi 中野定博 nakano sadahiro album single small nature anime japanese novelty Lelouch of the Rebellion R2 tianzi Jiang Lihua Code Geass ][ -GH- ][ Roger Luqua
BeatmapID:2075789
BeatmapSetID:992637

[Difficulty]
HPDrainRate:6
CircleSize:5
OverallDifficulty:5
ApproachRate:5
SliderMultiplier:1.4
SliderTickRate:1

[Events]
//Background and Video events
0,0,"thumb-1920-900196.jpg",0,50
//Break Periods
//Storyboard Layer 0 (Background)
//Storyboard Layer 1 (Fail)
//Storyboard Layer 2 (Pass)
//Storyboard Layer 3 (Foreground)
//Storyboard Layer 4 (Overlay)
//Storyboard Sound Samples

[TimingPoints]
611,461.538461538462,4,1,0,60,1,0
7995,-100,4,1,0,70,0,0
37534,-100,4,1,0,80,0,1
55995,461.538461538462,4,1,0,80,1,0
70995,-100,4,1,0,50,0,0
76302,-100,4,1,0,30,0,0
77225,-100,4,1,0,20,0,0
78148,-100,4,1,0,10,0,0
79071,-100,4,1,0,5,0,0

[HitObjects]
256,192,7995,5,0,0:0:0:0:
256,192,8457,1,8,0:0:0:0:
256,192,8918,1,0,0:0:0:0:
256,192,9149,1,0,0:0:0:0:
256,192,9380,1,8,0:0:0:0:
288,192,9841,1,0,0:0:0:0:
256,192,10072,1,0,0:0:0:0:
256,192,10303,1,8,0:0:0:0:
256,192,10534,1,8,0:0:0:0:
256,192,10649,1,8,0:0:0:0:
256,192,10764,1,0,0:0:0:0:
256,192,10995,1,0,0:0:0:0:
256,192,11226,1,8,0:0:0:0:
256,192,11687,1,8,0:0:0:0:
256,192,11918,1,0,0:0:0:0:
256,192,12149,1,8,0:0:0:0:
256,192,12380,1,8,0:0:0:0:
256,192,12611,1,0,0:0:0:0:
256,192,13072,1,8,0:0:0:0:
256,192,13303,1,0,0:0:0:0:
256,192,13534,1,8,0:0:0:0:
256,192,13649,1,8,0:0:0:0:
256,192,13764,1,8,0:0:0:0:
256,192,13995,1,8,0:0:0:0:
256,192,14226,1,0,0:0:0:0:
256,192,14457,1,0,0:0:0:0:
256,192,14918,1,8,0:0:0:0:
256,192,15380,1,0,0:0:0:0:
256,192,15841,1,8,0:0:0:0:
256,192,16303,1,8,0:0:0:0:
256,192,16534,1,0,0:0:0:0:
256,192,16764,1,8,0:0:0:0:
288,192,17226,1,8,0:0:0:0:
256,192,17457,1,0,0:0:0:0:
256,192,17687,1,8,0:0:0:0:
256,192,17918,1,8,0:0:0:0:
256,192,18034,1,8,0:0:0:0:
256,192,18149,1,0,0:0:0:0:
256,192,18380,1,0,0:0:0:0:
256,192,18611,1,8,0:0:0:0:
256,192,19072,1,8,0:0:0:0:
256,192,19303,1,8,0:0:0:0:
256,192,19534,1,0,0:0:0:0:
256,192,19764,1,0,0:0:0:0:
256,192,19995,1,8,0:0:0:0:
256,192,20457,1,8,0:0:0:0:
256,192,20687,1,0,0:0:0:0:
256,192,20918,1,8,0:0:0:0:
256,192,21149,1,8,0:0:0:0:
256,192,21264,1,8,0:0:0:0:
256,192,21380,1,8,0:0:0:0:
256,192,21611,1,0,0:0:0:0:
256,192,21726,1,0,0:0:0:0:
256,192,21841,1,0,0:0:0:0:
256,192,22303,1,8,0:0:0:0:
256,192,22764,1,4,0:0:0:0:
256,192,22995,1,4,0:0:0:0:
256,192,23226,1,8,0:0:0:0:
256,192,23687,1,12,0:0:0:0:
256,192,23918,1,12,0:0:0:0:
256,192,24149,1,0,0:0:0:0:
256,192,24611,1,0,0:0:0:0:
256,192,25072,1,8,0:0:0:0:
256,192,25534,1,0,0:0:0:0:
256,192,25764,1,0,0:0:0:0:
256,192,25995,1,8,0:0:0:0:
256,192,26226,1,8,0:0:0:0:
256,192,26457,1,4,0:0:0:0:
256,192,26687,1,4,0:0:0:0:
256,192,26918,1,8,0:0:0:0:
256,192,27380,1,12,0:0:0:0:
256,192,27611,1,12,0:0:0:0:
256,192,27841,1,0,0:0:0:0:
256,192,28303,1,0,0:0:0:0:
256,192,28764,1,8,0:0:0:0:
256,192,29226,1,8,0:0:0:0:
256,192,29457,1,0,0:0:0:0:
256,192,29687,1,8,0:0:0:0:
256,192,29918,1,8,0:0:0:0:
256,192,30149,1,4,0:0:0:0:
256,192,30380,1,4,0:0:0:0:
256,192,30611,1,8,0:0:0:0:
256,192,31072,1,12,0:0:0:0:
256,192,31303,1,12,0:0:0:0:
256,192,31534,1,0,0:0:0:0:
256,192,31995,1,0,0:0:0:0:
256,192,32457,1,8,0:0:0:0:
256,192,32918,1,0,0:0:0:0:
256,192,33149,1,0,0:0:0:0:
256,192,33380,1,8,0:0:0:0:
256,192,33611,1,8,0:0:0:0:
256,192,33841,1,4,0:0:0:0:
256,192,34303,1,8,0:0:0:0:
256,192,34534,1,8,0:0:0:0:
256,224,34764,1,0,0:0:0:0:
256,192,34880,1,0,0:0:0:0:
256,192,34995,1,0,0:0:0:0:
256,224,35226,1,8,0:0:0:0:
256,192,35457,1,0,0:0:0:0:
256,192,35687,1,12,0:0:0:0:
256,192,35918,1,0,0:0:0:0:
256,192,36149,1,8,0:0:0:0:
256,192,36380,1,8,0:0:0:0:
256,192,36495,1,8,0:0:0:0:
256,192,36611,1,0,0:0:0:0:
288,192,36841,1,0,0:0:0:0:
288,192,36957,1,0,0:0:0:0:
288,192,37072,1,0,0:0:0:0:
288,192,37303,1,0,0:0:0:0:
256,192,37534,1,12,0:0:0:0:
256,192,37764,1,0,0:0:0:0:
256,192,37995,1,8,0:0:0:0:
256,192,38226,1,8,0:0:0:0:
256,192,38457,1,0,0:0:0:0:
256,192,38572,1,0,0:0:0:0:
256,192,38687,1,8,0:0:0:0:
256,192,39149,1,8,0:0:0:0:
256,192,39380,1,0,0:0:0:0:
256,192,39611,1,0,0:0:0:0:
256,192,39841,1,8,0:0:0:0:
256,192,40072,1,0,0:0:0:0:
256,192,40187,1,0,0:0:0:0:
256,192,40303,1,8,0:0:0:0:
256,192,40534,1,0,0:0:0:0:
256,192,40995,1,8,0:0:0:0:
256,192,41226,1,0,0:0:0:0:
256,192,41457,1,0,0:0:0:0:
256,192,41687,1,8,0:0:0:0:
256,192,41918,1,0,0:0:0:0:
256,192,42034,1,0,0:0:0:0:
256,192,42149,1,0,0:0:0:0:
256,192,42380,1,8,0:0:0:0:
256,192,42841,1,8,0:0:0:0:
256,192,43072,1,0,0:0:0:0:
256,192,43303,1,0,0:0:0:0:
256,192,43534,1,8,0:0:0:0:
256,192,43764,1,0,0:0:0:0:
256,192,43880,1,0,0:0:0:0:
256,192,43995,1,8,0:0:0:0:
256,192,44111,1,8,0:0:0:0:
256,192,44226,1,0,0:0:0:0:
256,192,44457,1,8,0:0:0:0:
256,192,44687,1,8,0:0:0:0:
256,192,44803,1,8,0:0:0:0:
256,192,44918,1,4,0:0:0:0:
256,192,45149,1,0,0:0:0:0:
256,192,45380,1,8,0:0:0:0:
256,192,45611,1,8,0:0:0:0:
256,192,45841,1,0,0:0:0:0:
256,192,45957,1,0,0:0:0:0:
256,192,46072,1,8,0:0:0:0:
256,192,46534,1,8,0:0:0:0:
256,192,46764,1,0,0:0:0:0:
256,192,46995,1,0,0:0:0:0:
256,192,47226,1,8,0:0:0:0:
256,192,47457,1,0,0:0:0:0:
256,192,47572,1,0,0:0:0:0:
256,192,47687,1,8,0:0:0:0:
256,192,47918,1,0,0:0:0:0:
256,192,48149,1,8,0:0:0:0:
256,192,48380,1,0,0:0:0:0:
256,192,48611,1,4,0:0:0:0:
256,192,48841,1,4,0:0:0:0:
256,192,49072,1,8,0:0:0:0:
256,192,49534,1,12,0:0:0:0:
256,192,49764,1,12,0:0:0:0:
256,192,49995,1,0,0:0:0:0:
256,192,50457,1,12,0:0:0:0:
256,192,50687,1,4,0:0:0:0:
256,192,50918,1,8,0:0:0:0:
256,192,51380,1,0,0:0:0:0:
256,192,51611,1,8,0:0:0:0:
256,192,51841,1,8,0:0:0:0:
256,192,52072,1,0,0:0:0:0:
256,192,52303,1,4,0:0:0:0:
256,192,52534,1,4,0:0:0:0:
256,192,52764,1,8,0:0:0:0:
256,192,53226,1,12,0:0:0:0:
256,192,53457,1,4,0:0:0:0:
256,192,53687,1,8,0:0:0:0:
256,192,53918,1,0,0:0:0:0:
256,192,54149,1,4,0:0:0:0:
256,192,54380,1,4,0:0:0:0:
256,192,54611,1,8,0:0:0:0:
256,192,55303,1,8,0:0:0:0:
256,192,55534,1,8,0:0:0:0:
256,192,55764,1,0,0:0:0:0:
256,192,55995,1,4,0:0:0:0:
256,192,56456,1,8,0:0:0:0:
256,192,56918,1,0,0:0:0:0:
256,192,57148,1,8,0:0:0:0:
256,192,57379,1,8,0:0:0:0:
256,192,57841,1,0,0:0:0:0:
256,192,58071,1,0,0:0:0:0:
256,192,58302,1,8,0:0:0:0:
256,192,58533,1,8,0:0:0:0:
256,192,58764,1,0,0:0:0:0:
256,192,58995,1,8,0:0:0:0:
256,192,59225,1,8,0:0:0:0:
256,192,59687,1,8,0:0:0:0:
256,192,59918,1,0,0:0:0:0:
256,192,60148,1,8,0:0:0:0:
256,192,60379,1,8,0:0:0:0:
256,192,60610,1,0,0:0:0:0:
256,192,61071,1,0,0:0:0:0:
256,192,61302,1,0,0:0:0:0:
256,192,61533,1,8,0:0:0:0:
256,192,61995,1,8,0:0:0:0:
256,192,62456,1,0,0:0:0:0:
256,192,62687,1,0,0:0:0:0:
256,192,62918,1,8,0:0:0:0:
256,192,63148,1,8,0:0:0:0:
256,192,63264,1,8,0:0:0:0:
256,192,63379,1,4,0:0:0:0:
256,192,63841,1,8,0:0:0:0:
256,192,64302,1,0,0:0:0:0:
256,192,64533,1,8,0:0:0:0:
256,192,64764,1,8,0:0:0:0:
256,192,65225,1,0,0:0:0:0:
256,192,65456,1,0,0:0:0:0:
256,192,65687,1,8,0:0:0:0:
256,192,65918,1,8,0:0:0:0:
256,192,66148,1,0,0:0:0:0:
256,192,66379,1,8,0:0:0:0:
256,192,66610,1,8,0:0:0:0:
256,192,67071,1,8,0:0:0:0:
256,192,67302,1,0,0:0:0:0:
256,192,67533,1,8,0:0:0:0:
256,192,67764,1,0,0:0:0:0:
256,192,67995,1,0,0:0:0:0:
256,192,68110,1,0,0:0:0:0:
256,192,68225,1,8,0:0:0:0:
256,192,68456,1,8,0:0:0:0:
256,192,68918,1,8,0:0:0:0:
256,192,69148,1,0,0:0:0:0:
256,192,69379,1,8,0:0:0:0:
256,192,69610,1,8,0:0:0:0:
256,192,69841,1,0,0:0:0:0:
256,192,69956,1,0,0:0:0:0:
256,192,70071,1,0,0:0:0:0:
256,192,70302,1,8,0:0:0:0:
256,192,70533,1,8,0:0:0:0:
256,192,70648,1,8,0:0:0:0:
256,192,70764,1,0,0:0:0:0:
256,192,71225,1,0,0:0:0:0:
256,192,71456,1,8,0:0:0:0:
256,192,71687,1,0,0:0:0:0:
256,192,71918,1,8,0:0:0:0:
256,192,72148,1,0,0:0:0:0:
256,192,72379,1,8,0:0:0:0:
256,192,72610,1,0,0:0:0:0:
256,192,73533,8,0,79995,0:0:0:0:
