osu file format v14

[General]
AudioFilename: audio.mp3
AudioLeadIn: 0
PreviewTime: 37413
Countdown: 0
SampleSet: Normal
StackLeniency: 0.7
Mode: 1
LetterboxInBreaks: 0
WidescreenStoryboard: 0

[Editor]
DistanceSpacing: 1
BeatDivisor: 2
GridSize: 32
TimelineZoom: 1

[Metadata]
Title:Tenshi Teki Kenpou Yonjou (TV Size)
TitleUnicode:天子的憲法四条 (TV Size)
Artist:Tenshi (CV: Matsumoto Tamaki)
ArtistUnicode:天子 (CV: 松元環季)
Creator:Reed_405
Version:Luqua's Oni
Source:コードギアス 反逆のルルーシュ R2
Tags:jpop j-pop 黒石ひとみ Kuroishi Hitomi 中野定博 nakano sadahiro album single small nature anime japanese novelty Lelouch of the Rebellion R2 tianzi Jiang Lihua Code Geass ][ -GH- ][ Roger Luqua
BeatmapID:2077943
BeatmapSetID:992637

[Difficulty]
HPDrainRate:6
CircleSize:5
OverallDifficulty:5.5
ApproachRate:5
SliderMultiplier:1.4
SliderTickRate:1

[Events]
//Background and Video events
0,0,"thumb-1920-900196.jpg",0,50
//Break Periods
//Storyboard Layer 0 (Background)
//Storyboard Layer 1 (Fail)
//Storyboard Layer 2 (Pass)
//Storyboard Layer 3 (Foreground)
//Storyboard Layer 4 (Overlay)
//Storyboard Sound Samples

[TimingPoints]
611,461.538461538462,4,1,0,60,1,0
7995,-100,4,1,0,70,0,0
37534,-100,4,1,0,80,0,1
55995,461.538461538462,4,1,0,80,1,0
70995,-100,4,1,0,50,0,0
76302,-100,4,1,0,30,0,0
77225,-100,4,1,0,20,0,0
78148,-100,4,1,0,10,0,0
79071,-100,4,1,0,5,0,0

[HitObjects]
256,192,7995,5,0,0:0:0:0:
256,192,8457,1,2,0:0:0:0:
256,192,8918,1,2,0:0:0:0:
256,192,9149,1,0,0:0:0:0:
256,192,9380,1,2,0:0:0:0:
288,192,9841,1,0,0:0:0:0:
256,192,10072,1,2,0:0:0:0:
256,192,10303,1,2,0:0:0:0:
256,192,10534,1,2,0:0:0:0:
256,192,10649,1,0,0:0:0:0:
256,192,10764,1,0,0:0:0:0:
256,192,10995,1,0,0:0:0:0:
256,192,11226,1,2,0:0:0:0:
256,192,11687,1,0,0:0:0:0:
256,192,11918,1,0,0:0:0:0:
256,192,12034,1,0,0:0:0:0:
256,192,12149,1,2,0:0:0:0:
256,192,12380,1,2,0:0:0:0:
256,192,12611,1,0,0:0:0:0:
256,192,13072,1,0,0:0:0:0:
256,192,13303,1,0,0:0:0:0:
256,192,13534,1,2,0:0:0:0:
256,192,13764,1,0,0:0:0:0:
256,192,13995,1,2,0:0:0:0:
256,192,14457,1,0,0:0:0:0:
256,192,14687,1,0,0:0:0:0:
256,192,14803,1,0,0:0:0:0:
256,192,14918,1,2,0:0:0:0:
256,192,15380,1,2,0:0:0:0:
256,192,15841,1,0,0:0:0:0:
256,192,16303,1,2,0:0:0:0:
256,192,16534,1,0,0:0:0:0:
256,192,16764,1,2,0:0:0:0:
256,192,17226,1,2,0:0:0:0:
256,192,17457,1,0,0:0:0:0:
256,192,17687,1,2,0:0:0:0:
256,192,17918,1,2,0:0:0:0:
256,192,18034,1,0,0:0:0:0:
256,192,18149,1,0,0:0:0:0:
256,192,18380,1,0,0:0:0:0:
256,192,18611,1,2,0:0:0:0:
256,192,19072,1,2,0:0:0:0:
256,192,19303,1,2,0:0:0:0:
256,192,19534,1,0,0:0:0:0:
256,192,19764,1,0,0:0:0:0:
256,192,19995,1,2,0:0:0:0:
256,192,20457,1,0,0:0:0:0:
256,192,20687,1,0,0:0:0:0:
256,192,20918,1,2,0:0:0:0:
256,192,21149,1,0,0:0:0:0:
256,192,21264,1,0,0:0:0:0:
256,192,21380,1,2,0:0:0:0:
256,192,21611,1,0,0:0:0:0:
256,192,21726,1,2,0:0:0:0:
256,192,21841,1,0,0:0:0:0:
256,192,22303,1,2,0:0:0:0:
256,192,22764,1,4,0:0:0:0:
256,192,22995,1,4,0:0:0:0:
256,192,23226,1,2,0:0:0:0:
256,192,23687,1,6,0:0:0:0:
256,192,23918,1,6,0:0:0:0:
256,192,24149,1,0,0:0:0:0:
256,192,24611,1,0,0:0:0:0:
256,192,25072,1,2,0:0:0:0:
256,192,25303,1,0,0:0:0:0:
256,192,25418,1,0,0:0:0:0:
256,192,25534,1,0,0:0:0:0:
256,192,25764,1,0,0:0:0:0:
256,192,25995,1,2,0:0:0:0:
256,192,26226,1,0,0:0:0:0:
256,192,26457,1,6,0:0:0:0:
256,192,26687,1,6,0:0:0:0:
256,192,26918,1,0,0:0:0:0:
256,192,27380,1,4,0:0:0:0:
256,192,27611,1,4,0:0:0:0:
256,192,27841,1,2,0:0:0:0:
256,192,28303,1,0,0:0:0:0:
256,192,28764,1,2,0:0:0:0:
256,192,28995,1,0,0:0:0:0:
256,192,29111,1,2,0:0:0:0:
256,192,29226,1,0,0:0:0:0:
256,192,29457,1,0,0:0:0:0:
256,192,29687,1,2,0:0:0:0:
256,192,30149,1,4,0:0:0:0:
256,192,30380,1,4,0:0:0:0:
256,192,30611,1,2,0:0:0:0:
256,192,31072,1,6,0:0:0:0:
256,192,31303,1,6,0:0:0:0:
256,192,31534,1,0,0:0:0:0:
256,192,31995,1,0,0:0:0:0:
256,192,32457,1,2,0:0:0:0:
256,192,32918,1,0,0:0:0:0:
256,192,33149,1,0,0:0:0:0:
256,192,33380,1,2,0:0:0:0:
256,192,33611,1,0,0:0:0:0:
256,192,33841,1,4,0:0:0:0:
256,192,34303,1,0,0:0:0:0:
256,192,34418,1,0,0:0:0:0:
256,192,34534,1,2,0:0:0:0:
256,192,34764,1,2,0:0:0:0:
256,192,34880,1,0,0:0:0:0:
256,192,34995,1,0,0:0:0:0:
256,192,35111,1,0,0:0:0:0:
256,192,35226,1,2,0:0:0:0:
256,192,35341,1,0,0:0:0:0:
256,192,35457,1,0,0:0:0:0:
256,192,35687,1,4,0:0:0:0:
256,192,35918,1,0,0:0:0:0:
256,192,36149,1,2,0:0:0:0:
256,192,36611,1,6,0:0:0:0:
256,192,36841,1,2,0:0:0:0:
256,192,37072,1,0,0:0:0:0:
256,192,37534,1,6,0:0:0:0:
256,192,37764,1,0,0:0:0:0:
256,192,37995,1,2,0:0:0:0:
256,192,38226,1,2,0:0:0:0:
256,192,38457,1,0,0:0:0:0:
256,192,38572,1,0,0:0:0:0:
256,192,38687,1,2,0:0:0:0:
256,192,38918,1,2,0:0:0:0:
256,192,39149,1,0,0:0:0:0:
256,192,39611,1,0,0:0:0:0:
256,192,39841,1,2,0:0:0:0:
256,192,40072,1,0,0:0:0:0:
256,192,40187,1,0,0:0:0:0:
256,192,40303,1,0,0:0:0:0:
256,192,40534,1,2,0:0:0:0:
256,192,40764,1,2,0:0:0:0:
256,192,40995,1,0,0:0:0:0:
256,192,41457,1,0,0:0:0:0:
256,192,41687,1,2,0:0:0:0:
256,192,41918,1,2,0:0:0:0:
256,192,42149,1,0,0:0:0:0:
256,192,42264,1,0,0:0:0:0:
256,192,42380,1,2,0:0:0:0:
256,192,42611,1,0,0:0:0:0:
256,192,42841,1,2,0:0:0:0:
256,192,43303,1,0,0:0:0:0:
256,192,43534,1,2,0:0:0:0:
256,192,43764,1,0,0:0:0:0:
256,192,43995,1,2,0:0:0:0:
256,192,44111,1,2,0:0:0:0:
256,192,44226,1,2,0:0:0:0:
256,192,44341,1,2,0:0:0:0:
256,192,44457,1,0,0:0:0:0:
256,192,44918,1,4,0:0:0:0:
256,192,45149,1,0,0:0:0:0:
256,192,45380,1,2,0:0:0:0:
256,192,45611,1,0,0:0:0:0:
256,192,45841,1,2,0:0:0:0:
256,192,45957,1,0,0:0:0:0:
256,192,46072,1,2,0:0:0:0:
256,192,46303,1,2,0:0:0:0:
256,192,46534,1,0,0:0:0:0:
256,192,46995,1,0,0:0:0:0:
256,192,47226,1,2,0:0:0:0:
256,192,47457,1,0,0:0:0:0:
256,192,47687,1,0,0:0:0:0:
256,192,47803,1,0,0:0:0:0:
256,192,47918,1,2,0:0:0:0:
256,192,48149,1,2,0:0:0:0:
256,192,48611,1,4,0:0:0:0:
256,192,48841,1,4,0:0:0:0:
256,192,49072,1,2,0:0:0:0:
256,192,49534,1,6,0:0:0:0:
256,192,49764,1,6,0:0:0:0:
256,192,49995,1,0,0:0:0:0:
256,192,50457,1,4,0:0:0:0:
256,192,50687,1,4,0:0:0:0:
256,192,50918,1,2,0:0:0:0:
256,192,51380,1,0,0:0:0:0:
256,192,51611,1,2,0:0:0:0:
256,192,51841,1,2,0:0:0:0:
256,192,52072,1,0,0:0:0:0:
256,192,52303,1,4,0:0:0:0:
256,192,52534,1,4,0:0:0:0:
256,192,52764,1,2,0:0:0:0:
256,192,53226,1,6,0:0:0:0:
256,192,53457,1,6,0:0:0:0:
256,192,53687,1,0,0:0:0:0:
256,192,53918,1,0,0:0:0:0:
256,192,54149,1,6,0:0:0:0:
256,192,54380,1,4,0:0:0:0:
256,192,54611,1,2,0:0:0:0:
256,192,55303,1,2,0:0:0:0:
256,192,55534,1,2,0:0:0:0:
256,192,55764,1,0,0:0:0:0:
256,192,55995,1,4,0:0:0:0:
256,192,56457,1,2,0:0:0:0:
256,192,56918,1,0,0:0:0:0:
256,192,57149,1,2,0:0:0:0:
256,192,57380,1,2,0:0:0:0:
256,192,57611,1,2,0:0:0:0:
256,192,57726,1,0,0:0:0:0:
256,192,57841,1,2,0:0:0:0:
256,192,58072,1,0,0:0:0:0:
256,192,58303,1,2,0:0:0:0:
256,192,58534,1,0,0:0:0:0:
256,192,58764,1,2,0:0:0:0:
256,192,58880,1,2,0:0:0:0:
256,192,58995,1,2,0:0:0:0:
256,192,59111,1,2,0:0:0:0:
256,192,59226,1,2,0:0:0:0:
256,192,59687,1,2,0:0:0:0:
256,192,59918,1,0,0:0:0:0:
256,192,60149,1,2,0:0:0:0:
256,192,60380,1,2,0:0:0:0:
256,192,60611,1,0,0:0:0:0:
256,192,60726,1,0,0:0:0:0:
256,192,60841,1,0,0:0:0:0:
256,192,60957,1,0,0:0:0:0:
256,192,61072,1,2,0:0:0:0:
256,192,61303,1,0,0:0:0:0:
256,192,61534,1,2,0:0:0:0:
256,192,61764,1,0,0:0:0:0:
256,192,61880,1,0,0:0:0:0:
256,192,61995,1,2,0:0:0:0:
256,192,62457,1,2,0:0:0:0:
256,192,62572,1,2,0:0:0:0:
256,192,62687,1,2,0:0:0:0:
256,192,62803,1,2,0:0:0:0:
256,192,62918,1,2,0:0:0:0:
256,192,63380,1,4,0:0:0:0:
256,192,63841,1,2,0:0:0:0:
256,192,64303,1,0,0:0:0:0:
256,192,64534,1,2,0:0:0:0:
256,192,64764,1,2,0:0:0:0:
256,192,64995,1,0,0:0:0:0:
256,192,65111,1,0,0:0:0:0:
256,192,65226,1,2,0:0:0:0:
256,192,65457,1,0,0:0:0:0:
256,192,65687,1,2,0:0:0:0:
256,192,65918,1,0,0:0:0:0:
256,192,66149,1,2,0:0:0:0:
256,192,66264,1,2,0:0:0:0:
256,192,66380,1,2,0:0:0:0:
256,192,66495,1,2,0:0:0:0:
256,192,66611,1,2,0:0:0:0:
256,192,67072,1,0,0:0:0:0:
256,192,67418,1,0,0:0:0:0:
256,192,67534,1,2,0:0:0:0:
256,192,67764,1,2,0:0:0:0:
256,192,67995,1,0,0:0:0:0:
256,192,68226,1,2,0:0:0:0:
256,192,68341,1,0,0:0:0:0:
256,192,68457,1,2,0:0:0:0:
256,192,68687,1,0,0:0:0:0:
256,192,68918,1,2,0:0:0:0:
256,192,69264,1,0,0:0:0:0:
256,192,69380,1,2,0:0:0:0:
256,192,69611,1,0,0:0:0:0:
256,192,69841,1,0,0:0:0:0:
256,192,69957,1,2,0:0:0:0:
256,192,70072,1,0,0:0:0:0:
256,192,70303,1,2,0:0:0:0:
256,192,70534,1,0,0:0:0:0:
256,192,70649,1,0,0:0:0:0:
256,192,70764,1,2,0:0:0:0:
256,192,71226,1,0,0:0:0:0:
256,192,71457,1,2,0:0:0:0:
256,192,71687,1,0,0:0:0:0:
256,192,71918,1,2,0:0:0:0:
256,192,72149,1,0,0:0:0:0:
256,192,72380,1,2,0:0:0:0:
256,192,72611,1,0,0:0:0:0:
256,192,73534,1,4,0:0:0:0:
256,192,73764,8,0,79995,0:0:0:0:
