osu file format v14

[General]
AudioFilename: audio.mp3
AudioLeadIn: 0
PreviewTime: -1
Countdown: 1
SampleSet: Soft
StackLeniency: 0.7
Mode: 3
LetterboxInBreaks: 0
SpecialStyle: 0
WidescreenStoryboard: 0

[Editor]
DistanceSpacing: 0.9
BeatDivisor: 8
GridSize: 4
TimelineZoom: 2.5

[Metadata]
Title:With You
TitleUnicode:With You
Artist:Tennyson
ArtistUnicode:Tennyson
Creator:Combistein
Version:Comfort
Source:
Tags:
BeatmapID:1667599
BeatmapSetID:793943

[Difficulty]
HPDrainRate:8
CircleSize:4
OverallDifficulty:8
ApproachRate:5
SliderMultiplier:1.4
SliderTickRate:1

[Events]
//Background and Video events
0,0,"with you.jpg",0,0
//Break Periods
//Storyboard Layer 0 (Background)
//Storyboard Layer 1 (Fail)
//Storyboard Layer 2 (Pass)
//Storyboard Layer 3 (Foreground)
//Storyboard Sound Samples

[TimingPoints]
637,428.571428571429,4,2,0,10,1,0
55065,-83.3333333333333,4,2,0,10,0,0
55387,-66.6666666666667,4,2,0,10,0,0
55494,-100,4,2,0,10,0,0
56672,-83.3333333333333,4,2,0,10,0,0
56779,-100,4,2,0,10,0,0
58065,-83.3333333333333,4,2,0,10,0,0
58387,-100,4,2,0,10,0,0
60208,-90.9090909090909,4,2,0,10,0,0
60637,-100,4,2,0,10,0,0
60851,-83.3333333333333,4,2,0,10,0,0
60958,-100,4,2,0,10,0,0
61065,-83.3333333333333,4,2,0,10,0,0
61172,-100,4,2,0,10,0,0
61387,-83.3333333333333,4,2,0,10,0,0
61494,-100,4,2,0,10,0,0
62351,-90.9090909090909,4,2,0,10,0,0
63208,-100,4,2,0,10,0,0
63529,-83.3333333333333,4,2,0,10,0,0
63637,-100,4,2,0,10,0,0
68779,-83.3333333333333,4,2,0,10,0,0
69101,-66.6666666666667,4,2,0,10,0,0
69208,-100,4,2,0,10,0,0
70387,-83.3333333333333,4,2,0,10,0,0
70494,-100,4,2,0,10,0,0
71672,-83.3333333333333,4,2,0,10,0,0
71779,-100,4,2,0,10,0,0
75208,-83.3333333333333,4,2,0,10,0,0
75637,-100,4,2,0,10,0,0
82815,-83.3333333333333,4,2,0,10,0,0
82922,-100,4,2,0,10,0,0
83458,-83.3333333333333,4,2,0,10,0,0
83565,-100,4,2,0,10,0,0
84101,-83.3333333333333,4,2,0,10,0,0
84208,-100,4,2,0,10,0,0
85601,-133.333333333333,4,2,0,10,0,0
85708,-90.9090909090909,4,2,0,10,0,0
85922,-100,4,2,0,10,0,0
86244,-83.3333333333333,4,2,0,10,0,0
86351,-100,4,2,0,10,0,0
86887,-83.3333333333333,4,2,0,10,0,0
86994,-100,4,2,0,10,0,0
88922,-83.3333333333333,4,2,0,10,0,0
89137,-100,4,2,0,10,0,0
89672,-83.3333333333333,4,2,0,10,0,0
89779,-100,4,2,0,10,0,0
90315,-83.3333333333333,4,2,0,10,0,0
90422,-100,4,2,0,10,0,0
90958,-83.3333333333333,4,2,0,10,0,0
91065,-100,4,2,0,10,0,0
92672,-83.3333333333333,4,2,0,10,0,0
92887,-111.111111111111,4,2,0,10,0,0
93101,-83.3333333333333,4,2,0,10,0,0
93208,-100,4,2,0,10,0,0
93744,-83.3333333333333,4,2,0,10,0,0
93851,-100,4,2,0,10,0,0
94387,-83.3333333333333,4,2,0,10,0,0
94494,-100,4,2,0,10,0,0
97279,-83.3333333333333,4,2,0,10,0,0
97494,-100,4,2,0,10,0,0
97815,-83.3333333333333,4,2,0,10,0,0
97922,-100,4,2,0,10,0,0
99958,-83.3333333333333,4,2,0,10,0,0
100065,-100,4,2,0,10,0,0
100601,-83.3333333333333,4,2,0,10,0,0
100708,-100,4,2,0,10,0,0
101208,-83.3333333333333,4,2,0,10,0,0
101351,-100,4,2,0,10,0,0
103494,-83.3333333333333,4,2,0,10,0,0
103637,-100,4,2,0,10,0,0
104029,-83.3333333333333,4,2,0,10,0,0
104137,-100,4,2,0,10,0,0
104672,-83.3333333333333,4,2,0,10,0,0
104779,-100,4,2,0,10,0,0
106815,-83.3333333333333,4,2,0,10,0,0
106922,-100,4,2,0,10,0,0
107458,-90.9090909090909,4,2,0,10,0,0
107565,-100,4,2,0,10,0,0
168529,-76.9230769230769,4,2,0,10,0,0
168637,-100,4,2,0,10,0,0
168958,-83.3333333333333,4,2,0,10,0,0
169279,-100,4,2,0,10,0,0
169494,-83.3333333333333,4,2,0,10,0,0
169601,-100,4,2,0,10,0,0
169815,-83.3333333333333,4,2,0,10,0,0
169922,-100,4,2,0,10,0,0
170779,-90.9090909090909,4,2,0,10,0,0
170994,-100,4,2,0,10,0,0
171208,-83.3333333333333,4,2,0,10,0,0
171422,-100,4,2,0,10,0,0
171744,-90.9090909090909,4,2,0,10,0,0
171851,-100,4,2,0,10,0,0
172922,-83.3333333333333,4,2,0,10,0,0
173137,-100,4,2,0,10,0,0
173351,-83.3333333333333,4,2,0,10,0,0
173994,-100,4,2,0,10,0,0
174208,-90.9090909090909,4,2,0,10,0,0
174422,-100,4,2,0,10,0,0
177422,-83.3333333333333,4,2,0,10,0,0
177529,-100,4,2,0,10,0,0
177744,-83.3333333333333,4,2,0,10,0,0
177851,-100,4,2,0,10,0,0
178065,-111.111111111111,4,2,0,10,0,0
178601,-83.3333333333333,4,2,0,10,0,0
178708,-100,4,2,0,10,0,0
178815,-83.3333333333333,4,2,0,10,0,0
178922,-100,4,2,0,10,0,0
179137,-83.3333333333333,4,2,0,10,0,0
179244,-100,4,2,0,10,0,0
179458,-83.3333333333333,4,2,0,10,0,0
179565,-100,4,2,0,10,0,0
179779,-133.333333333333,4,2,0,10,0,0
179833,-117.647058823529,4,2,0,10,0,0
179887,-105.263157894737,4,2,0,10,0,0
179994,-100,4,2,0,10,0,0
180101,-100,4,2,0,10,0,0
180637,-83.3333333333333,4,2,0,10,0,0
181494,-100,4,2,0,10,0,0
182351,-83.3333333333333,4,2,0,10,0,0
182458,-100,4,2,0,10,0,0
182672,-83.3333333333333,4,2,0,10,0,0
182779,-100,4,2,0,10,0,0
183101,-83.3333333333333,4,2,0,10,0,0
183208,-100,4,2,0,10,0,0
183637,-83.3333333333333,4,2,0,10,0,0
184065,-100,4,2,0,10,0,0
184494,-90.9090909090909,4,2,0,10,0,0
184708,-100,4,2,0,10,0,0
185672,-83.3333333333333,4,2,0,10,0,0
185779,-100,4,2,0,10,0,0
185994,-83.3333333333333,4,2,0,10,0,0
186101,-100,4,2,0,10,0,0
188351,-83.3333333333333,4,2,0,10,0,0
188779,-100,4,2,0,10,0,0
189208,-90.9090909090909,4,2,0,10,0,0
189851,-100,4,2,0,10,0,0
190922,-83.3333333333333,4,2,0,10,0,0
191565,-100,4,2,0,10,0,0
192637,-90.9090909090909,4,2,0,10,0,0
194351,-100,4,2,0,10,0,0

[HitObjects]
192,192,637,5,0,0:0:0:0:
448,192,637,1,0,0:0:0:0:
320,192,851,1,0,0:0:0:0:
320,192,1065,1,0,0:0:0:0:
64,192,1279,1,0,0:0:0:0:
448,192,1279,1,0,0:0:0:0:
192,192,1494,1,0,0:0:0:0:
192,192,1708,1,0,0:0:0:0:
448,192,1815,1,0,0:0:0:0:
192,192,1922,1,0,0:0:0:0:
64,192,1922,1,0,0:0:0:0:
320,192,2137,1,0,0:0:0:0:
64,192,2351,1,0,0:0:0:0:
448,192,2351,1,0,0:0:0:0:
192,192,2565,1,0,0:0:0:0:
320,192,2779,1,0,0:0:0:0:
448,192,2994,1,0,0:0:0:0:
192,192,2994,1,0,0:0:0:0:
64,192,3208,1,0,0:0:0:0:
448,192,3422,1,0,0:0:0:0:
192,192,3529,1,0,0:0:0:0:
448,192,3637,1,0,0:0:0:0:
64,192,3637,1,0,0:0:0:0:
192,192,3851,1,0,0:0:0:0:
448,192,4065,1,0,0:0:0:0:
448,192,4279,1,0,0:0:0:0:
320,192,4494,1,0,0:0:0:0:
64,192,4708,1,0,0:0:0:0:
192,192,4708,1,0,0:0:0:0:
448,192,4922,1,0,0:0:0:0:
64,192,5137,1,0,0:0:0:0:
448,192,5244,1,0,0:0:0:0:
64,192,5351,1,0,0:0:0:0:
192,192,5351,1,0,0:0:0:0:
448,192,5565,1,0,0:0:0:0:
192,192,5779,1,0,0:0:0:0:
320,192,5994,1,0,0:0:0:0:
320,192,6208,1,0,0:0:0:0:
192,192,6422,1,0,0:0:0:0:
448,192,6422,1,0,0:0:0:0:
64,192,6637,1,0,0:0:0:0:
320,192,6851,1,0,0:0:0:0:
64,192,6958,1,0,0:0:0:0:
448,192,6958,1,0,0:0:0:0:
192,192,7065,1,0,0:0:0:0:
320,192,7065,1,0,0:0:0:0:
192,192,7279,1,0,0:0:0:0:
448,192,7279,1,0,0:0:0:0:
320,192,7458,1,0,0:0:0:0:
192,192,7494,1,0,0:0:0:0:
64,192,7494,1,0,0:0:0:0:
448,192,7708,1,0,0:0:0:0:
192,192,7922,1,0,0:0:0:0:
192,192,8137,1,0,0:0:0:0:
448,192,8137,1,0,0:0:0:0:
320,192,8351,1,0,0:0:0:0:
64,192,8565,1,0,0:0:0:0:
192,192,8672,1,0,0:0:0:0:
64,192,8779,1,0,0:0:0:0:
448,192,8779,1,0,0:0:0:0:
192,192,8994,1,0,0:0:0:0:
320,192,9208,1,0,0:0:0:0:
320,192,9422,1,0,0:0:0:0:
192,192,9637,1,0,0:0:0:0:
64,192,9851,1,0,0:0:0:0:
320,192,9851,1,0,0:0:0:0:
192,192,10065,1,0,0:0:0:0:
448,192,10279,1,0,0:0:0:0:
64,192,10387,1,0,0:0:0:0:
192,192,10387,1,0,0:0:0:0:
320,192,10494,1,0,0:0:0:0:
448,192,10494,1,0,0:0:0:0:
192,192,10708,1,0,0:0:0:0:
64,192,10922,128,0,10976:0:0:0:0:
320,192,10922,1,0,0:0:0:0:
448,192,11137,1,0,0:0:0:0:
192,192,11351,1,0,0:0:0:0:
320,192,11565,1,0,0:0:0:0:
448,192,11565,1,0,0:0:0:0:
64,192,11779,1,0,0:0:0:0:
448,192,11994,1,0,0:0:0:0:
192,192,12101,1,0,0:0:0:0:
64,192,12208,1,0,0:0:0:0:
448,192,12208,1,0,0:0:0:0:
192,192,12422,1,0,0:0:0:0:
448,192,12637,1,0,0:0:0:0:
64,192,12851,1,0,0:0:0:0:
320,192,13065,1,0,0:0:0:0:
192,192,13279,1,0,0:0:0:0:
64,192,13279,1,0,0:0:0:0:
320,192,13494,1,0,0:0:0:0:
448,192,13708,1,0,0:0:0:0:
64,192,13815,1,0,0:0:0:0:
192,192,13922,1,0,0:0:0:0:
448,192,13922,1,0,0:0:0:0:
320,192,14137,1,0,0:0:0:0:
192,192,14137,1,0,0:0:0:0:
192,192,14351,1,0,0:0:0:0:
448,192,14351,128,0,14422:0:0:0:0:
64,192,14351,1,0,0:0:0:0:
320,192,14565,1,0,0:0:0:0:
320,192,14779,1,0,0:0:0:0:
64,192,14994,1,0,0:0:0:0:
448,192,14994,1,0,0:0:0:0:
192,192,15208,1,0,0:0:0:0:
192,192,15422,1,0,0:0:0:0:
448,192,15529,1,0,0:0:0:0:
320,192,15529,1,0,0:0:0:0:
64,192,15637,1,0,0:0:0:0:
192,192,15637,1,0,0:0:0:0:
192,192,15851,1,0,0:0:0:0:
320,192,16065,128,0,16137:0:0:0:0:
448,192,16065,1,0,0:0:0:0:
320,192,16279,1,0,0:0:0:0:
448,192,16494,1,0,0:0:0:0:
192,192,16494,1,0,0:0:0:0:
64,192,16708,1,0,0:0:0:0:
448,192,16708,1,0,0:0:0:0:
320,192,16708,1,0,0:0:0:0:
64,192,16922,1,0,0:0:0:0:
448,192,17137,1,0,0:0:0:0:
192,192,17244,1,0,0:0:0:0:
64,192,17244,1,0,0:0:0:0:
320,192,17351,1,0,0:0:0:0:
448,192,17351,1,0,0:0:0:0:
192,192,17565,1,0,0:0:0:0:
320,192,17565,1,0,0:0:0:0:
320,192,17779,1,0,0:0:0:0:
64,192,17779,128,0,18208:0:0:0:0:
448,192,17994,1,0,0:0:0:0:
448,192,18208,1,0,0:0:0:0:
64,192,18422,1,0,0:0:0:0:
192,192,18422,1,0,0:0:0:0:
448,192,18422,1,0,0:0:0:0:
320,192,18637,1,0,0:0:0:0:
320,192,18851,1,0,0:0:0:0:
448,192,18958,1,0,0:0:0:0:
64,192,19065,1,0,0:0:0:0:
320,192,19065,1,0,0:0:0:0:
192,192,19279,1,0,0:0:0:0:
448,192,19494,1,0,0:0:0:0:
448,192,19708,1,0,0:0:0:0:
448,192,19922,1,0,0:0:0:0:
64,192,19922,1,0,0:0:0:0:
64,192,20137,1,0,0:0:0:0:
192,192,20137,1,0,0:0:0:0:
448,192,20351,1,0,0:0:0:0:
448,192,20565,1,0,0:0:0:0:
192,192,20672,1,0,0:0:0:0:
64,192,20672,1,0,0:0:0:0:
448,192,20779,1,0,0:0:0:0:
320,192,20779,1,0,0:0:0:0:
192,192,20887,1,0,0:0:0:0:
448,192,20994,1,0,0:0:0:0:
64,192,20994,1,0,0:0:0:0:
192,192,21208,128,0,21851:0:0:0:0:
448,192,21208,1,0,0:0:0:0:
64,192,21422,1,0,0:0:0:0:
320,192,21637,1,0,0:0:0:0:
448,192,21851,1,0,0:0:0:0:
64,192,21851,1,0,0:0:0:0:
320,192,22065,1,0,0:0:0:0:
192,192,22279,1,0,0:0:0:0:
64,192,22387,1,0,0:0:0:0:
448,192,22387,1,0,0:0:0:0:
192,192,22494,1,0,0:0:0:0:
320,192,22494,1,0,0:0:0:0:
448,192,22601,1,0,0:0:0:0:
192,192,22708,1,0,0:0:0:0:
64,192,22922,1,0,0:0:0:0:
448,192,22922,128,0,23565:0:0:0:0:
320,192,23137,1,0,0:0:0:0:
192,192,23351,1,0,0:0:0:0:
64,192,23565,1,0,0:0:0:0:
320,192,23565,1,0,0:0:0:0:
192,192,23779,1,0,0:0:0:0:
320,192,23994,1,0,0:0:0:0:
192,192,24101,1,0,0:0:0:0:
64,192,24101,1,0,0:0:0:0:
448,192,24208,1,0,0:0:0:0:
320,192,24208,1,0,0:0:0:0:
320,192,24422,1,0,0:0:0:0:
64,192,24422,1,0,0:0:0:0:
320,192,24637,1,0,0:0:0:0:
192,192,24637,128,0,25279:0:0:0:0:
64,192,24851,1,0,0:0:0:0:
448,192,25065,1,0,0:0:0:0:
320,192,25279,1,0,0:0:0:0:
64,192,25279,1,0,0:0:0:0:
448,192,25494,1,0,0:0:0:0:
64,192,25708,1,0,0:0:0:0:
192,192,25815,1,0,0:0:0:0:
448,192,25815,1,0,0:0:0:0:
64,192,25922,1,0,0:0:0:0:
320,192,25922,1,0,0:0:0:0:
448,192,26137,1,0,0:0:0:0:
320,192,26351,1,0,0:0:0:0:
64,192,26351,1,0,0:0:0:0:
192,192,26565,1,0,0:0:0:0:
64,192,26779,1,0,0:0:0:0:
448,192,26779,1,0,0:0:0:0:
448,192,26994,1,0,0:0:0:0:
192,192,26994,1,0,0:0:0:0:
320,192,26994,1,0,0:0:0:0:
320,192,27208,1,0,0:0:0:0:
192,192,27422,1,0,0:0:0:0:
64,192,27529,1,0,0:0:0:0:
320,192,27529,1,0,0:0:0:0:
192,192,27637,1,0,0:0:0:0:
448,192,27637,1,0,0:0:0:0:
64,192,27851,1,0,0:0:0:0:
320,192,27851,1,0,0:0:0:0:
320,192,28065,1,0,0:0:0:0:
448,192,28065,1,0,0:0:0:0:
192,192,28065,1,0,0:0:0:0:
64,192,28172,1,0,0:0:0:0:
192,192,28279,1,0,0:0:0:0:
448,192,28387,1,0,0:0:0:0:
320,192,28494,1,0,0:0:0:0:
448,192,28708,1,0,0:0:0:0:
64,192,28708,1,0,0:0:0:0:
320,192,28815,1,0,0:0:0:0:
192,192,28922,1,0,0:0:0:0:
64,192,29029,1,0,0:0:0:0:
320,192,29137,1,0,0:0:0:0:
192,192,29244,1,0,0:0:0:0:
448,192,29351,1,0,0:0:0:0:
64,192,29351,1,0,0:0:0:0:
320,192,29565,1,0,0:0:0:0:
64,192,29779,1,0,0:0:0:0:
448,192,29779,1,0,0:0:0:0:
192,192,29887,128,0,29994:0:0:0:0:
64,192,29994,1,0,0:0:0:0:
320,192,30101,1,0,0:0:0:0:
448,192,30101,1,0,0:0:0:0:
320,192,30315,1,0,0:0:0:0:
448,192,30422,1,0,0:0:0:0:
192,192,30422,1,0,0:0:0:0:
64,192,30529,1,0,0:0:0:0:
320,192,30637,128,0,30690:0:0:0:0:
448,192,30637,128,0,30690:0:0:0:0:
192,192,30744,1,0,0:0:0:0:
448,192,30851,1,0,0:0:0:0:
64,192,30958,1,0,0:0:0:0:
448,192,31065,1,0,0:0:0:0:
192,192,31065,1,0,0:0:0:0:
192,192,31279,128,0,31387:0:0:0:0:
320,192,31387,1,0,0:0:0:0:
64,192,31494,1,0,0:0:0:0:
448,192,31494,128,0,31601:0:0:0:0:
320,192,31601,1,0,0:0:0:0:
64,192,31708,1,0,0:0:0:0:
192,192,31815,1,0,0:0:0:0:
448,192,31922,1,0,0:0:0:0:
64,192,32029,1,0,0:0:0:0:
448,192,32137,1,0,0:0:0:0:
192,192,32244,1,0,0:0:0:0:
320,192,32351,1,0,0:0:0:0:
448,192,32351,1,0,0:0:0:0:
64,192,32458,1,0,0:0:0:0:
192,192,32458,1,0,0:0:0:0:
320,192,32565,1,0,0:0:0:0:
64,192,32672,1,0,0:0:0:0:
192,192,32779,128,0,32815:0:0:0:0:
448,192,32779,1,0,0:0:0:0:
320,192,32994,1,0,0:0:0:0:
192,192,33208,1,0,0:0:0:0:
320,192,33315,1,0,0:0:0:0:
64,192,33422,1,0,0:0:0:0:
448,192,33529,1,0,0:0:0:0:
320,192,33637,1,0,0:0:0:0:
64,192,33744,1,0,0:0:0:0:
448,192,33851,1,0,0:0:0:0:
320,192,33851,1,0,0:0:0:0:
192,192,33958,1,0,0:0:0:0:
448,192,34065,1,0,0:0:0:0:
192,192,34172,1,0,0:0:0:0:
64,192,34279,1,0,0:0:0:0:
448,192,34387,1,0,0:0:0:0:
320,192,34494,1,0,0:0:0:0:
192,192,34494,1,0,0:0:0:0:
448,192,34708,1,0,0:0:0:0:
64,192,34708,1,0,0:0:0:0:
64,192,34922,1,0,0:0:0:0:
320,192,34922,128,0,34976:0:0:0:0:
448,192,34922,128,0,34976:0:0:0:0:
192,192,35029,1,0,0:0:0:0:
448,192,35137,1,0,0:0:0:0:
64,192,35244,1,0,0:0:0:0:
192,192,35244,1,0,0:0:0:0:
320,192,35458,1,0,0:0:0:0:
64,192,35565,1,0,0:0:0:0:
448,192,35565,1,0,0:0:0:0:
192,192,35672,1,0,0:0:0:0:
320,192,35779,128,0,35833:0:0:0:0:
448,192,35779,128,0,35833:0:0:0:0:
64,192,35887,1,0,0:0:0:0:
320,192,35994,1,0,0:0:0:0:
192,192,36101,1,0,0:0:0:0:
320,192,36208,1,0,0:0:0:0:
448,192,36208,1,0,0:0:0:0:
192,192,36422,1,0,0:0:0:0:
448,192,36637,1,0,0:0:0:0:
64,192,36637,128,0,36690:0:0:0:0:
192,192,36637,128,0,36690:0:0:0:0:
320,192,36744,1,0,0:0:0:0:
64,192,36878,1,0,0:0:0:0:
448,192,36958,1,0,0:0:0:0:
320,192,37065,1,0,0:0:0:0:
448,192,37172,1,0,0:0:0:0:
320,192,37279,1,0,0:0:0:0:
64,192,37387,1,0,0:0:0:0:
192,192,37494,1,0,0:0:0:0:
448,192,37494,1,0,0:0:0:0:
320,192,37601,1,0,0:0:0:0:
192,192,37708,1,0,0:0:0:0:
320,192,37815,1,0,0:0:0:0:
448,192,37815,1,0,0:0:0:0:
192,192,37922,1,0,0:0:0:0:
64,192,37922,1,0,0:0:0:0:
320,192,38137,128,0,38190:0:0:0:0:
192,192,38137,128,0,38190:0:0:0:0:
192,192,38351,1,0,0:0:0:0:
320,192,38351,1,0,0:0:0:0:
64,192,38458,1,0,0:0:0:0:
448,192,38565,1,0,0:0:0:0:
192,192,38672,1,0,0:0:0:0:
448,192,38779,1,0,0:0:0:0:
64,192,38887,1,0,0:0:0:0:
192,192,38994,1,0,0:0:0:0:
320,192,38994,1,0,0:0:0:0:
448,192,39101,1,0,0:0:0:0:
192,192,39208,1,0,0:0:0:0:
320,192,39315,1,0,0:0:0:0:
64,192,39422,1,0,0:0:0:0:
320,192,39529,1,0,0:0:0:0:
64,192,39637,1,0,0:0:0:0:
192,192,39637,1,0,0:0:0:0:
320,192,39851,1,0,0:0:0:0:
192,192,40065,1,0,0:0:0:0:
448,192,40065,1,0,0:0:0:0:
320,192,40172,1,0,0:0:0:0:
64,192,40279,1,0,0:0:0:0:
192,192,40387,1,0,0:0:0:0:
320,192,40387,1,0,0:0:0:0:
448,192,40494,1,0,0:0:0:0:
192,192,40601,1,0,0:0:0:0:
320,192,40708,1,0,0:0:0:0:
448,192,40815,1,0,0:0:0:0:
192,192,40922,1,0,0:0:0:0:
320,192,40922,1,0,0:0:0:0:
64,192,41029,1,0,0:0:0:0:
320,192,41137,1,0,0:0:0:0:
192,192,41244,1,0,0:0:0:0:
64,192,41244,1,0,0:0:0:0:
320,192,41351,1,0,0:0:0:0:
448,192,41351,1,0,0:0:0:0:
448,192,41565,1,0,0:0:0:0:
192,192,41565,1,0,0:0:0:0:
192,192,41779,1,0,0:0:0:0:
64,192,41779,1,0,0:0:0:0:
320,192,41887,1,0,0:0:0:0:
448,192,41994,1,0,0:0:0:0:
64,192,42101,1,0,0:0:0:0:
192,192,42101,1,0,0:0:0:0:
192,192,42315,1,0,0:0:0:0:
448,192,42422,1,0,0:0:0:0:
320,192,42422,1,0,0:0:0:0:
64,192,42529,1,0,0:0:0:0:
320,192,42637,1,0,0:0:0:0:
192,192,42744,1,0,0:0:0:0:
448,192,42851,1,0,0:0:0:0:
64,192,42958,1,0,0:0:0:0:
448,192,43065,1,0,0:0:0:0:
192,192,43065,1,0,0:0:0:0:
320,192,43279,1,0,0:0:0:0:
448,192,43494,1,0,0:0:0:0:
64,192,43494,1,0,0:0:0:0:
192,192,43601,1,0,0:0:0:0:
448,192,43708,1,0,0:0:0:0:
192,192,43815,1,0,0:0:0:0:
320,192,43815,1,0,0:0:0:0:
64,192,43922,1,0,0:0:0:0:
448,192,44029,1,0,0:0:0:0:
192,192,44137,1,0,0:0:0:0:
64,192,44244,1,0,0:0:0:0:
448,192,44351,1,0,0:0:0:0:
192,192,44458,1,0,0:0:0:0:
320,192,44565,1,0,0:0:0:0:
192,192,44672,1,0,0:0:0:0:
64,192,44672,1,0,0:0:0:0:
448,192,44779,1,0,0:0:0:0:
320,192,44779,1,0,0:0:0:0:
64,192,44994,128,0,45047:0:0:0:0:
192,192,44994,128,0,45047:0:0:0:0:
320,192,45208,1,0,0:0:0:0:
448,192,45208,1,0,0:0:0:0:
192,192,45315,1,0,0:0:0:0:
448,192,45422,1,0,0:0:0:0:
64,192,45529,1,0,0:0:0:0:
448,192,45637,1,0,0:0:0:0:
192,192,45744,1,0,0:0:0:0:
320,192,45851,1,0,0:0:0:0:
64,192,45851,1,0,0:0:0:0:
448,192,45958,1,0,0:0:0:0:
192,192,46065,1,0,0:0:0:0:
448,192,46172,1,0,0:0:0:0:
64,192,46279,1,0,0:0:0:0:
320,192,46387,1,0,0:0:0:0:
192,192,46494,1,0,0:0:0:0:
64,192,46494,1,0,0:0:0:0:
192,192,46708,1,0,0:0:0:0:
448,192,46922,1,0,0:0:0:0:
192,192,46922,1,0,0:0:0:0:
64,192,47029,1,0,0:0:0:0:
448,192,47137,1,0,0:0:0:0:
192,192,47244,1,0,0:0:0:0:
320,192,47244,1,0,0:0:0:0:
64,192,47351,1,0,0:0:0:0:
448,192,47458,1,0,0:0:0:0:
64,192,47565,1,0,0:0:0:0:
192,192,47565,1,0,0:0:0:0:
320,192,47672,1,0,0:0:0:0:
64,192,47779,1,0,0:0:0:0:
448,192,47887,1,0,0:0:0:0:
192,192,47994,1,0,0:0:0:0:
448,192,48101,1,0,0:0:0:0:
192,192,48208,128,0,48262:0:0:0:0:
64,192,48208,128,0,48262:0:0:0:0:
320,192,48315,128,0,48369:0:0:0:0:
448,192,48315,128,0,48369:0:0:0:0:
64,192,48422,128,0,48476:0:0:0:0:
192,192,48422,128,0,48476:0:0:0:0:
448,192,48637,128,0,48690:0:0:0:0:
64,192,48637,128,0,48690:0:0:0:0:
320,192,48744,1,0,0:0:0:0:
64,192,48851,1,0,0:0:0:0:
448,192,48958,1,0,0:0:0:0:
320,192,48958,1,0,0:0:0:0:
320,192,49172,1,0,0:0:0:0:
448,192,49279,1,0,0:0:0:0:
64,192,49279,1,0,0:0:0:0:
192,192,49387,1,0,0:0:0:0:
448,192,49494,1,0,0:0:0:0:
320,192,49601,128,0,49654:0:0:0:0:
64,192,49601,128,0,49654:0:0:0:0:
192,192,49708,1,0,0:0:0:0:
448,192,49815,1,0,0:0:0:0:
192,192,49922,1,0,0:0:0:0:
64,192,49922,1,0,0:0:0:0:
320,192,50029,1,0,0:0:0:0:
192,192,50137,1,0,0:0:0:0:
64,192,50351,1,0,0:0:0:0:
448,192,50351,128,0,50994:0:0:0:0:
192,192,50458,1,0,0:0:0:0:
320,192,50565,1,0,0:0:0:0:
64,192,50672,1,0,0:0:0:0:
192,192,50779,1,0,0:0:0:0:
320,192,50887,1,0,0:0:0:0:
192,192,50994,1,0,0:0:0:0:
64,192,51101,1,0,0:0:0:0:
448,192,51101,1,0,0:0:0:0:
320,192,51208,1,0,0:0:0:0:
192,192,51315,1,0,0:0:0:0:
64,192,51422,1,0,0:0:0:0:
320,192,51529,1,0,0:0:0:0:
448,192,51529,1,0,0:0:0:0:
64,192,51637,1,0,0:0:0:0:
192,192,51637,1,0,0:0:0:0:
320,192,51851,1,0,0:0:0:0:
192,192,51851,128,0,51904:0:0:0:0:
320,192,52065,1,0,0:0:0:0:
192,192,52065,128,0,52708:0:0:0:0:
448,192,52172,1,0,0:0:0:0:
64,192,52279,1,0,0:0:0:0:
448,192,52387,1,0,0:0:0:0:
320,192,52494,1,0,0:0:0:0:
448,192,52601,1,0,0:0:0:0:
320,192,52708,1,0,0:0:0:0:
64,192,52708,1,0,0:0:0:0:
448,192,52815,1,0,0:0:0:0:
64,192,52922,1,0,0:0:0:0:
320,192,53029,1,0,0:0:0:0:
448,192,53137,1,0,0:0:0:0:
192,192,53244,1,0,0:0:0:0:
64,192,53351,1,0,0:0:0:0:
448,192,53351,1,0,0:0:0:0:
192,192,53458,1,0,0:0:0:0:
320,192,53458,1,0,0:0:0:0:
64,192,53565,1,0,0:0:0:0:
320,192,53672,1,0,0:0:0:0:
448,192,53672,1,0,0:0:0:0:
192,192,53779,128,0,54637:0:0:0:0:
64,192,53779,1,0,0:0:0:0:
64,192,54637,128,0,55440:0:0:0:0:
320,192,55065,128,0,55440:0:0:0:0:
448,192,55494,128,0,55565:0:0:0:0:
192,192,55494,1,0,0:0:0:0:
64,192,55494,1,0,0:0:0:0:
320,192,55601,1,0,0:0:0:0:
192,192,55708,1,0,0:0:0:0:
448,192,55815,1,0,0:0:0:0:
320,192,55922,1,0,0:0:0:0:
192,192,56029,1,0,0:0:0:0:
448,192,56137,1,0,0:0:0:0:
320,192,56137,1,0,0:0:0:0:
64,192,56244,1,0,0:0:0:0:
192,192,56351,1,0,0:0:0:0:
320,192,56351,1,0,0:0:0:0:
448,192,56351,1,0,0:0:0:0:
64,192,56458,1,0,0:0:0:0:
192,192,56565,1,0,0:0:0:0:
448,192,56672,128,0,56779:0:0:0:0:
320,192,56779,1,0,0:0:0:0:
64,192,56779,128,0,57208:0:0:0:0:
192,192,56887,1,0,0:0:0:0:
448,192,56994,1,0,0:0:0:0:
320,192,57101,1,0,0:0:0:0:
192,192,57208,1,0,0:0:0:0:
448,192,57315,1,0,0:0:0:0:
320,192,57422,1,0,0:0:0:0:
192,192,57529,1,0,0:0:0:0:
64,192,57637,1,0,0:0:0:0:
448,192,57637,1,0,0:0:0:0:
320,192,57744,1,0,0:0:0:0:
448,192,57851,1,0,0:0:0:0:
64,192,57958,1,0,0:0:0:0:
192,192,58065,1,0,0:0:0:0:
320,192,58065,1,0,0:0:0:0:
448,192,58065,1,0,0:0:0:0:
64,192,58172,1,0,0:0:0:0:
192,192,58279,1,0,0:0:0:0:
320,192,58387,1,0,0:0:0:0:
448,192,58387,1,0,0:0:0:0:
64,192,58494,1,0,0:0:0:0:
192,192,58601,1,0,0:0:0:0:
448,192,58708,1,0,0:0:0:0:
64,192,58708,1,0,0:0:0:0:
320,192,58815,1,0,0:0:0:0:
64,192,58922,1,0,0:0:0:0:
448,192,58922,1,0,0:0:0:0:
192,192,59029,1,0,0:0:0:0:
320,192,59137,1,0,0:0:0:0:
448,192,59244,1,0,0:0:0:0:
64,192,59244,1,0,0:0:0:0:
192,192,59351,1,0,0:0:0:0:
320,192,59458,1,0,0:0:0:0:
448,192,59565,1,0,0:0:0:0:
64,192,59565,1,0,0:0:0:0:
192,192,59672,1,0,0:0:0:0:
64,192,59779,1,0,0:0:0:0:
320,192,59779,1,0,0:0:0:0:
448,192,59779,1,0,0:0:0:0:
192,192,59887,1,0,0:0:0:0:
64,192,59994,1,0,0:0:0:0:
320,192,59994,128,0,60101:0:0:0:0:
448,192,60101,1,0,0:0:0:0:
192,192,60208,1,0,0:0:0:0:
320,192,60208,1,0,0:0:0:0:
64,192,60315,1,0,0:0:0:0:
192,192,60422,1,0,0:0:0:0:
320,192,60529,1,0,0:0:0:0:
448,192,60637,1,0,0:0:0:0:
320,192,60744,1,0,0:0:0:0:
64,192,60851,1,0,0:0:0:0:
448,192,60851,1,0,0:0:0:0:
192,192,60958,1,0,0:0:0:0:
448,192,61065,1,0,0:0:0:0:
320,192,61065,1,0,0:0:0:0:
64,192,61172,1,0,0:0:0:0:
192,192,61172,1,0,0:0:0:0:
320,192,61279,1,0,0:0:0:0:
192,192,61387,1,0,0:0:0:0:
64,192,61387,1,0,0:0:0:0:
320,192,61494,1,0,0:0:0:0:
448,192,61494,1,0,0:0:0:0:
192,192,61601,1,0,0:0:0:0:
320,192,61708,1,0,0:0:0:0:
448,192,61815,1,0,0:0:0:0:
320,192,61922,1,0,0:0:0:0:
64,192,61922,1,0,0:0:0:0:
192,192,62029,1,0,0:0:0:0:
448,192,62029,1,0,0:0:0:0:
320,192,62137,1,0,0:0:0:0:
64,192,62244,1,0,0:0:0:0:
192,192,62351,1,0,0:0:0:0:
448,192,62351,1,0,0:0:0:0:
320,192,62351,1,0,0:0:0:0:
64,192,62458,1,0,0:0:0:0:
448,192,62565,1,0,0:0:0:0:
320,192,62672,1,0,0:0:0:0:
64,192,62672,1,0,0:0:0:0:
192,192,62779,1,0,0:0:0:0:
320,192,62887,1,0,0:0:0:0:
448,192,62994,1,0,0:0:0:0:
64,192,62994,1,0,0:0:0:0:
192,192,63101,1,0,0:0:0:0:
320,192,63208,1,0,0:0:0:0:
448,192,63208,1,0,0:0:0:0:
64,192,63208,1,0,0:0:0:0:
192,192,63315,1,0,0:0:0:0:
320,192,63422,1,0,0:0:0:0:
64,192,63529,1,0,0:0:0:0:
320,192,63637,1,0,0:0:0:0:
192,192,63637,1,0,0:0:0:0:
448,192,63637,1,0,0:0:0:0:
64,192,63744,1,0,0:0:0:0:
192,192,63851,1,0,0:0:0:0:
320,192,63958,1,0,0:0:0:0:
448,192,64065,1,0,0:0:0:0:
192,192,64065,1,0,0:0:0:0:
64,192,64172,1,0,0:0:0:0:
192,192,64279,1,0,0:0:0:0:
320,192,64387,1,0,0:0:0:0:
448,192,64494,1,0,0:0:0:0:
64,192,64494,1,0,0:0:0:0:
192,192,64601,1,0,0:0:0:0:
320,192,64708,1,0,0:0:0:0:
448,192,64708,1,0,0:0:0:0:
192,192,64815,1,0,0:0:0:0:
64,192,64922,1,0,0:0:0:0:
320,192,64922,1,0,0:0:0:0:
448,192,64922,1,0,0:0:0:0:
192,192,65029,1,0,0:0:0:0:
320,192,65137,1,0,0:0:0:0:
448,192,65244,1,0,0:0:0:0:
64,192,65244,1,0,0:0:0:0:
192,192,65351,1,0,0:0:0:0:
448,192,65458,1,0,0:0:0:0:
320,192,65565,1,0,0:0:0:0:
64,192,65565,1,0,0:0:0:0:
192,192,65672,1,0,0:0:0:0:
320,192,65779,1,0,0:0:0:0:
448,192,65779,1,0,0:0:0:0:
64,192,65887,1,0,0:0:0:0:
192,192,65994,1,0,0:0:0:0:
448,192,65994,1,0,0:0:0:0:
320,192,66101,1,0,0:0:0:0:
448,192,66208,1,0,0:0:0:0:
64,192,66208,1,0,0:0:0:0:
192,192,66315,1,0,0:0:0:0:
320,192,66422,1,0,0:0:0:0:
448,192,66422,1,0,0:0:0:0:
64,192,66529,1,0,0:0:0:0:
320,192,66637,1,0,0:0:0:0:
448,192,66637,1,0,0:0:0:0:
192,192,66637,1,0,0:0:0:0:
64,192,66744,1,0,0:0:0:0:
192,192,66851,1,0,0:0:0:0:
448,192,66851,1,0,0:0:0:0:
320,192,66958,1,0,0:0:0:0:
448,192,67065,1,0,0:0:0:0:
64,192,67065,1,0,0:0:0:0:
192,192,67172,1,0,0:0:0:0:
320,192,67279,1,0,0:0:0:0:
64,192,67387,1,0,0:0:0:0:
448,192,67494,1,0,0:0:0:0:
192,192,67601,1,0,0:0:0:0:
320,192,67708,1,0,0:0:0:0:
64,192,67708,1,0,0:0:0:0:
192,192,67815,1,0,0:0:0:0:
448,192,67922,1,0,0:0:0:0:
64,192,67922,1,0,0:0:0:0:
320,192,68029,1,0,0:0:0:0:
192,192,68137,1,0,0:0:0:0:
448,192,68244,1,0,0:0:0:0:
320,192,68351,1,0,0:0:0:0:
192,192,68351,1,0,0:0:0:0:
64,192,68351,1,0,0:0:0:0:
192,192,69208,1,0,0:0:0:0:
320,192,69208,1,0,0:0:0:0:
448,192,69208,1,0,0:0:0:0:
64,192,69315,1,0,0:0:0:0:
192,192,69422,1,0,0:0:0:0:
448,192,69529,1,0,0:0:0:0:
64,192,69529,1,0,0:0:0:0:
320,192,69637,1,0,0:0:0:0:
192,192,69744,1,0,0:0:0:0:
64,192,69851,1,0,0:0:0:0:
320,192,69851,1,0,0:0:0:0:
448,192,69958,1,0,0:0:0:0:
64,192,70065,1,0,0:0:0:0:
320,192,70065,1,0,0:0:0:0:
192,192,70172,1,0,0:0:0:0:
448,192,70172,1,0,0:0:0:0:
320,192,70279,1,0,0:0:0:0:
64,192,70387,1,0,0:0:0:0:
448,192,70387,1,0,0:0:0:0:
192,192,70494,1,0,0:0:0:0:
320,192,70494,128,0,70547:0:0:0:0:
448,192,70601,1,0,0:0:0:0:
64,192,70708,1,0,0:0:0:0:
320,192,70708,1,0,0:0:0:0:
192,192,70815,1,0,0:0:0:0:
320,192,70922,1,0,0:0:0:0:
448,192,70922,128,0,71029:0:0:0:0:
64,192,71029,1,0,0:0:0:0:
448,192,71137,1,0,0:0:0:0:
192,192,71244,1,0,0:0:0:0:
64,192,71244,1,0,0:0:0:0:
320,192,71351,1,0,0:0:0:0:
448,192,71351,1,0,0:0:0:0:
192,192,71458,1,0,0:0:0:0:
64,192,71565,1,0,0:0:0:0:
448,192,71565,1,0,0:0:0:0:
320,192,71672,1,0,0:0:0:0:
192,192,71672,1,0,0:0:0:0:
64,192,71779,1,0,0:0:0:0:
448,192,71779,1,0,0:0:0:0:
192,192,71887,1,0,0:0:0:0:
320,192,71994,1,0,0:0:0:0:
448,192,72101,1,0,0:0:0:0:
64,192,72101,1,0,0:0:0:0:
192,192,72208,1,0,0:0:0:0:
320,192,72208,1,0,0:0:0:0:
64,192,72315,1,0,0:0:0:0:
448,192,72422,128,0,72476:0:0:0:0:
64,192,72529,1,0,0:0:0:0:
448,192,72637,1,0,0:0:0:0:
192,192,72637,128,0,72690:0:0:0:0:
320,192,72744,1,0,0:0:0:0:
192,192,72851,1,0,0:0:0:0:
320,192,72958,1,0,0:0:0:0:
448,192,72958,128,0,73012:0:0:0:0:
64,192,73065,1,0,0:0:0:0:
448,192,73172,1,0,0:0:0:0:
192,192,73279,1,0,0:0:0:0:
320,192,73387,1,0,0:0:0:0:
192,192,73494,1,0,0:0:0:0:
448,192,73494,1,0,0:0:0:0:
64,192,73494,128,0,73547:0:0:0:0:
320,192,73601,1,0,0:0:0:0:
192,192,73708,1,0,0:0:0:0:
64,192,73815,1,0,0:0:0:0:
320,192,73815,1,0,0:0:0:0:
448,192,73815,128,0,73869:0:0:0:0:
192,192,73922,1,0,0:0:0:0:
448,192,74029,1,0,0:0:0:0:
64,192,74137,1,0,0:0:0:0:
192,192,74137,1,0,0:0:0:0:
320,192,74244,1,0,0:0:0:0:
448,192,74351,1,0,0:0:0:0:
192,192,74351,128,0,74404:0:0:0:0:
320,192,74458,1,0,0:0:0:0:
64,192,74565,1,0,0:0:0:0:
192,192,74672,1,0,0:0:0:0:
448,192,74672,128,0,74726:0:0:0:0:
64,192,74779,1,0,0:0:0:0:
320,192,74779,1,0,0:0:0:0:
192,192,74887,1,0,0:0:0:0:
320,192,74994,1,0,0:0:0:0:
192,192,75101,1,0,0:0:0:0:
64,192,75101,1,0,0:0:0:0:
320,192,75208,1,0,0:0:0:0:
448,192,75208,1,0,0:0:0:0:
64,192,75315,1,0,0:0:0:0:
448,192,75422,1,0,0:0:0:0:
192,192,75529,1,0,0:0:0:0:
320,192,75529,1,0,0:0:0:0:
448,192,75637,1,0,0:0:0:0:
64,192,75637,128,0,75690:0:0:0:0:
192,192,75744,128,0,75797:0:0:0:0:
64,192,75851,1,0,0:0:0:0:
320,192,75851,128,0,75904:0:0:0:0:
448,192,75958,1,0,0:0:0:0:
320,192,76065,1,0,0:0:0:0:
192,192,76065,128,0,76172:0:0:0:0:
64,192,76172,1,0,0:0:0:0:
448,192,76279,1,0,0:0:0:0:
192,192,76387,1,0,0:0:0:0:
448,192,76494,1,0,0:0:0:0:
64,192,76494,1,0,0:0:0:0:
192,192,76601,1,0,0:0:0:0:
448,192,76708,1,0,0:0:0:0:
320,192,76708,128,0,76762:0:0:0:0:
192,192,76815,1,0,0:0:0:0:
320,192,76922,1,0,0:0:0:0:
448,192,76922,1,0,0:0:0:0:
64,192,76922,1,0,0:0:0:0:
192,192,77029,1,0,0:0:0:0:
448,192,77137,1,0,0:0:0:0:
320,192,77244,1,0,0:0:0:0:
192,192,77244,1,0,0:0:0:0:
64,192,77351,1,0,0:0:0:0:
448,192,77351,128,0,77404:0:0:0:0:
192,192,77458,128,0,77512:0:0:0:0:
64,192,77565,1,0,0:0:0:0:
320,192,77565,128,0,77619:0:0:0:0:
192,192,77672,128,0,77726:0:0:0:0:
320,192,77779,1,0,0:0:0:0:
448,192,77779,128,0,77887:0:0:0:0:
192,192,77887,1,0,0:0:0:0:
64,192,77994,1,0,0:0:0:0:
448,192,77994,1,0,0:0:0:0:
320,192,78101,1,0,0:0:0:0:
192,192,78208,1,0,0:0:0:0:
64,192,78208,1,0,0:0:0:0:
320,192,78315,1,0,0:0:0:0:
448,192,78422,1,0,0:0:0:0:
64,192,78422,128,0,78476:0:0:0:0:
320,192,78529,1,0,0:0:0:0:
192,192,78637,1,0,0:0:0:0:
64,192,78637,1,0,0:0:0:0:
448,192,78637,1,0,0:0:0:0:
320,192,78744,1,0,0:0:0:0:
192,192,78851,1,0,0:0:0:0:
64,192,78958,1,0,0:0:0:0:
192,192,79065,1,0,0:0:0:0:
448,192,79065,1,0,0:0:0:0:
320,192,79172,1,0,0:0:0:0:
64,192,79279,1,0,0:0:0:0:
192,192,79279,128,0,79333:0:0:0:0:
320,192,79387,1,0,0:0:0:0:
64,192,79494,1,0,0:0:0:0:
448,192,79494,128,0,79547:0:0:0:0:
192,192,79601,1,0,0:0:0:0:
320,192,79708,1,0,0:0:0:0:
448,192,79815,1,0,0:0:0:0:
192,192,79815,1,0,0:0:0:0:
64,192,79922,1,0,0:0:0:0:
192,192,80029,1,0,0:0:0:0:
320,192,80137,1,0,0:0:0:0:
192,192,80244,1,0,0:0:0:0:
448,192,80351,1,0,0:0:0:0:
64,192,80351,1,0,0:0:0:0:
192,192,80458,1,0,0:0:0:0:
448,192,80565,1,0,0:0:0:0:
320,192,80672,1,0,0:0:0:0:
64,192,80672,1,0,0:0:0:0:
192,192,80779,1,0,0:0:0:0:
448,192,80779,1,0,0:0:0:0:
320,192,80887,128,0,80940:0:0:0:0:
64,192,80994,128,0,81047:0:0:0:0:
448,192,81101,1,0,0:0:0:0:
192,192,81208,1,0,0:0:0:0:
320,192,81208,128,0,81262:0:0:0:0:
64,192,81315,1,0,0:0:0:0:
192,192,81315,1,0,0:0:0:0:
320,192,81387,1,0,0:0:0:0:
448,192,81458,1,0,0:0:0:0:
64,192,81601,1,0,0:0:0:0:
320,192,81601,1,0,0:0:0:0:
192,192,81744,1,0,0:0:0:0:
64,192,81744,1,0,0:0:0:0:
192,192,81887,1,0,0:0:0:0:
320,192,81887,1,0,0:0:0:0:
320,192,82029,1,0,0:0:0:0:
448,192,82029,1,0,0:0:0:0:
64,192,82172,1,0,0:0:0:0:
192,192,82172,1,0,0:0:0:0:
192,192,82315,1,0,0:0:0:0:
320,192,82315,1,0,0:0:0:0:
448,192,82494,128,0,82601:0:0:0:0:
64,192,82494,128,0,82547:0:0:0:0:
320,192,82601,128,0,82708:0:0:0:0:
192,192,82708,1,0,0:0:0:0:
192,192,82922,128,0,83029:0:0:0:0:
320,192,82922,128,0,83029:0:0:0:0:
448,192,82922,128,0,83029:0:0:0:0:
64,192,83565,128,0,83672:0:0:0:0:
192,192,83565,128,0,83672:0:0:0:0:
448,192,83565,128,0,83672:0:0:0:0:
192,192,83779,1,0,0:0:0:0:
320,192,83779,1,0,0:0:0:0:
448,192,83779,1,0,0:0:0:0:
64,192,84208,128,0,85494:0:0:0:0:
192,192,84208,1,0,0:0:0:0:
320,192,84315,1,0,0:0:0:0:
448,192,84422,1,0,0:0:0:0:
192,192,84529,1,0,0:0:0:0:
320,192,84637,1,0,0:0:0:0:
192,192,84744,1,0,0:0:0:0:
448,192,84851,1,0,0:0:0:0:
320,192,84958,1,0,0:0:0:0:
192,192,85065,1,0,0:0:0:0:
320,192,85172,1,0,0:0:0:0:
448,192,85279,1,0,0:0:0:0:
192,192,85387,1,0,0:0:0:0:
320,192,85494,1,0,0:0:0:0:
448,192,85494,1,0,0:0:0:0:
64,192,85922,1,0,0:0:0:0:
192,192,86029,1,0,0:0:0:0:
448,192,86137,1,0,0:0:0:0:
320,192,86351,128,0,86458:0:0:0:0:
64,192,86351,128,0,86458:0:0:0:0:
192,192,86351,128,0,86458:0:0:0:0:
448,192,86458,1,0,0:0:0:0:
320,192,86779,1,0,0:0:0:0:
64,192,86779,1,0,0:0:0:0:
192,192,86994,128,0,87101:0:0:0:0:
320,192,86994,128,0,87101:0:0:0:0:
448,192,86994,128,0,87101:0:0:0:0:
64,192,87208,1,0,0:0:0:0:
192,192,87208,1,0,0:0:0:0:
320,192,87208,1,0,0:0:0:0:
320,192,87422,1,0,0:0:0:0:
448,192,87422,128,0,87476:0:0:0:0:
64,192,87637,128,0,87690:0:0:0:0:
192,192,87637,128,0,87690:0:0:0:0:
320,192,87637,128,0,87690:0:0:0:0:
64,192,87779,1,0,0:0:0:0:
192,192,87779,1,0,0:0:0:0:
64,192,87922,1,0,0:0:0:0:
192,192,87922,1,0,0:0:0:0:
64,192,88065,1,0,0:0:0:0:
320,192,88065,1,0,0:0:0:0:
64,192,88208,1,0,0:0:0:0:
320,192,88208,1,0,0:0:0:0:
64,192,88351,1,0,0:0:0:0:
320,192,88351,1,0,0:0:0:0:
448,192,88494,1,0,0:0:0:0:
64,192,88494,1,0,0:0:0:0:
64,192,88637,1,0,0:0:0:0:
448,192,88637,1,0,0:0:0:0:
448,192,88779,1,0,0:0:0:0:
64,192,88779,1,0,0:0:0:0:
320,192,88922,128,0,89279:0:0:0:0:
448,192,88922,128,0,89279:0:0:0:0:
192,192,88922,1,0,0:0:0:0:
64,192,89244,1,0,0:0:0:0:
192,192,89351,1,0,0:0:0:0:
448,192,89351,1,0,0:0:0:0:
320,192,89458,1,0,0:0:0:0:
64,192,89565,1,0,0:0:0:0:
192,192,89565,1,0,0:0:0:0:
320,192,89672,1,0,0:0:0:0:
448,192,89672,1,0,0:0:0:0:
64,192,89779,128,0,89887:0:0:0:0:
192,192,89779,128,0,89887:0:0:0:0:
448,192,90101,1,0,0:0:0:0:
64,192,90208,1,0,0:0:0:0:
320,192,90422,128,0,90529:0:0:0:0:
448,192,90422,128,0,90529:0:0:0:0:
64,192,90637,1,0,0:0:0:0:
192,192,90637,1,0,0:0:0:0:
320,192,90637,1,0,0:0:0:0:
448,192,90851,1,0,0:0:0:0:
320,192,91065,128,0,92351:0:0:0:0:
64,192,91065,1,0,0:0:0:0:
192,192,91172,1,0,0:0:0:0:
448,192,91279,1,0,0:0:0:0:
64,192,91387,1,0,0:0:0:0:
448,192,91494,1,0,0:0:0:0:
192,192,91601,1,0,0:0:0:0:
64,192,91708,1,0,0:0:0:0:
192,192,91815,1,0,0:0:0:0:
448,192,91922,1,0,0:0:0:0:
64,192,92029,1,0,0:0:0:0:
192,192,92137,1,0,0:0:0:0:
64,192,92244,1,0,0:0:0:0:
192,192,92351,128,0,92458:0:0:0:0:
320,192,92458,128,0,92565:0:0:0:0:
448,192,92565,128,0,92672:0:0:0:0:
64,192,92672,128,0,93101:0:0:0:0:
448,192,93208,128,0,93315:0:0:0:0:
320,192,93208,128,0,93315:0:0:0:0:
192,192,93208,128,0,93315:0:0:0:0:
64,192,93208,128,0,93315:0:0:0:0:
320,192,93637,1,0,0:0:0:0:
192,192,93851,128,0,93958:0:0:0:0:
64,192,93851,128,0,93958:0:0:0:0:
448,192,93851,128,0,93958:0:0:0:0:
64,192,94065,1,0,0:0:0:0:
320,192,94065,1,0,0:0:0:0:
192,192,94065,1,0,0:0:0:0:
448,192,94494,128,0,95244:0:0:0:0:
64,192,94494,128,0,95779:0:0:0:0:
192,192,94494,1,0,0:0:0:0:
320,192,94601,1,0,0:0:0:0:
192,192,94708,1,0,0:0:0:0:
320,192,94815,1,0,0:0:0:0:
192,192,94922,1,0,0:0:0:0:
320,192,95029,1,0,0:0:0:0:
192,192,95137,1,0,0:0:0:0:
320,192,95244,1,0,0:0:0:0:
192,192,95351,1,0,0:0:0:0:
448,192,95458,1,0,0:0:0:0:
192,192,95565,1,0,0:0:0:0:
320,192,95565,1,0,0:0:0:0:
448,192,95672,1,0,0:0:0:0:
320,192,95726,1,0,0:0:0:0:
192,192,95779,1,0,0:0:0:0:
448,192,95887,1,0,0:0:0:0:
320,192,95887,1,0,0:0:0:0:
64,192,96047,1,0,0:0:0:0:
320,192,96154,1,0,0:0:0:0:
192,192,96154,1,0,0:0:0:0:
448,192,96315,1,0,0:0:0:0:
64,192,96315,1,0,0:0:0:0:
192,192,96476,1,0,0:0:0:0:
320,192,96476,1,0,0:0:0:0:
64,192,96637,128,0,96744:0:0:0:0:
448,192,96637,128,0,96744:0:0:0:0:
192,192,97279,128,0,97494:0:0:0:0:
320,192,97279,128,0,97494:0:0:0:0:
64,192,97494,1,0,0:0:0:0:
448,192,97494,1,0,0:0:0:0:
448,192,97922,128,0,99208:0:0:0:0:
64,192,97922,1,0,0:0:0:0:
192,192,98029,1,0,0:0:0:0:
64,192,98137,1,0,0:0:0:0:
320,192,98244,1,0,0:0:0:0:
192,192,98351,1,0,0:0:0:0:
320,192,98458,1,0,0:0:0:0:
64,192,98565,1,0,0:0:0:0:
192,192,98672,1,0,0:0:0:0:
64,192,98779,1,0,0:0:0:0:
320,192,98887,1,0,0:0:0:0:
192,192,98994,1,0,0:0:0:0:
320,192,99101,1,0,0:0:0:0:
192,192,99208,128,0,99315:0:0:0:0:
64,192,99208,1,0,0:0:0:0:
320,192,99315,128,0,99422:0:0:0:0:
448,192,99422,128,0,99529:0:0:0:0:
64,192,99529,128,0,99637:0:0:0:0:
192,192,99637,128,0,99744:0:0:0:0:
320,192,99744,128,0,99851:0:0:0:0:
448,192,99851,128,0,99958:0:0:0:0:
64,192,99958,128,0,100065:0:0:0:0:
192,192,100065,1,0,0:0:0:0:
448,192,100065,1,0,0:0:0:0:
320,192,100065,1,0,0:0:0:0:
64,192,100708,128,0,100815:0:0:0:0:
320,192,100708,128,0,100815:0:0:0:0:
448,192,100708,128,0,100815:0:0:0:0:
64,192,100922,1,0,0:0:0:0:
320,192,100922,1,0,0:0:0:0:
192,192,100922,1,0,0:0:0:0:
448,192,101351,128,0,101458:0:0:0:0:
64,192,101351,1,0,0:0:0:0:
320,192,101494,1,0,0:0:0:0:
64,192,101494,1,0,0:0:0:0:
320,192,101637,1,0,0:0:0:0:
64,192,101637,1,0,0:0:0:0:
64,192,101779,1,0,0:0:0:0:
448,192,101779,1,0,0:0:0:0:
64,192,101922,1,0,0:0:0:0:
448,192,101922,1,0,0:0:0:0:
192,192,102065,1,0,0:0:0:0:
448,192,102065,1,0,0:0:0:0:
192,192,102208,1,0,0:0:0:0:
448,192,102208,1,0,0:0:0:0:
64,192,102351,1,0,0:0:0:0:
192,192,102422,1,0,0:0:0:0:
320,192,102494,1,0,0:0:0:0:
448,192,102565,1,0,0:0:0:0:
64,192,102637,1,0,0:0:0:0:
192,192,102637,128,0,102851:0:0:0:0:
320,192,102637,128,0,102851:0:0:0:0:
64,192,102904,1,0,0:0:0:0:
192,192,102904,1,0,0:0:0:0:
448,192,103038,1,0,0:0:0:0:
320,192,103038,1,0,0:0:0:0:
64,192,103279,1,0,0:0:0:0:
192,192,103279,1,0,0:0:0:0:
320,192,103387,1,0,0:0:0:0:
64,192,103494,1,0,0:0:0:0:
448,192,103494,128,0,103708:0:0:0:0:
192,192,103494,128,0,103708:0:0:0:0:
64,192,104137,128,0,104297:0:0:0:0:
192,192,104137,128,0,104297:0:0:0:0:
320,192,104137,128,0,104297:0:0:0:0:
192,192,104351,1,0,0:0:0:0:
320,192,104351,1,0,0:0:0:0:
448,192,104351,1,0,0:0:0:0:
448,192,104779,128,0,105208:0:0:0:0:
64,192,104779,1,0,0:0:0:0:
192,192,104887,1,0,0:0:0:0:
320,192,104994,1,0,0:0:0:0:
192,192,105101,1,0,0:0:0:0:
64,192,105208,128,0,105637:0:0:0:0:
320,192,105208,1,0,0:0:0:0:
448,192,105315,1,0,0:0:0:0:
192,192,105422,1,0,0:0:0:0:
320,192,105529,1,0,0:0:0:0:
448,192,105637,128,0,106065:0:0:0:0:
192,192,105637,1,0,0:0:0:0:
64,192,105744,1,0,0:0:0:0:
192,192,105851,1,0,0:0:0:0:
320,192,105958,1,0,0:0:0:0:
64,192,106065,1,0,0:0:0:0:
192,192,106065,1,0,0:0:0:0:
192,192,106279,1,0,0:0:0:0:
320,192,106494,1,0,0:0:0:0:
320,192,106708,1,0,0:0:0:0:
192,192,106922,128,0,107029:0:0:0:0:
448,192,106922,128,0,107029:0:0:0:0:
64,192,106922,128,0,106976:0:0:0:0:
64,192,107565,128,0,107619:0:0:0:0:
192,192,107565,128,0,107779:0:0:0:0:
448,192,107565,128,0,107779:0:0:0:0:
64,192,108208,128,0,108262:0:0:0:0:
192,192,108208,128,0,110244:0:0:0:0:
448,192,108208,128,0,110244:0:0:0:0:
64,192,110351,1,0,0:0:0:0:
320,192,110351,1,0,0:0:0:0:
64,192,110494,1,0,0:0:0:0:
320,192,110637,128,0,110708:0:0:0:0:
448,192,110637,128,0,110708:0:0:0:0:
192,192,110637,1,0,0:0:0:0:
64,192,110779,1,0,0:0:0:0:
192,192,110779,1,0,0:0:0:0:
320,192,110922,1,0,0:0:0:0:
320,192,111065,1,0,0:0:0:0:
192,192,111208,1,0,0:0:0:0:
64,192,111208,1,0,0:0:0:0:
448,192,111208,1,0,0:0:0:0:
320,192,111351,1,0,0:0:0:0:
192,192,111494,1,0,0:0:0:0:
448,192,111637,1,0,0:0:0:0:
64,192,111637,1,0,0:0:0:0:
192,192,111779,1,0,0:0:0:0:
320,192,112065,1,0,0:0:0:0:
448,192,112065,1,0,0:0:0:0:
192,192,112208,1,0,0:0:0:0:
192,192,112351,1,0,0:0:0:0:
448,192,112494,1,0,0:0:0:0:
64,192,112494,1,0,0:0:0:0:
448,192,112637,1,0,0:0:0:0:
192,192,112779,1,0,0:0:0:0:
448,192,112922,1,0,0:0:0:0:
192,192,112922,1,0,0:0:0:0:
320,192,113065,1,0,0:0:0:0:
320,192,113208,1,0,0:0:0:0:
192,192,113351,1,0,0:0:0:0:
64,192,113351,1,0,0:0:0:0:
320,192,113494,1,0,0:0:0:0:
320,192,113779,1,0,0:0:0:0:
448,192,113779,1,0,0:0:0:0:
64,192,113922,1,0,0:0:0:0:
64,192,114065,1,0,0:0:0:0:
192,192,114065,1,0,0:0:0:0:
448,192,114208,1,0,0:0:0:0:
320,192,114208,1,0,0:0:0:0:
448,192,114351,1,0,0:0:0:0:
320,192,114494,1,0,0:0:0:0:
64,192,114637,1,0,0:0:0:0:
448,192,114637,1,0,0:0:0:0:
320,192,114637,1,0,0:0:0:0:
192,192,114779,1,0,0:0:0:0:
192,192,114922,1,0,0:0:0:0:
64,192,115065,1,0,0:0:0:0:
320,192,115065,1,0,0:0:0:0:
192,192,115208,1,0,0:0:0:0:
448,192,115494,1,0,0:0:0:0:
320,192,115494,1,0,0:0:0:0:
192,192,115637,1,0,0:0:0:0:
192,192,115779,1,0,0:0:0:0:
448,192,115922,1,0,0:0:0:0:
64,192,115922,1,0,0:0:0:0:
192,192,115922,1,0,0:0:0:0:
320,192,116065,1,0,0:0:0:0:
320,192,116208,1,0,0:0:0:0:
448,192,116351,1,0,0:0:0:0:
192,192,116351,1,0,0:0:0:0:
64,192,116351,1,0,0:0:0:0:
64,192,116494,1,0,0:0:0:0:
320,192,116637,1,0,0:0:0:0:
192,192,116779,1,0,0:0:0:0:
192,192,116922,1,0,0:0:0:0:
320,192,117065,1,0,0:0:0:0:
448,192,117065,128,0,117208:0:0:0:0:
64,192,117208,1,0,0:0:0:0:
192,192,117208,1,0,0:0:0:0:
192,192,117494,128,0,117565:0:0:0:0:
320,192,117494,128,0,117565:0:0:0:0:
448,192,117494,128,0,117565:0:0:0:0:
64,192,117637,1,0,0:0:0:0:
448,192,117779,1,0,0:0:0:0:
64,192,117922,1,0,0:0:0:0:
192,192,118065,1,0,0:0:0:0:
320,192,118065,1,0,0:0:0:0:
448,192,118065,1,0,0:0:0:0:
64,192,118208,1,0,0:0:0:0:
320,192,118351,1,0,0:0:0:0:
192,192,118494,1,0,0:0:0:0:
448,192,118637,1,0,0:0:0:0:
64,192,118779,128,0,118922:0:0:0:0:
192,192,118922,1,0,0:0:0:0:
320,192,118922,1,0,0:0:0:0:
448,192,119065,1,0,0:0:0:0:
448,192,119208,1,0,0:0:0:0:
320,192,119351,1,0,0:0:0:0:
192,192,119351,1,0,0:0:0:0:
192,192,119494,1,0,0:0:0:0:
320,192,119637,1,0,0:0:0:0:
320,192,119779,1,0,0:0:0:0:
448,192,119779,1,0,0:0:0:0:
64,192,119779,1,0,0:0:0:0:
448,192,119922,1,0,0:0:0:0:
192,192,120065,1,0,0:0:0:0:
192,192,120208,1,0,0:0:0:0:
64,192,120208,1,0,0:0:0:0:
64,192,120351,1,0,0:0:0:0:
320,192,120494,1,0,0:0:0:0:
192,192,120637,1,0,0:0:0:0:
64,192,120637,1,0,0:0:0:0:
448,192,120779,1,0,0:0:0:0:
448,192,120922,1,0,0:0:0:0:
320,192,121065,1,0,0:0:0:0:
192,192,121065,1,0,0:0:0:0:
320,192,121208,1,0,0:0:0:0:
64,192,121351,1,0,0:0:0:0:
448,192,121494,1,0,0:0:0:0:
64,192,121494,1,0,0:0:0:0:
192,192,121494,1,0,0:0:0:0:
320,192,121637,1,0,0:0:0:0:
320,192,121779,1,0,0:0:0:0:
64,192,121922,1,0,0:0:0:0:
448,192,121922,1,0,0:0:0:0:
192,192,122065,1,0,0:0:0:0:
448,192,122208,1,0,0:0:0:0:
192,192,122351,1,0,0:0:0:0:
64,192,122351,1,0,0:0:0:0:
320,192,122494,1,0,0:0:0:0:
64,192,122637,1,0,0:0:0:0:
448,192,122779,1,0,0:0:0:0:
192,192,122922,1,0,0:0:0:0:
448,192,123065,1,0,0:0:0:0:
64,192,123208,1,0,0:0:0:0:
192,192,123208,1,0,0:0:0:0:
320,192,123208,1,0,0:0:0:0:
448,192,123351,1,0,0:0:0:0:
64,192,123494,1,0,0:0:0:0:
320,192,123637,1,0,0:0:0:0:
192,192,123779,1,0,0:0:0:0:
448,192,123922,1,0,0:0:0:0:
64,192,123922,128,0,124065:0:0:0:0:
192,192,124065,1,0,0:0:0:0:
320,192,124065,1,0,0:0:0:0:
320,192,124351,128,0,124422:0:0:0:0:
448,192,124351,128,0,124422:0:0:0:0:
192,192,124351,1,0,0:0:0:0:
64,192,124494,1,0,0:0:0:0:
448,192,124637,1,0,0:0:0:0:
320,192,124637,1,0,0:0:0:0:
192,192,124779,1,0,0:0:0:0:
320,192,124922,1,0,0:0:0:0:
448,192,124922,1,0,0:0:0:0:
64,192,124922,1,0,0:0:0:0:
192,192,125065,1,0,0:0:0:0:
192,192,125208,1,0,0:0:0:0:
192,192,125351,1,0,0:0:0:0:
448,192,125351,1,0,0:0:0:0:
320,192,125779,1,0,0:0:0:0:
64,192,125779,1,0,0:0:0:0:
64,192,125922,1,0,0:0:0:0:
448,192,126065,1,0,0:0:0:0:
192,192,126208,1,0,0:0:0:0:
192,192,126351,1,0,0:0:0:0:
448,192,126494,1,0,0:0:0:0:
64,192,126494,1,0,0:0:0:0:
192,192,126637,1,0,0:0:0:0:
320,192,126637,1,0,0:0:0:0:
448,192,126637,1,0,0:0:0:0:
64,192,126779,1,0,0:0:0:0:
192,192,126922,1,0,0:0:0:0:
192,192,127065,1,0,0:0:0:0:
448,192,127208,1,0,0:0:0:0:
64,192,127494,1,0,0:0:0:0:
192,192,127494,1,0,0:0:0:0:
192,192,127637,1,0,0:0:0:0:
448,192,127779,1,0,0:0:0:0:
320,192,127779,1,0,0:0:0:0:
448,192,127922,1,0,0:0:0:0:
64,192,128065,1,0,0:0:0:0:
448,192,128208,1,0,0:0:0:0:
320,192,128351,1,0,0:0:0:0:
192,192,128351,1,0,0:0:0:0:
64,192,128351,1,0,0:0:0:0:
448,192,128494,1,0,0:0:0:0:
64,192,128637,1,0,0:0:0:0:
320,192,128779,1,0,0:0:0:0:
320,192,128922,1,0,0:0:0:0:
64,192,129208,1,0,0:0:0:0:
448,192,129208,1,0,0:0:0:0:
320,192,129351,1,0,0:0:0:0:
320,192,129494,1,0,0:0:0:0:
64,192,129637,1,0,0:0:0:0:
192,192,129779,1,0,0:0:0:0:
448,192,129779,1,0,0:0:0:0:
64,192,129922,1,0,0:0:0:0:
192,192,130065,1,0,0:0:0:0:
448,192,130065,1,0,0:0:0:0:
320,192,130065,1,0,0:0:0:0:
64,192,130208,1,0,0:0:0:0:
448,192,130351,1,0,0:0:0:0:
448,192,130494,1,0,0:0:0:0:
64,192,130637,1,0,0:0:0:0:
320,192,130779,128,0,130922:0:0:0:0:
192,192,130922,1,0,0:0:0:0:
448,192,130922,1,0,0:0:0:0:
64,192,131065,128,0,131137:0:0:0:0:
192,192,131137,128,0,131208:0:0:0:0:
64,192,131208,128,0,131351:0:0:0:0:
448,192,131351,1,0,0:0:0:0:
448,192,131494,1,0,0:0:0:0:
320,192,131637,1,0,0:0:0:0:
192,192,131637,1,0,0:0:0:0:
64,192,131779,1,0,0:0:0:0:
448,192,131779,1,0,0:0:0:0:
64,192,131922,1,0,0:0:0:0:
320,192,132065,1,0,0:0:0:0:
320,192,132208,1,0,0:0:0:0:
64,192,132351,1,0,0:0:0:0:
448,192,132494,1,0,0:0:0:0:
448,192,132637,1,0,0:0:0:0:
192,192,132779,1,0,0:0:0:0:
320,192,132922,1,0,0:0:0:0:
320,192,133065,1,0,0:0:0:0:
448,192,133208,1,0,0:0:0:0:
64,192,133351,1,0,0:0:0:0:
320,192,133494,1,0,0:0:0:0:
448,192,133494,1,0,0:0:0:0:
192,192,133494,1,0,0:0:0:0:
64,192,133637,1,0,0:0:0:0:
448,192,133779,1,0,0:0:0:0:
192,192,133922,1,0,0:0:0:0:
320,192,134065,1,0,0:0:0:0:
320,192,134208,1,0,0:0:0:0:
448,192,134351,1,0,0:0:0:0:
64,192,134351,1,0,0:0:0:0:
192,192,134494,1,0,0:0:0:0:
192,192,134637,1,0,0:0:0:0:
448,192,134779,1,0,0:0:0:0:
64,192,134922,1,0,0:0:0:0:
192,192,135065,1,0,0:0:0:0:
64,192,135208,1,0,0:0:0:0:
448,192,135208,1,0,0:0:0:0:
320,192,135208,1,0,0:0:0:0:
192,192,135351,1,0,0:0:0:0:
320,192,135494,1,0,0:0:0:0:
320,192,135637,1,0,0:0:0:0:
64,192,135779,1,0,0:0:0:0:
448,192,135922,1,0,0:0:0:0:
192,192,136065,1,0,0:0:0:0:
320,192,136065,1,0,0:0:0:0:
64,192,136065,1,0,0:0:0:0:
64,192,136351,1,0,0:0:0:0:
192,192,136351,1,0,0:0:0:0:
192,192,136637,1,0,0:0:0:0:
320,192,136637,1,0,0:0:0:0:
448,192,136637,128,0,141208:0:0:0:0:
64,192,141208,1,0,0:0:0:0:
320,192,141208,1,0,0:0:0:0:
192,192,141422,1,0,0:0:0:0:
448,192,141637,1,0,0:0:0:0:
64,192,141851,1,0,0:0:0:0:
192,192,141851,1,0,0:0:0:0:
320,192,142065,1,0,0:0:0:0:
448,192,142279,1,0,0:0:0:0:
64,192,142387,1,0,0:0:0:0:
192,192,142494,1,0,0:0:0:0:
320,192,142494,1,0,0:0:0:0:
448,192,142708,1,0,0:0:0:0:
320,192,142815,1,0,0:0:0:0:
192,192,142922,1,0,0:0:0:0:
448,192,143029,128,0,143351:0:0:0:0:
64,192,143351,1,0,0:0:0:0:
192,192,143565,1,0,0:0:0:0:
320,192,143565,1,0,0:0:0:0:
448,192,143672,1,0,0:0:0:0:
64,192,143779,1,0,0:0:0:0:
192,192,143887,1,0,0:0:0:0:
320,192,143994,1,0,0:0:0:0:
448,192,144101,1,0,0:0:0:0:
64,192,144208,1,0,0:0:0:0:
192,192,144208,1,0,0:0:0:0:
320,192,144315,1,0,0:0:0:0:
448,192,144422,1,0,0:0:0:0:
64,192,144529,1,0,0:0:0:0:
192,192,144637,128,0,145065:0:0:0:0:
320,192,144637,128,0,145065:0:0:0:0:
448,192,145065,1,0,0:0:0:0:
64,192,145279,1,0,0:0:0:0:
192,192,145279,1,0,0:0:0:0:
448,192,145494,1,0,0:0:0:0:
64,192,145708,1,0,0:0:0:0:
320,192,145815,1,0,0:0:0:0:
64,192,145922,1,0,0:0:0:0:
192,192,145922,1,0,0:0:0:0:
448,192,146137,1,0,0:0:0:0:
64,192,146351,1,0,0:0:0:0:
320,192,146565,1,0,0:0:0:0:
192,192,146779,1,0,0:0:0:0:
320,192,146994,1,0,0:0:0:0:
448,192,146994,1,0,0:0:0:0:
192,192,147101,1,0,0:0:0:0:
64,192,147208,1,0,0:0:0:0:
448,192,147208,1,0,0:0:0:0:
320,192,147315,1,0,0:0:0:0:
192,192,147422,1,0,0:0:0:0:
64,192,147529,1,0,0:0:0:0:
448,192,147529,1,0,0:0:0:0:
192,192,147637,1,0,0:0:0:0:
320,192,147637,1,0,0:0:0:0:
64,192,147744,1,0,0:0:0:0:
448,192,147851,1,0,0:0:0:0:
320,192,147958,1,0,0:0:0:0:
192,192,148065,128,0,148279:0:0:0:0:
64,192,148279,1,0,0:0:0:0:
448,192,148494,1,0,0:0:0:0:
192,192,148708,1,0,0:0:0:0:
320,192,148708,1,0,0:0:0:0:
64,192,148815,1,0,0:0:0:0:
320,192,148922,1,0,0:0:0:0:
448,192,149029,1,0,0:0:0:0:
64,192,149137,1,0,0:0:0:0:
192,192,149244,1,0,0:0:0:0:
320,192,149351,1,0,0:0:0:0:
448,192,149351,1,0,0:0:0:0:
64,192,149565,1,0,0:0:0:0:
448,192,149779,128,0,149994:0:0:0:0:
320,192,149779,1,0,0:0:0:0:
64,192,149994,1,0,0:0:0:0:
320,192,150208,1,0,0:0:0:0:
64,192,150422,1,0,0:0:0:0:
192,192,150422,1,0,0:0:0:0:
320,192,150529,1,0,0:0:0:0:
448,192,150637,1,0,0:0:0:0:
192,192,150744,1,0,0:0:0:0:
320,192,150851,1,0,0:0:0:0:
192,192,150958,1,0,0:0:0:0:
64,192,150958,1,0,0:0:0:0:
448,192,151065,1,0,0:0:0:0:
320,192,151065,1,0,0:0:0:0:
448,192,151279,1,0,0:0:0:0:
64,192,151494,128,0,151708:0:0:0:0:
192,192,151494,128,0,151708:0:0:0:0:
320,192,151708,1,0,0:0:0:0:
448,192,151922,1,0,0:0:0:0:
64,192,152137,1,0,0:0:0:0:
192,192,152137,1,0,0:0:0:0:
320,192,152351,1,0,0:0:0:0:
64,192,152565,1,0,0:0:0:0:
448,192,152672,1,0,0:0:0:0:
320,192,152779,1,0,0:0:0:0:
192,192,152779,1,0,0:0:0:0:
64,192,152994,1,0,0:0:0:0:
320,192,153208,1,0,0:0:0:0:
64,192,153422,1,0,0:0:0:0:
448,192,153637,1,0,0:0:0:0:
192,192,153851,1,0,0:0:0:0:
320,192,153851,1,0,0:0:0:0:
64,192,154065,1,0,0:0:0:0:
448,192,154279,1,0,0:0:0:0:
320,192,154387,1,0,0:0:0:0:
64,192,154494,1,0,0:0:0:0:
192,192,154494,1,0,0:0:0:0:
320,192,154601,1,0,0:0:0:0:
448,192,154708,1,0,0:0:0:0:
320,192,154815,1,0,0:0:0:0:
192,192,154922,128,0,155029:0:0:0:0:
64,192,154922,128,0,155029:0:0:0:0:
448,192,155029,1,0,0:0:0:0:
320,192,155137,1,0,0:0:0:0:
192,192,155244,1,0,0:0:0:0:
448,192,155351,1,0,0:0:0:0:
64,192,155458,1,0,0:0:0:0:
320,192,155565,1,0,0:0:0:0:
448,192,155565,1,0,0:0:0:0:
192,192,155672,1,0,0:0:0:0:
64,192,155779,1,0,0:0:0:0:
320,192,155887,1,0,0:0:0:0:
192,192,155994,1,0,0:0:0:0:
448,192,156101,1,0,0:0:0:0:
64,192,156208,1,0,0:0:0:0:
320,192,156208,1,0,0:0:0:0:
192,192,156315,1,0,0:0:0:0:
64,192,156422,1,0,0:0:0:0:
448,192,156529,1,0,0:0:0:0:
192,192,156637,128,0,156744:0:0:0:0:
320,192,156637,128,0,156744:0:0:0:0:
64,192,156744,1,0,0:0:0:0:
448,192,156851,1,0,0:0:0:0:
192,192,156958,1,0,0:0:0:0:
320,192,157065,1,0,0:0:0:0:
64,192,157172,1,0,0:0:0:0:
448,192,157279,1,0,0:0:0:0:
320,192,157279,1,0,0:0:0:0:
192,192,157387,1,0,0:0:0:0:
448,192,157494,1,0,0:0:0:0:
64,192,157601,1,0,0:0:0:0:
192,192,157708,1,0,0:0:0:0:
448,192,157815,1,0,0:0:0:0:
64,192,157922,1,0,0:0:0:0:
192,192,157922,1,0,0:0:0:0:
320,192,158029,1,0,0:0:0:0:
448,192,158137,1,0,0:0:0:0:
64,192,158137,1,0,0:0:0:0:
192,192,158244,1,0,0:0:0:0:
320,192,158351,128,0,158458:0:0:0:0:
448,192,158351,128,0,158458:0:0:0:0:
64,192,158458,1,0,0:0:0:0:
448,192,158565,1,0,0:0:0:0:
192,192,158672,1,0,0:0:0:0:
320,192,158779,1,0,0:0:0:0:
448,192,158887,1,0,0:0:0:0:
64,192,158994,1,0,0:0:0:0:
320,192,159101,1,0,0:0:0:0:
192,192,159208,1,0,0:0:0:0:
64,192,159315,1,0,0:0:0:0:
192,192,159422,1,0,0:0:0:0:
320,192,159529,1,0,0:0:0:0:
192,192,159637,1,0,0:0:0:0:
64,192,159637,1,0,0:0:0:0:
448,192,159744,1,0,0:0:0:0:
320,192,159851,1,0,0:0:0:0:
192,192,159958,1,0,0:0:0:0:
64,192,160065,1,0,0:0:0:0:
448,192,160172,1,0,0:0:0:0:
192,192,160279,1,0,0:0:0:0:
320,192,160387,1,0,0:0:0:0:
64,192,160494,1,0,0:0:0:0:
192,192,160601,1,0,0:0:0:0:
320,192,160708,1,0,0:0:0:0:
448,192,160708,1,0,0:0:0:0:
64,192,160815,1,0,0:0:0:0:
320,192,160922,1,0,0:0:0:0:
64,192,161029,1,0,0:0:0:0:
448,192,161137,1,0,0:0:0:0:
192,192,161244,1,0,0:0:0:0:
320,192,161351,1,0,0:0:0:0:
448,192,161351,1,0,0:0:0:0:
64,192,161458,1,0,0:0:0:0:
320,192,161565,1,0,0:0:0:0:
448,192,161672,1,0,0:0:0:0:
64,192,161779,128,0,161887:0:0:0:0:
192,192,161779,128,0,161887:0:0:0:0:
320,192,161887,1,0,0:0:0:0:
448,192,161994,1,0,0:0:0:0:
64,192,162101,1,0,0:0:0:0:
320,192,162208,1,0,0:0:0:0:
448,192,162315,1,0,0:0:0:0:
64,192,162422,1,0,0:0:0:0:
192,192,162422,1,0,0:0:0:0:
320,192,162529,1,0,0:0:0:0:
64,192,162637,128,0,162690:0:0:0:0:
448,192,162744,1,0,0:0:0:0:
192,192,162851,1,0,0:0:0:0:
448,192,163065,1,0,0:0:0:0:
320,192,163172,1,0,0:0:0:0:
192,192,163279,1,0,0:0:0:0:
448,192,163387,1,0,0:0:0:0:
192,192,163494,1,0,0:0:0:0:
64,192,163494,1,0,0:0:0:0:
320,192,163601,1,0,0:0:0:0:
64,192,163708,1,0,0:0:0:0:
192,192,163815,1,0,0:0:0:0:
320,192,163922,1,0,0:0:0:0:
64,192,164029,1,0,0:0:0:0:
448,192,164137,1,0,0:0:0:0:
320,192,164137,1,0,0:0:0:0:
192,192,164244,1,0,0:0:0:0:
64,192,164351,1,0,0:0:0:0:
448,192,164458,1,0,0:0:0:0:
192,192,164565,1,0,0:0:0:0:
320,192,164672,1,0,0:0:0:0:
448,192,164779,1,0,0:0:0:0:
64,192,164779,1,0,0:0:0:0:
192,192,164887,1,0,0:0:0:0:
448,192,164994,1,0,0:0:0:0:
320,192,165101,1,0,0:0:0:0:
64,192,165208,1,0,0:0:0:0:
448,192,165315,1,0,0:0:0:0:
320,192,165422,1,0,0:0:0:0:
192,192,165529,1,0,0:0:0:0:
448,192,165637,1,0,0:0:0:0:
64,192,165744,1,0,0:0:0:0:
320,192,165851,1,0,0:0:0:0:
448,192,165851,1,0,0:0:0:0:
192,192,165958,1,0,0:0:0:0:
64,192,166065,1,0,0:0:0:0:
448,192,166172,1,0,0:0:0:0:
192,192,166279,1,0,0:0:0:0:
320,192,166387,1,0,0:0:0:0:
448,192,166494,1,0,0:0:0:0:
64,192,166494,1,0,0:0:0:0:
192,192,166601,1,0,0:0:0:0:
320,192,166601,1,0,0:0:0:0:
448,192,166708,1,0,0:0:0:0:
64,192,166815,1,0,0:0:0:0:
192,192,166815,1,0,0:0:0:0:
320,192,166922,128,0,168529:0:0:0:0:
448,192,166922,128,0,168529:0:0:0:0:
192,192,168637,1,0,0:0:0:0:
448,192,168637,1,0,0:0:0:0:
64,192,168637,128,0,168744:0:0:0:0:
320,192,168744,1,0,0:0:0:0:
192,192,168851,1,0,0:0:0:0:
448,192,168958,128,0,169065:0:0:0:0:
320,192,169065,1,0,0:0:0:0:
192,192,169172,1,0,0:0:0:0:
448,192,169279,1,0,0:0:0:0:
320,192,169279,1,0,0:0:0:0:
64,192,169387,1,0,0:0:0:0:
448,192,169494,1,0,0:0:0:0:
192,192,169494,1,0,0:0:0:0:
320,192,169494,1,0,0:0:0:0:
64,192,169601,1,0,0:0:0:0:
448,192,169708,1,0,0:0:0:0:
320,192,169815,1,0,0:0:0:0:
192,192,169922,1,0,0:0:0:0:
64,192,169922,1,0,0:0:0:0:
448,192,170029,1,0,0:0:0:0:
320,192,170083,1,0,0:0:0:0:
192,192,170137,1,0,0:0:0:0:
64,192,170244,1,0,0:0:0:0:
448,192,170351,1,0,0:0:0:0:
192,192,170458,1,0,0:0:0:0:
448,192,170565,1,0,0:0:0:0:
320,192,170672,1,0,0:0:0:0:
192,192,170779,1,0,0:0:0:0:
64,192,170779,128,0,170994:0:0:0:0:
448,192,170887,1,0,0:0:0:0:
320,192,170994,1,0,0:0:0:0:
64,192,171101,1,0,0:0:0:0:
320,192,171208,1,0,0:0:0:0:
448,192,171208,128,0,171315:0:0:0:0:
192,192,171315,1,0,0:0:0:0:
64,192,171422,1,0,0:0:0:0:
448,192,171529,1,0,0:0:0:0:
192,192,171529,128,0,171637:0:0:0:0:
64,192,171744,1,0,0:0:0:0:
320,192,171851,1,0,0:0:0:0:
448,192,171851,1,0,0:0:0:0:
192,192,171958,1,0,0:0:0:0:
64,192,172065,1,0,0:0:0:0:
448,192,172065,1,0,0:0:0:0:
320,192,172172,1,0,0:0:0:0:
192,192,172279,1,0,0:0:0:0:
448,192,172387,1,0,0:0:0:0:
64,192,172494,1,0,0:0:0:0:
192,192,172601,1,0,0:0:0:0:
320,192,172708,1,0,0:0:0:0:
448,192,172708,1,0,0:0:0:0:
192,192,172815,1,0,0:0:0:0:
320,192,172922,1,0,0:0:0:0:
448,192,172922,1,0,0:0:0:0:
64,192,172922,128,0,173137:0:0:0:0:
192,192,173029,1,0,0:0:0:0:
320,192,173137,1,0,0:0:0:0:
448,192,173244,1,0,0:0:0:0:
192,192,173351,1,0,0:0:0:0:
64,192,173351,1,0,0:0:0:0:
320,192,173458,1,0,0:0:0:0:
448,192,173565,1,0,0:0:0:0:
64,192,173565,1,0,0:0:0:0:
192,192,173672,1,0,0:0:0:0:
320,192,173779,1,0,0:0:0:0:
448,192,173887,1,0,0:0:0:0:
64,192,173887,1,0,0:0:0:0:
192,192,173994,1,0,0:0:0:0:
320,192,173994,1,0,0:0:0:0:
448,192,174101,1,0,0:0:0:0:
192,192,174208,1,0,0:0:0:0:
64,192,174208,128,0,174422:0:0:0:0:
320,192,174315,1,0,0:0:0:0:
192,192,174422,1,0,0:0:0:0:
64,192,174529,1,0,0:0:0:0:
320,192,174637,1,0,0:0:0:0:
192,192,174637,1,0,0:0:0:0:
448,192,174637,128,0,174744:0:0:0:0:
64,192,174744,1,0,0:0:0:0:
448,192,174851,1,0,0:0:0:0:
192,192,174958,1,0,0:0:0:0:
64,192,174958,1,0,0:0:0:0:
320,192,175065,128,0,175279:0:0:0:0:
64,192,175172,1,0,0:0:0:0:
448,192,175279,1,0,0:0:0:0:
192,192,175387,1,0,0:0:0:0:
64,192,175494,1,0,0:0:0:0:
448,192,175494,1,0,0:0:0:0:
320,192,175601,1,0,0:0:0:0:
192,192,175708,1,0,0:0:0:0:
64,192,175815,1,0,0:0:0:0:
448,192,175815,1,0,0:0:0:0:
320,192,175922,1,0,0:0:0:0:
192,192,176029,1,0,0:0:0:0:
64,192,176137,1,0,0:0:0:0:
448,192,176137,1,0,0:0:0:0:
320,192,176244,1,0,0:0:0:0:
192,192,176351,1,0,0:0:0:0:
64,192,176351,1,0,0:0:0:0:
448,192,176458,1,0,0:0:0:0:
64,192,176565,1,0,0:0:0:0:
320,192,176672,1,0,0:0:0:0:
448,192,176672,1,0,0:0:0:0:
64,192,176779,128,0,176887:0:0:0:0:
192,192,176887,1,0,0:0:0:0:
448,192,176994,1,0,0:0:0:0:
320,192,177047,1,0,0:0:0:0:
192,192,177101,1,0,0:0:0:0:
64,192,177154,1,0,0:0:0:0:
320,192,177208,1,0,0:0:0:0:
448,192,177208,1,0,0:0:0:0:
192,192,177315,1,0,0:0:0:0:
448,192,177422,1,0,0:0:0:0:
192,192,177529,1,0,0:0:0:0:
64,192,177529,1,0,0:0:0:0:
320,192,177637,1,0,0:0:0:0:
64,192,177744,1,0,0:0:0:0:
320,192,177851,1,0,0:0:0:0:
192,192,177851,1,0,0:0:0:0:
448,192,177958,1,0,0:0:0:0:
64,192,178065,1,0,0:0:0:0:
320,192,178065,1,0,0:0:0:0:
192,192,178065,1,0,0:0:0:0:
192,192,178708,1,0,0:0:0:0:
320,192,178708,1,0,0:0:0:0:
448,192,178922,1,0,0:0:0:0:
192,192,178922,1,0,0:0:0:0:
64,192,179029,1,0,0:0:0:0:
448,192,179137,1,0,0:0:0:0:
192,192,179244,1,0,0:0:0:0:
64,192,179244,1,0,0:0:0:0:
320,192,179351,1,0,0:0:0:0:
448,192,179458,1,0,0:0:0:0:
320,192,179565,1,0,0:0:0:0:
192,192,179565,1,0,0:0:0:0:
64,192,179672,1,0,0:0:0:0:
320,192,179779,1,0,0:0:0:0:
192,192,179779,1,0,0:0:0:0:
448,192,179779,128,0,180101:0:0:0:0:
64,192,180101,1,0,0:0:0:0:
320,192,180208,1,0,0:0:0:0:
192,192,180208,128,0,180637:0:0:0:0:
448,192,180315,1,0,0:0:0:0:
320,192,180422,1,0,0:0:0:0:
64,192,180529,1,0,0:0:0:0:
320,192,180637,128,0,181494:0:0:0:0:
448,192,180744,1,0,0:0:0:0:
64,192,180851,1,0,0:0:0:0:
448,192,180958,1,0,0:0:0:0:
192,192,181065,1,0,0:0:0:0:
64,192,181172,1,0,0:0:0:0:
192,192,181279,1,0,0:0:0:0:
448,192,181387,1,0,0:0:0:0:
192,192,181494,1,0,0:0:0:0:
64,192,181494,1,0,0:0:0:0:
448,192,181708,1,0,0:0:0:0:
64,192,181815,1,0,0:0:0:0:
320,192,181922,1,0,0:0:0:0:
448,192,181922,1,0,0:0:0:0:
192,192,182029,1,0,0:0:0:0:
64,192,182029,1,0,0:0:0:0:
448,192,182137,1,0,0:0:0:0:
192,192,182244,1,0,0:0:0:0:
320,192,182351,1,0,0:0:0:0:
448,192,182351,128,0,182458:0:0:0:0:
64,192,182458,1,0,0:0:0:0:
192,192,182565,1,0,0:0:0:0:
320,192,182672,1,0,0:0:0:0:
64,192,182672,128,0,182779:0:0:0:0:
448,192,182672,1,0,0:0:0:0:
192,192,182779,1,0,0:0:0:0:
64,192,182887,1,0,0:0:0:0:
192,192,182994,1,0,0:0:0:0:
320,192,182994,128,0,183101:0:0:0:0:
448,192,183101,1,0,0:0:0:0:
192,192,183208,1,0,0:0:0:0:
64,192,183208,1,0,0:0:0:0:
320,192,183315,1,0,0:0:0:0:
448,192,183422,1,0,0:0:0:0:
64,192,183529,1,0,0:0:0:0:
448,192,183637,128,0,184065:0:0:0:0:
320,192,183637,1,0,0:0:0:0:
192,192,183744,1,0,0:0:0:0:
64,192,183851,1,0,0:0:0:0:
192,192,183958,1,0,0:0:0:0:
320,192,184065,1,0,0:0:0:0:
64,192,184172,1,0,0:0:0:0:
192,192,184279,1,0,0:0:0:0:
448,192,184387,1,0,0:0:0:0:
192,192,184494,1,0,0:0:0:0:
64,192,184494,128,0,184708:0:0:0:0:
320,192,184601,1,0,0:0:0:0:
448,192,184708,1,0,0:0:0:0:
320,192,184815,1,0,0:0:0:0:
192,192,184922,1,0,0:0:0:0:
64,192,184922,1,0,0:0:0:0:
448,192,184922,1,0,0:0:0:0:
320,192,185029,1,0,0:0:0:0:
192,192,185137,1,0,0:0:0:0:
64,192,185137,1,0,0:0:0:0:
320,192,185244,1,0,0:0:0:0:
448,192,185351,1,0,0:0:0:0:
320,192,185458,1,0,0:0:0:0:
192,192,185458,1,0,0:0:0:0:
64,192,185565,1,0,0:0:0:0:
192,192,185672,1,0,0:0:0:0:
320,192,185779,1,0,0:0:0:0:
448,192,185779,128,0,185887:0:0:0:0:
64,192,185887,1,0,0:0:0:0:
192,192,185994,1,0,0:0:0:0:
448,192,186101,1,0,0:0:0:0:
320,192,186101,128,0,186208:0:0:0:0:
64,192,186208,1,0,0:0:0:0:
448,192,186315,1,0,0:0:0:0:
192,192,186422,1,0,0:0:0:0:
64,192,186422,128,0,186529:0:0:0:0:
320,192,186529,1,0,0:0:0:0:
448,192,186637,1,0,0:0:0:0:
192,192,186637,1,0,0:0:0:0:
64,192,186637,1,0,0:0:0:0:
320,192,186744,1,0,0:0:0:0:
64,192,186851,1,0,0:0:0:0:
448,192,186958,1,0,0:0:0:0:
192,192,187065,1,0,0:0:0:0:
320,192,187172,1,0,0:0:0:0:
448,192,187279,1,0,0:0:0:0:
64,192,187279,1,0,0:0:0:0:
192,192,187387,1,0,0:0:0:0:
448,192,187494,1,0,0:0:0:0:
64,192,187601,1,0,0:0:0:0:
320,192,187708,1,0,0:0:0:0:
192,192,187815,1,0,0:0:0:0:
448,192,187922,1,0,0:0:0:0:
192,192,188029,1,0,0:0:0:0:
448,192,188137,1,0,0:0:0:0:
192,192,188244,1,0,0:0:0:0:
320,192,188351,1,0,0:0:0:0:
448,192,188351,1,0,0:0:0:0:
64,192,188458,1,0,0:0:0:0:
320,192,188565,1,0,0:0:0:0:
192,192,188672,1,0,0:0:0:0:
320,192,188779,1,0,0:0:0:0:
448,192,188779,1,0,0:0:0:0:
64,192,188887,1,0,0:0:0:0:
192,192,188887,1,0,0:0:0:0:
320,192,188994,1,0,0:0:0:0:
64,192,189101,1,0,0:0:0:0:
192,192,189208,1,0,0:0:0:0:
320,192,189208,1,0,0:0:0:0:
448,192,189208,128,0,189851:0:0:0:0:
64,192,189315,1,0,0:0:0:0:
192,192,189422,1,0,0:0:0:0:
320,192,189529,1,0,0:0:0:0:
64,192,189637,1,0,0:0:0:0:
192,192,189744,1,0,0:0:0:0:
320,192,189851,1,0,0:0:0:0:
64,192,189958,1,0,0:0:0:0:
192,192,190065,1,0,0:0:0:0:
448,192,190065,1,0,0:0:0:0:
320,192,190065,1,0,0:0:0:0:
320,192,190494,1,0,0:0:0:0:
448,192,190494,1,0,0:0:0:0:
64,192,190601,1,0,0:0:0:0:
448,192,190708,1,0,0:0:0:0:
320,192,190922,1,0,0:0:0:0:
192,192,190922,1,0,0:0:0:0:
64,192,190922,128,0,191565:0:0:0:0:
448,192,191029,1,0,0:0:0:0:
192,192,191137,1,0,0:0:0:0:
320,192,191244,1,0,0:0:0:0:
448,192,191351,1,0,0:0:0:0:
320,192,191458,1,0,0:0:0:0:
448,192,191565,1,0,0:0:0:0:
64,192,191672,1,0,0:0:0:0:
192,192,191779,1,0,0:0:0:0:
448,192,191779,1,0,0:0:0:0:
320,192,191779,1,0,0:0:0:0:
192,192,192422,128,0,192529:0:0:0:0:
320,192,192422,128,0,192529:0:0:0:0:
64,192,192529,1,0,0:0:0:0:
448,192,192637,128,0,193065:0:0:0:0:
320,192,192637,128,0,192744:0:0:0:0:
192,192,192744,1,0,0:0:0:0:
64,192,192851,1,0,0:0:0:0:
320,192,192958,1,0,0:0:0:0:
192,192,193065,1,0,0:0:0:0:
64,192,193172,1,0,0:0:0:0:
448,192,193279,1,0,0:0:0:0:
192,192,193387,1,0,0:0:0:0:
320,192,193494,1,0,0:0:0:0:
64,192,193601,1,0,0:0:0:0:
192,192,193708,1,0,0:0:0:0:
320,192,193815,1,0,0:0:0:0:
64,192,193922,1,0,0:0:0:0:
448,192,194029,1,0,0:0:0:0:
192,192,194137,1,0,0:0:0:0:
320,192,194244,1,0,0:0:0:0:
64,192,194351,1,0,0:0:0:0:
192,192,194458,1,0,0:0:0:0:
320,192,194538,1,0,0:0:0:0:
448,192,194619,1,0,0:0:0:0:
64,192,194753,1,0,0:0:0:0:
192,192,194753,1,0,0:0:0:0:
192,192,194887,1,0,0:0:0:0:
320,192,194887,1,0,0:0:0:0:
320,192,195020,1,0,0:0:0:0:
448,192,195020,1,0,0:0:0:0:
64,192,195181,1,0,0:0:0:0:
192,192,195181,1,0,0:0:0:0:
192,192,195315,1,0,0:0:0:0:
320,192,195315,1,0,0:0:0:0:
320,192,195449,1,0,0:0:0:0:
448,192,195449,1,0,0:0:0:0:
64,192,195637,128,0,195690:0:0:0:0:
192,192,195637,128,0,195663:0:0:0:0:
