osu file format v14

[General]
AudioFilename: audio.mp3
AudioLeadIn: 0
PreviewTime: 570
Countdown: 0
SampleSet: Soft
StackLeniency: 0.2
Mode: 0
LetterboxInBreaks: 0
WidescreenStoryboard: 0

[Editor]
Bookmarks: 25904,27874
DistanceSpacing: 0.8
BeatDivisor: 4
GridSize: 32
TimelineZoom: 6.399998

[Metadata]
Title:Fault Line
TitleUnicode:Fault Line
Artist:Tennyson
ArtistUnicode:Tennyson
Creator:squirrelpascals
Version:sammish's Insane
Source:
Tags:like what ep Ora Pika fdsfd sammish Spork Lover DakiniBrave Crowie FoxyGrandpa Nysrogh
BeatmapID:1220253
BeatmapSetID:575121

[Difficulty]
HPDrainRate:6
CircleSize:4.2
OverallDifficulty:7
ApproachRate:9
SliderMultiplier:1.4
SliderTickRate:1

[Events]
//Background and Video events
0,0,"6d237c84-60bc-4f4e-a7e5-f10e2d0516bc.jpg",0,0
//Break Periods
//Storyboard Layer 0 (Background)
//Storyboard Layer 1 (Fail)
//Storyboard Layer 2 (Pass)
//Storyboard Layer 3 (Foreground)
//Storyboard Sound Samples

[TimingPoints]
192,303.030303030303,3,2,1,100,1,0
949,303.030303030303,3,2,1,100,1,0
14869,-133.333333333333,3,2,1,100,0,0
15172,-100,3,2,1,100,0,0
17445,-200,3,2,1,70,0,0
18354,-100,3,2,1,100,0,0
18430,-100,3,2,1,5,0,0
18506,-100,3,2,1,100,0,0
18582,-100,3,2,1,5,0,0
18657,-100,3,2,1,100,0,0
18733,-100,3,2,1,5,0,0
18809,-100,3,2,1,100,0,0
18885,-100,3,2,1,5,0,0
18960,-100,3,2,1,100,0,0
19036,-100,3,2,1,5,0,0
19112,-100,3,2,1,100,0,0
23885,-100,3,2,1,5,0,0
23960,-100,3,2,1,100,0,0
24036,-100,3,2,1,5,0,0
24112,-100,3,2,1,100,0,0
24188,-100,3,2,1,5,0,0
24263,-100,3,2,1,100,0,0
24339,-100,3,2,1,5,0,0
24415,-100,3,2,1,100,0,0
26536,-100,3,2,1,50,0,0
30191,303.030303030303,3,2,1,100,1,0

[Colours]
Combo1 : 196,104,230
Combo2 : 143,24,24
Combo3 : 108,227,115
Combo4 : 116,175,186

[HitObjects]
159,136,192,5,0,0:0:0:0:
252,209,343,2,0,L|245:260,2,35
269,92,646,1,0,0:0:0:0:
269,92,798,1,0,0:0:0:0:
360,148,949,6,0,P|426:146|450:131,1,70,4|0,0:0|0:0,0:0:0:0:
314,18,1252,2,0,P|231:17|204:146,1,210,2|0,0:0|0:0,0:0:0:0:
360,148,1858,6,0,P|314:157|274:175,1,70,0|8,0:0|0:0,0:0:0:0:
151,209,2161,2,0,P|181:244|217:269,1,70,0|0,0:0|0:0,0:0:0:0:
309,360,2464,2,0,P|324:315|328:272,1,70,0|0,0:0|0:0,0:0:0:0:
360,148,2767,5,0,0:0:0:0:
262,109,2919,1,0,0:0:0:0:
164,71,3070,1,0,0:0:0:0:
154,193,3222,2,0,P|139:99|180:62,1,140,0|8,0:0|0:0,0:0:0:0:
244,141,3676,1,0,0:0:0:0:
240,251,3828,6,0,L|232:303,3,35
244,141,4131,1,0,0:0:0:0:
244,141,4282,1,0,0:0:0:0:
329,224,4434,1,0,0:0:0:0:
293,340,4585,6,0,P|260:358|226:359,1,70,4|0,0:0|0:0,0:0:0:0:
100,310,4888,2,0,B|31:312|15:228|15:228|110:193|131:251,1,245,2|0,0:0|0:0,0:0:0:0:
144,245,5494,6,0,L|226:237,1,70,8|0,0:0|0:0,0:0:0:0:
208,79,5798,2,0,L|179:142,1,70,0|0,0:0|0:0,0:0:0:0:
333,222,6101,1,0,0:0:0:0:
278,160,6252,1,0,0:0:0:0:
284,322,6404,1,0,0:0:0:0:
398,273,6555,6,0,B|432:218|407:162|388:178|363:122|394:72,1,210,0|0,0:0|0:0,0:0:0:0:
462,118,7161,1,8,0:0:0:0:
333,222,7313,1,0,0:0:0:0:
210,83,7464,6,0,P|169:93|203:118,1,105
289,130,7767,1,0,0:0:0:0:
223,234,7919,2,0,L|172:239,1,35,0|0,0:0|0:0,0:0:0:0:
85,247,8070,1,0,0:0:0:0:
216,325,8222,6,0,P|254:322|304:292,1,70,4|0,0:0|0:0,0:0:0:0:
367,172,8525,2,0,B|364:235|364:235|382:284|382:284|377:377,1,175,2|0,0:0|0:0,0:0:0:0:
374,376,8979,1,0,0:0:0:0:
449,221,9131,6,0,P|468:177|474:146,1,70,0|8,0:0|0:0,0:0:0:0:
323,103,9434,2,0,P|290:67|264:49,1,70,0|0,0:0|0:0,0:0:0:0:
162,170,9737,2,0,P|129:179|98:196,1,70,0|0,0:0|0:0,0:0:0:0:
96,338,10039,5,0,0:0:0:0:
180,268,10191,1,0,0:0:0:0:
264,198,10343,1,0,0:0:0:0:
154,100,10494,2,0,L|166:193,1,70,0|0,0:0|0:0,0:0:0:0:
180,268,10798,1,0,0:0:0:0:
264,198,10949,1,0,0:0:0:0:
292,299,11100,6,0,L|301:369,1,70,8|0,0:0|0:0,0:0:0:0:
386,318,11328,1,0,0:0:0:0:
386,318,11404,2,0,L|377:248,1,70,8|8,0:0|0:0,0:0:0:0:
256,192,11707,1,0,0:0:0:0:
411,270,11858,6,0,L|402:200,1,70,4|0,0:0|0:0,0:0:0:0:
265,105,12161,2,0,L|282:243,1,140,2|0,0:0|0:0,0:0:0:0:
395,147,12616,1,0,0:0:0:0:
290,35,12767,6,0,P|257:31|209:56,1,70,0|8,0:0|0:0,0:0:0:0:
71,124,13070,2,0,P|104:120|152:145,1,70,0|0,0:0|0:0,0:0:0:0:
215,286,13373,2,0,P|211:253|236:205,1,70,0|0,0:0|0:0,0:0:0:0:
45,257,13676,5,0,0:0:0:0:
64,256,13751,1,0,0:0:0:0:
84,254,13827,1,8,0:0:0:0:
255,289,13979,1,8,0:0:0:0:
235,286,14054,1,0,0:0:0:0:
215,286,14130,1,0,0:0:0:0:
110,350,14282,2,0,L|130:316,1,35,0|0,0:0|0:0,0:0:0:0:
139,180,14434,2,0,L|156:214,1,35,8|0,0:0|0:0,0:0:0:0:
255,289,14586,2,0,L|289:290,3,35,8|0|0|0,0:0|0:0|0:0|0:0,0:0:0:0:
372,253,14888,6,0,B|344:164|344:164,1,78.7500030040742,8|0,0:0|0:0,0:0:0:0:
448,148,15191,1,2,0:0:0:0:
355,48,15343,6,0,B|351:36|365:81,2,35,0|0|4,0:0|0:0|0:0,0:0:0:0:
262,109,15646,1,0,0:0:0:0:
158,123,15797,2,0,B|123:161|123:161|206:185|269:98,1,210,2|0,0:0|0:0,0:0:0:0:
193,24,16404,5,0,0:0:0:0:
193,24,16555,1,8,0:0:0:0:
72,48,16707,1,0,0:0:0:0:
72,48,16858,1,0,0:0:0:0:
39,149,17010,1,0,0:0:0:0:
143,127,17161,1,0,0:0:0:0:
72,48,17313,1,8,0:0:0:0:
101,193,17464,6,0,L|87:115,1,70,0|0,0:0|0:0,0:0:0:0:
75,108,17843,1,0,0:0:0:0:
64,128,17918,2,0,L|77:197,1,70
119,286,18373,6,0,L|84:292,1,35,8|0,0:0|0:0,0:0:0:0:
247,317,18525,2,0,L|242:351,1,35
315,203,18676,2,0,L|346:218,1,35,8|0,0:0|0:0,0:0:0:0:
227,103,18828,2,0,L|251:77,1,35,8|0,0:0|0:0,0:0:0:0:
104,154,18979,2,0,L|87:123,1,35
239,227,19131,6,0,P|207:212|172:206,1,70,4|0,0:0|0:0,0:0:0:0:
270,328,19434,2,0,P|353:336|406:306,1,140,2|0,0:0|0:0,0:0:0:0:
444,216,19888,5,0,0:0:0:0:
470,294,20040,1,0,0:0:0:0:
323,239,20191,1,8,0:0:0:0:
349,161,20343,1,0,0:0:0:0:
464,168,20494,5,8,0:0:0:0:
490,246,20646,1,0,0:0:0:0:
302,187,20797,1,8,0:0:0:0:
328,109,20949,1,8,0:0:0:0:
311,113,22010,5,8,0:0:0:0:
285,191,22162,1,8,0:0:0:0:
199,271,22312,1,8,0:0:0:0:
173,193,22464,1,8,0:0:0:0:
166,191,22615,1,8,0:0:0:0:
92,147,22767,6,0,P|163:154|217:101,1,140,4|0,0:0|0:0,0:0:0:0:
136,80,23221,1,0,0:0:0:0:
288,139,23373,6,0,P|292:90|256:53,1,70,8|8,0:0|0:0,0:0:0:0:
212,111,23601,1,0,0:0:0:0:
212,111,23676,1,0,0:0:0:0:
216,233,23828,6,0,L|229:200,1,35
290,252,23979,2,0,L|303:219,1,35
364,271,24130,2,0,L|377:238,1,35
438,290,24282,2,0,L|451:257,1,35
448,151,24433,1,0,0:0:0:0:
448,151,24585,6,0,B|361:187|299:119|231:164,1,210
241,268,25191,1,0,0:0:0:0:
121,243,25343,2,0,P|113:213|125:173,1,70,2|0,0:0|0:0,0:0:0:0:
218,67,25646,5,8,0:0:0:0:
327,169,25797,1,8,0:0:0:0:
184,211,25948,1,8,0:0:0:0:
273,118,26101,1,8,0:0:0:0:
327,169,26252,1,0,0:0:0:0:
256,192,26404,5,4,0:0:0:0:
256,192,26479,12,0,29888,0:0:0:0:
256,192,30191,6,0,L|256:224,1,17.5
