osu file format v14

[General]
AudioFilename: audio.mp3
AudioLeadIn: 0
PreviewTime: 570
Countdown: 0
SampleSet: Normal
StackLeniency: 0.2
Mode: 0
LetterboxInBreaks: 0
WidescreenStoryboard: 0

[Editor]
DistanceSpacing: 1
BeatDivisor: 4
GridSize: 32
TimelineZoom: 3.400001

[Metadata]
Title:Fault Line
TitleUnicode:Fault Line
Artist:Tennyson
ArtistUnicode:Tennyson
Creator:squirrelpascals
Version:Spork Lover's Insane
Source:
Tags:like what ep Ora Pika fdsfd sammish Spork Lover DakiniBrave Crowie FoxyGrandpa Nysrogh
BeatmapID:1221059
BeatmapSetID:575121

[Difficulty]
HPDrainRate:5.5
CircleSize:3
OverallDifficulty:8
ApproachRate:8.8
SliderMultiplier:1.6
SliderTickRate:1

[Events]
//Background and Video events
0,0,"6d237c84-60bc-4f4e-a7e5-f10e2d0516bc.jpg",0,0
//Break Periods
//Storyboard Layer 0 (Background)
//Storyboard Layer 1 (Fail)
//Storyboard Layer 2 (Pass)
//Storyboard Layer 3 (Foreground)
//Storyboard Sound Samples

[TimingPoints]
192,303.030303030303,3,1,1,50,1,0
949,303.030303030303,3,1,1,50,1,0
1252,-100,3,1,2,50,0,0
1555,-166.666666666667,3,1,2,50,0,0
1782,-166.666666666667,3,1,1,50,0,0
1858,-83.3333333333333,3,2,2,50,0,0
3221,-83.3333333333333,3,2,1,50,0,0
3449,-83.3333333333333,3,1,1,5,0,0
3524,-83.3333333333333,3,1,1,50,0,0
3525,-83.3333333333333,3,1,1,50,0,0
3752,-83.3333333333333,3,1,1,5,0,0
3827,-83.3333333333333,3,1,1,35,0,0
4585,-100,3,1,1,35,0,0
4888,-100,3,1,2,50,0,0
5191,-166.666666666667,3,1,2,50,0,0
5418,-166.666666666667,3,2,2,40,0,0
5419,-166.666666666667,3,2,2,40,0,0
5494,-83.3333333333333,3,2,2,50,0,0
5645,-83.3333333333333,3,1,1,50,0,0
5797,-83.3333333333333,3,1,2,50,0,0
5949,-83.3333333333333,3,1,2,20,0,0
6100,-83.3333333333333,3,2,2,50,0,0
6403,-83.3333333333333,3,2,1,50,0,0
7767,-83.3333333333333,3,1,1,50,0,0
8222,-100,3,1,1,50,0,0
8524,-100,3,1,2,50,0,0
8828,-142.857142857143,3,1,2,50,0,0
9055,-142.857142857143,3,1,2,50,0,0
9131,-76.9230769230769,3,1,2,50,0,0
9433,-76.9230769230769,3,2,2,50,0,0
10797,-83.3333333333333,3,1,1,50,0,0
11479,-83.3333333333333,3,1,1,25,0,0
11555,-83.3333333333333,3,1,1,50,0,0
11858,-100,3,1,1,50,0,0
12161,-100,3,1,2,50,0,0
12464,-166.666666666667,3,1,2,50,0,0
12691,-166.666666666667,3,1,2,50,0,0
12767,-83.3333333333333,3,2,1,50,0,0
13676,-83.3333333333333,3,1,2,50,0,0
14282,-83.3333333333333,3,1,2,40,0,0
14888,-166.666666666667,3,2,1,50,0,0
15115,-166.666666666667,3,2,1,5,0,0
15116,-166.666666666667,3,2,1,5,0,0
15191,-83.3333333333333,3,2,2,50,0,0
15342,-83.3333333333333,3,1,1,25,0,0
15419,-83.3333333333333,3,1,1,25,0,0
15494,-100,3,1,2,40,0,0
15797,-100,3,1,2,50,0,0
16101,-166.666666666667,3,1,2,50,0,0
16328,-166.666666666667,3,1,1,50,0,0
16403,-166.666666666667,3,2,1,50,0,0
16404,-83.3333333333333,3,2,1,50,0,0
17464,-166.666666666667,3,2,2,35,0,0
17767,-166.666666666667,3,2,2,10,0,0
17918,-166.666666666667,3,2,2,35,0,0
18221,-166.666666666667,3,1,1,5,0,0
18373,-83.3333333333333,3,1,1,50,0,0
19131,-83.3333333333333,3,1,1,50,0,0
19433,-83.3333333333333,3,1,2,50,0,0
19434,-83.3333333333333,3,1,2,50,0,0
19737,-166.666666666667,3,1,2,50,0,0
19888,-166.666666666667,3,1,1,50,0,0
20040,-83.3333333333333,3,1,1,50,0,0
20646,-55.5555555555556,3,1,1,50,0,0
20949,-83.3333333333333,3,1,1,50,0,0
20987,-83.3333333333333,3,1,1,50,0,0
21101,-83.3333333333333,3,2,2,25,0,0
21479,-83.3333333333333,3,2,2,10,0,0
21555,-83.3333333333333,3,2,2,25,0,0
22009,-83.3333333333333,3,1,1,50,0,0
22767,-111.111111111111,3,1,2,50,0,0
23676,-111.111111111111,3,1,1,30,0,0
23827,-111.111111111111,3,1,1,50,0,0
24585,-111.111111111111,3,1,2,50,0,0
26403,-111.111111111111,3,1,2,50,0,0
26404,-196.078431372549,3,1,2,50,0,0
26555,-196.078431372549,3,1,2,15,0,0
30191,303.030303030303,3,3,1,20,1,0
30645,-200,3,3,1,20,0,0
30948,-200,3,3,1,20,0,0
31104,-200,3,3,1,20,0,0
31251,-200,3,3,1,20,0,0
31554,-200,3,3,1,10,0,0
32009,-200,3,3,1,10,0,0

[Colours]
Combo1 : 196,104,230
Combo2 : 143,24,24
Combo3 : 108,227,115
Combo4 : 116,175,186

[HitObjects]
157,113,192,6,0,L|157:176,3,40,2|2|2|2,0:0|0:0|0:0|0:0,0:0:0:0:
176,196,495,1,2,0:0:0:0:
116,15,646,1,2,0:0:0:0:
59,306,798,5,8,0:0:0:0:
271,202,949,6,0,P|251:255|137:281,1,160,4|6,0:0|0:0,0:0:0:0:
147,360,1555,6,0,L|160:285,1,71.9999978027344
175,195,1858,6,0,L|157:307,1,95.9999970703126,2|2,2:0|1:0,0:0:0:0:
312,61,2161,2,0,L|330:173,1,95.9999970703126,8|8,2:0|1:0,0:0:0:0:
82,183,2464,2,0,L|66:277,1,95.9999970703126,8|8,2:0|1:0,0:0:0:0:
411,56,2767,2,0,L|429:168,2,95.9999970703126,8|2|8,0:0|0:0|0:0,0:0:0:0:
507,198,3222,6,0,B|462:256|396:237|396:237|361:281,1,143.999995605469,6|0,0:0|0:0,0:0:0:0:
384,251,3525,2,0,P|360:194|280:172,1,143.999995605469,6|0,0:0|0:0,0:0:0:0:
247,203,3828,2,0,L|273:269,3,47.9999985351563,2|2|2|2,0:0|0:0|0:0|0:0,0:0:0:0:
292,263,4131,1,2,0:0:0:0:
353,56,4282,1,2,0:0:0:0:
139,110,4434,5,8,0:0:0:0:
384,251,4585,6,0,P|382:293|268:352,1,160,4|6,0:0|0:0,0:0:0:0:
307,127,5191,6,0,L|295:210,1,71.9999978027344,0|2,0:0|0:0,0:0:0:0:
384,251,5494,6,0,P|396:176|367:133,1,95.9999970703126,4|2,0:0|1:0,0:0:0:0:
220,148,5798,2,0,P|278:195|330:192,1,95.9999970703126,10|2,0:0|0:0,0:0:0:0:
391,63,6101,1,2,0:0:0:0:
309,104,6252,5,2,0:0:0:0:
472,114,6404,1,2,0:0:0:0:
229,55,6555,2,0,B|193:51|168:39|168:39|172:77|144:108|144:108|125:154|150:200|150:200|125:234|118:266,1,287.999991210938,0|0,0:0|0:0,0:0:0:0:
123,246,7161,5,2,0:0:0:0:
123,246,7464,2,0,L|125:300,2,47.9999985351563,6|0|0,0:0|0:0|0:0,0:0:0:0:
181,142,7767,1,2,0:0:0:0:
256,297,7919,1,2,0:0:0:0:
346,55,8070,5,8,0:0:0:0:
427,220,8222,6,0,B|474:325|474:325|433:299,1,160,4|6,0:0|0:0,0:0:0:0:
276,96,8828,6,0,L|245:182,1,83.9999974365235,0|0,0:0|0:0,0:0:0:0:
243,230,9131,6,0,B|219:245|219:245|247:175,1,103.999995239258,10|0,0:0|0:0,0:0:0:0:
280,40,9433,2,0,B|304:25|304:25|276:95,1,103.999995239258,10|0,0:0|0:0,0:0:0:0:
189,373,9736,2,0,B|165:388|165:388|193:318,1,103.999995239258,10|0,0:0|0:0,0:0:0:0:
405,104,10040,5,8,0:0:0:0:
330,185,10191,1,2,0:0:0:0:
451,280,10343,1,8,0:0:0:0:
289,356,10494,1,12,0:0:0:0:
405,104,10798,6,0,L|460:75,2,47.9999985351563,2|0|0,0:0|0:0|0:0,0:0:0:0:
301,76,11101,2,0,B|204:41|110:74|110:74|183:117,1,239.999992675781,2|0,0:0|0:0,0:0:0:0:
148,96,11555,1,2,0:0:0:0:
375,0,11707,5,8,0:0:0:0:
347,252,11858,6,0,B|312:314|261:337|261:337|282:272,1,160,4|4,0:0|0:0,0:0:0:0:
407,182,12464,6,0,P|430:210|439:250,1,71.9999978027344,0|0,0:0|0:0,0:0:0:0:
383,337,12767,6,0,P|356:302|348:239,1,95.9999970703126,2|2,0:0|1:0,0:0:0:0:
422,22,13070,2,0,P|449:57|457:120,1,95.9999970703126,2|0,0:0|0:0,0:0:0:0:
347,252,13373,2,0,P|308:280|261:288,1,95.9999970703126,4|0,0:0|0:0,0:0:0:0:
105,230,13676,6,0,L|138:195,2,47.9999985351563,2|2|2,0:0|0:0|0:0,0:0:0:0:
141,74,13979,1,10,0:0:0:0:
249,128,14131,2,0,P|298:131|342:111,1,95.9999970703126,8|2,0:0|0:0,0:0:0:0:
421,23,14434,5,2,0:0:0:0:
278,11,14585,1,2,0:0:0:0:
141,74,14737,1,2,0:0:0:0:
105,230,14888,6,0,L|92:307,1,71.9999978027344,4|0,0:0|0:0,0:0:0:0:
120,373,15191,6,0,L|104:225,1,143.999995605469,6|2,0:0|0:0,0:0:0:0:
71,150,15494,6,0,B|85:267|85:267|105:228,1,160,4|6,0:0|0:0,0:0:0:0:
93,300,16101,6,0,L|105:230,1,71.9999978027344,0|0,0:0|0:0,0:0:0:0:
71,150,16404,5,8,0:0:0:0:
120,373,16555,1,2,0:0:0:0:
256,124,16707,2,0,L|256:247,1,95.9999970703126,4|0,0:0|0:0,0:0:0:0:
392,373,17009,5,2,0:0:0:0:
441,150,17160,1,8,0:0:0:0:
256,220,17313,1,2,0:0:0:0:
415,262,17464,6,0,B|515:283,1,95.9999970703126,2|0,0:0|0:0,0:0:0:0:
369,277,17842,1,0,0:0:0:0:
369,277,17919,6,0,B|352:251|352:251|415:262,1,95.9999970703126,6|0,0:0|0:0,0:0:0:0:
508,281,18373,5,2,0:0:0:0:
338,155,18525,2,0,P|297:166|259:210,1,95.9999970703126,0|2,2:0|0:0,0:0:0:0:
300,384,18828,1,2,0:0:0:0:
255,119,18979,5,8,0:0:0:0:
508,281,19131,6,0,B|352:250|352:250|374:285,1,191.999994140625,4|6,0:0|0:0,0:0:0:0:
255,119,19737,6,0,L|313:131,1,47.9999985351563,0|2,0:0|0:0,0:0:0:0:
395,148,20040,6,0,L|301:128,1,95.9999970703126,8|4,0:0|0:0,0:0:0:0:
121,147,20343,1,4,0:0:0:0:
279,296,20494,1,0,0:0:0:0:
19,61,20646,6,0,P|81:138|147:144,1,143.999995605469,14|0,0:0|2:0,0:0:0:0:
395,148,20949,6,0,L|393:171,1,23.9999992675781,6|0,0:0|0:0,0:0:0:0:
198,272,21100,6,0,P|142:297|231:315,1,191.999994140625,4|0,0:0|0:0,0:0:0:0:
279,296,21479,1,0,0:0:0:0:
263,213,21555,6,0,P|295:160|301:252,1,191.999994140625,2|0,0:0|0:0,0:0:0:0:
279,296,22009,5,8,2:0:0:0:
509,295,22161,1,0,0:0:0:0:
393,90,22313,1,8,2:0:0:0:
394,363,22464,1,10,2:0:0:0:
394,141,22616,1,2,2:0:0:0:
249,342,22767,6,0,B|236:363|199:382|199:382|189:306|133:248|133:248|194:219|233:153|233:153|254:184|294:194,1,431.999986816407,4|10,0:0|0:0,0:0:0:0:
394,141,23828,5,2,0:0:0:0:
398,251,23979,1,0,2:0:0:0:
403,363,24131,1,2,0:0:0:0:
294,194,24282,1,2,0:0:0:0:
494,192,24434,1,8,0:0:0:0:
294,194,24585,6,0,B|254:184|233:153|233:153|194:219|133:248|133:248|189:306|199:382|199:382|236:363|253:338,1,431.999986816407,4|8,0:0|0:0,0:0:0:0:
321,81,25646,5,6,0:0:0:0:
502,152,25797,2,0,P|456:153|418:138,1,71.9999978027344,0|6,2:0|0:0,0:0:0:0:
206,101,26101,1,6,0:0:0:0:
411,4,26252,1,8,0:0:0:0:
123,68,26404,6,0,B|70:141|114:217|114:217|191:207|206:100|206:100|305:94|342:212|342:212|347:271|320:314|320:314|289:339|244:333|244:333|233:296|244:260|244:260|271:227|342:202|342:202|426:192|440:120,1,1020,4|2,0:0|0:0,0:0:0:0:
123,68,30645,6,0,B|101:95|93:139|93:139|67:149|50:173,2,120,8|4|2,0:0|0:0|0:0,0:0:0:0:
231,145,32009,1,8,0:0:0:0:
