osu file format v14

[General]
AudioFilename: audio.mp3
AudioLeadIn: 0
PreviewTime: 570
Countdown: 0
SampleSet: Normal
StackLeniency: 0.2
Mode: 0
LetterboxInBreaks: 0
WidescreenStoryboard: 0

[Editor]
DistanceSpacing: 1.5
BeatDivisor: 4
GridSize: 32
TimelineZoom: 3.400002

[Metadata]
Title:Fault Line
TitleUnicode:Fault Line
Artist:Tennyson
ArtistUnicode:Tennyson
Creator:squirrelpascals
Version:Misselthwaite Manor
Source:
Tags:like what ep Ora Pika fdsfd sammish Spork Lover DakiniBrave Crowie FoxyGrandpa Nysrogh
BeatmapID:1217943
BeatmapSetID:575121

[Difficulty]
HPDrainRate:6
CircleSize:5.1
OverallDifficulty:9
ApproachRate:9.5
SliderMultiplier:1.4
SliderTickRate:1

[Events]
//Background and Video events
0,0,"6d237c84-60bc-4f4e-a7e5-f10e2d0516bc.jpg",0,0
//Break Periods
//Storyboard Layer 0 (Background)
//Storyboard Layer 1 (Fail)
//Storyboard Layer 2 (Pass)
//Storyboard Layer 3 (Foreground)
//Storyboard Sound Samples

[TimingPoints]
192,303.030303030303,3,1,1,50,1,0
722,-100,3,1,1,5,0,0
798,-100,3,1,1,50,0,0
949,303.030303030303,3,1,1,50,1,0
1252,-100,3,1,2,50,0,0
1706,-100,3,1,1,50,0,0
1858,-100,3,2,2,50,0,0
3221,-100,3,2,1,50,0,0
3449,-100,3,1,1,5,0,0
3524,-100,3,1,1,50,0,0
3752,-100,3,1,1,5,0,0
3827,-100,3,1,1,35,0,0
4206,-100,3,1,1,5,0,0
4282,-100,3,1,1,35,0,0
4358,-100,3,1,1,5,0,0
4433,-100,3,1,1,35,0,0
4888,-100,3,1,2,50,0,0
5267,-100,3,1,1,5,0,0
5342,-100,3,2,2,30,0,0
5418,-100,3,2,2,40,0,0
5494,-100,3,2,2,50,0,0
5645,-100,3,1,1,50,0,0
5797,-100,3,1,2,50,0,0
5873,-100,3,1,2,20,0,0
6100,-100,3,1,1,50,0,0
6403,-100,3,2,1,50,0,0
7691,-100,3,2,1,25,0,0
7767,-100,3,1,1,50,0,0
7842,-100,3,1,1,5,0,0
7918,-100,3,1,1,50,0,0
7994,-100,3,1,1,5,0,0
8070,-100,3,1,1,50,0,0
8524,-100,3,1,2,50,0,0
9433,-100,3,2,2,50,0,0
10797,-100,3,1,1,50,0,0
11252,-100,3,1,1,25,0,0
11403,-100,3,1,1,50,0,0
12161,-100,3,1,2,50,0,0
12767,-100,3,2,1,50,0,0
13676,-100,3,1,2,50,0,0
13903,-100,3,1,2,5,0,0
13979,-100,3,1,2,50,0,0
14055,-100,3,1,2,5,0,0
14130,-100,3,1,2,50,0,0
14282,-100,3,1,2,40,0,0
14888,-66.6666666666667,3,2,1,50,0,0
15115,-66.6666666666667,3,2,1,5,0,0
15191,-66.6666666666667,3,2,2,50,0,0
15342,-66.6666666666667,3,1,1,25,0,0
15494,-100,3,1,2,40,0,0
15797,-100,3,1,2,50,0,0
16252,-100,3,1,1,50,0,0
16403,-100,3,2,1,50,0,0
17464,-200,3,2,2,35,0,0
17767,-200,3,2,2,10,0,0
17918,-200,3,2,2,35,0,0
18221,-200,3,1,1,5,0,0
18373,-100,3,1,1,50,0,0
19433,-100,3,1,2,50,0,0
19888,-100,3,1,1,50,0,0
22767,-100,3,1,2,50,0,0
23373,-100,3,1,1,50,0,0
23600,-100,3,1,1,40,0,0
23676,-100,3,1,1,30,0,0
23827,-100,3,1,1,50,0,0
23903,-100,3,1,1,5,0,0
23979,-100,3,1,1,50,0,0
24055,-100,3,1,1,5,0,0
24130,-100,3,1,1,50,0,0
24206,-100,3,1,1,5,0,0
24282,-100,3,1,1,50,0,0
24358,-100,3,1,1,5,0,0
24433,-100,3,1,1,50,0,0
24585,-100,3,1,2,50,0,0
24888,-100,3,1,1,25,0,0
25039,-100,3,1,1,50,0,0
25115,-100,3,1,1,5,0,0
25191,-100,3,1,1,50,0,0
25267,-100,3,1,1,5,0,0
25342,-100,3,1,1,50,0,0
26403,-100,3,1,2,50,0,0
26555,-100,3,1,1,35,0,0
30115,-100,3,1,1,5,0,0
30191,303.030303030303,3,3,1,20,1,0
30645,-200,3,3,1,20,0,0
31554,-200,3,3,1,10,0,0

[Colours]
Combo1 : 196,104,230
Combo2 : 143,24,24
Combo3 : 108,227,115
Combo4 : 116,175,186

[HitObjects]
97,267,192,5,2,0:0:0:0:
101,295,267,1,2,0:0:0:0:
92,321,343,1,2,0:0:0:0:
74,343,419,1,2,0:0:0:0:
48,354,495,1,2,0:0:0:0:
155,198,646,2,0,P|135:183|106:175,1,35,2|0,0:0|0:0,0:0:0:0:
295,246,798,5,8,0:0:0:0:
196,351,949,2,0,L|291:343,1,70,4|0,0:0|0:0,0:0:0:0:
441,88,1252,2,0,P|401:163|452:290,1,210,6|0,0:0|0:0,0:0:0:0:
123,74,1858,6,0,P|155:60|200:51,1,70,2|2,0:0|1:0,0:0:0:0:
335,119,2161,2,0,P|294:105|255:100,1,70,0|8,0:0|1:0,0:0:0:0:
133,189,2464,2,0,P|157:155|181:135,1,70,0|8,0:0|1:0,0:0:0:0:
258,303,2767,5,8,0:0:0:0:
271,181,2919,1,2,0:0:0:0:
281,321,3070,1,8,0:0:0:0:
294,200,3221,2,0,P|341:167|395:184,1,105,6|0,0:0|0:0,0:0:0:0:
433,224,3524,6,0,P|416:205|403:106,1,105,6|0,0:0|0:0,0:0:0:0:
422,44,3827,1,2,0:0:0:0:
398,28,3904,1,2,0:0:0:0:
370,25,3979,1,2,0:0:0:0:
343,34,4055,1,2,0:0:0:0:
322,53,4131,2,0,L|314:103,1,35,2|0,0:0|0:0,0:0:0:0:
351,233,4282,2,0,L|343:283,1,35,2|0,0:0|0:0,0:0:0:0:
226,313,4433,5,8,0:0:0:0:
400,380,4585,2,0,L|303:374,1,70,4|0,0:0|0:0,0:0:0:0:
115,97,4888,2,0,B|99:142|99:142|125:292,1,175,6|0,0:0|0:0,0:0:0:0:
140,336,5343,6,0,L|133:396,1,35,2|2,0:0|0:0,0:0:0:0:
198,160,5494,2,0,P|236:130|287:117,1,70,4|2,0:0|1:0,0:0:0:0:
351,22,5797,2,0,P|335:50|328:81,3,35,10|2|2|2,0:0|0:0|0:0|0:0,0:0:0:0:
320,180,6100,1,2,0:0:0:0:
224,16,6252,1,2,0:0:0:0:
161,238,6403,6,0,P|190:220|204:186,1,70,2|0,0:0|0:0,0:0:0:0:
198,160,6631,1,0,0:0:0:0:
181,137,6706,1,2,0:0:0:0:
381,287,7009,21,0,0:0:0:0:
343,369,7161,1,2,0:0:0:0:
472,309,7312,1,8,2:0:0:0:
325,133,7464,38,0,P|308:192|322:236,1,105,6|0,0:0|0:0,0:0:0:0:
381,287,7767,2,0,L|407:255,1,35,2|0,0:0|0:0,0:0:0:0:
228,115,7919,2,0,L|243:176,1,35,2|0,0:0|0:0,0:0:0:0:
69,371,8070,21,8,0:0:0:0:
101,174,8222,2,0,L|112:272,1,70,4|0,0:0|0:0,0:0:0:0:
291,143,8525,2,0,P|254:50|161:95,1,210,6|0,0:0|0:0,0:0:0:0:
315,294,9131,38,0,P|333:253|335:207,1,70,10|0,0:0|0:0,0:0:0:0:
400,99,9433,2,0,P|399:136|420:186,1,70,2|0,2:0|0:0,0:0:0:0:
440,353,9736,2,0,P|437:309|424:284,1,70,2|8,2:0|1:0,0:0:0:0:
209,338,10039,21,8,0:0:0:0:
112,326,10191,1,2,0:0:0:0:
54,245,10343,1,8,0:0:0:0:
73,149,10494,2,0,B|95:92|142:83|142:83|147:108|183:130,1,140,12|2,0:0|0:0,0:0:0:0:
408,207,10949,1,0,0:0:0:0:
226,169,11100,6,2,L|220:267,1,70
220,266,11328,1,2,0:0:0:0:
219,294,11404,1,2,0:0:0:0:
339,160,11555,2,0,P|321:144|301:135,1,35
92,264,11707,5,8,0:0:0:0:
272,340,11858,2,0,P|227:365|196:363,1,70,4|0,0:0|0:0,0:0:0:0:
300,108,12161,2,0,B|334:80|398:94|422:150|390:199|390:199|406:195|433:194,1,210,4|0,0:0|0:0,0:0:0:0:
399,351,12767,6,0,P|345:342|316:354,1,70,2|2,0:0|1:0,0:0:0:0:
227,291,13070,2,0,P|192:295|159:285,1,70,2|0,0:0|0:0,0:0:0:0:
51,340,13373,1,4,0:0:0:0:
59,326,13676,5,2,0:0:0:0:
65,309,13752,1,2,0:0:0:0:
68,293,13828,2,0,P|72:264|70:246,1,35,2|0,0:0|0:0,0:0:0:0:
87,83,13979,2,0,P|90:112|97:128,1,35,10|0,0:0|0:0,0:0:0:0:
247,246,14131,1,8,0:0:0:0:
128,206,14282,5,2,0:0:0:0:
321,145,14433,1,2,0:0:0:0:
277,349,14585,1,2,0:0:0:0:
87,83,14736,1,2,0:0:0:0:
372,69,14888,38,0,B|393:77|393:77|405:95|405:95|421:108|421:108|427:127|427:127|420:144|420:144|412:168|421:206,1,157.500006008148,4|0,0:0|0:0,0:0:0:0:
437,325,15191,38,0,P|415:285|344:252,1,105.000004005432,6|2,0:0|0:0,0:0:0:0:
267,294,15418,1,2,0:0:0:0:
252,323,15494,38,4,L|152:317,1,70,4|0,0:0|0:0,0:0:0:0:
68,100,15797,2,0,P|28:168|86:300,1,210,6|2,0:0|0:0,0:0:0:0:
175,127,16403,5,8,0:0:0:0:
217,226,16555,1,2,0:0:0:0:
231,78,16706,2,0,P|211:39|177:19,1,70,4|0,0:0|0:0,0:0:0:0:
299,219,17009,5,10,0:0:0:0:
125,240,17162,1,0,0:0:0:0:
320,110,17312,1,2,0:0:0:0:
462,193,17464,6,8,P|476:243|471:269,1,70,2|0,0:0|0:0,0:0:0:0:
463,286,17843,1,2,0:0:0:0:
448,311,17919,2,0,P|445:362|456:387,1,70,6|0,0:0|0:0,0:0:0:0:
263,290,18373,5,2,0:0:0:0:
360,351,18525,1,0,2:0:0:0:
143,325,18676,1,2,0:0:0:0:
374,246,18828,1,2,0:0:0:0:
218,368,18979,5,8,0:0:0:0:
113,177,19130,2,0,P|110:223|125:258,1,70,4|0,0:0|0:0,0:0:0:0:
406,166,19434,2,2,P|328:134|196:143,1,210,6|2,0:0|0:0,0:0:0:0:
275,260,20040,5,8,0:0:0:0:
311,34,20191,1,4,0:0:0:0:
317,358,20343,21,4,0:0:0:0:
287,148,20494,1,0,0:0:0:0:
446,229,20645,6,0,L|390:223,1,35,8|0,0:0|0:0,0:0:0:0:
146,190,20797,1,4,0:0:0:0:
299,355,20949,1,6,0:0:0:0:
299,355,22009,21,6,0:0:0:0:
80,223,22161,1,0,2:0:0:0:
332,188,22312,1,6,0:0:0:0:
111,322,22464,1,6,0:0:0:0:
204,342,22615,1,2,2:0:0:0:
73,145,22767,6,0,P|72:80|199:33,1,210,4|0,0:0|0:0,0:0:0:0:
381,62,23373,1,2,0:0:0:0:
199,158,23525,1,2,0:0:0:0:
192,185,23601,1,2,0:0:0:0:
191,212,23676,1,10,0:0:0:0:
293,331,23828,6,0,P|321:335|352:331,1,35,2|0,0:0|0:0,0:0:0:0:
475,236,23979,2,0,P|447:232|416:236,1,35,0|0,2:0|0:0,0:0:0:0:
469,357,24131,6,0,P|441:361|410:357,1,35,2|0,0:0|0:0,0:0:0:0:
291,197,24282,2,0,P|319:193|350:197,1,35,2|0,0:0|0:0,0:0:0:0:
448,328,24434,1,8,0:0:0:0:
281,86,24585,6,0,B|219:67|219:67|129:98,1,140,4|2,0:0|0:0,0:0:0:0:
120,106,24964,1,2,0:0:0:0:
91,120,25040,2,0,L|82:177,1,35,2|0,0:0|0:0,0:0:0:0:
139,337,25191,2,0,L|144:302,1,35,2|0,0:0|0:0,0:0:0:0:
272,199,25343,5,4,0:0:0:0:
34,262,25494,1,8,0:0:0:0:
294,353,25645,21,6,0:0:0:0:
282,276,25797,1,0,2:0:0:0:
197,221,25949,1,6,0:0:0:0:
214,145,26101,1,6,0:0:0:0:
345,223,26252,37,8,0:0:0:0:
493,175,26404,1,4,0:0:0:0:
256,192,26555,12,2,30115,0:0:0:0:
256,192,30191,21,4,0:0:0:0:
360,119,30645,2,0,B|341:137|341:137|339:85|304:53,2,105,8|4|2,0:0|0:0|0:0,0:0:0:0:
276,180,32009,1,8,0:0:0:0:
