osu file format v14

[General]
AudioFilename: audio.mp3
AudioLeadIn: 0
PreviewTime: 570
Countdown: 0
SampleSet: Normal
StackLeniency: 0.2
Mode: 0
LetterboxInBreaks: 0
WidescreenStoryboard: 0

[Editor]
Bookmarks: 25904,27874
DistanceSpacing: 1.7
BeatDivisor: 4
GridSize: 16
TimelineZoom: 2.100003

[Metadata]
Title:Fault Line
TitleUnicode:Fault Line
Artist:Tennyson
ArtistUnicode:Tennyson
Creator:squirrelpascals
Version:Light Insane
Source:
Tags:like what ep Ora Pika fdsfd sammish Spork Lover DakiniBrave Crowie FoxyGrandpa Nysrogh
BeatmapID:1228995
BeatmapSetID:575121

[Difficulty]
HPDrainRate:5
CircleSize:3.5
OverallDifficulty:5
ApproachRate:8.2
SliderMultiplier:1.6
SliderTickRate:1

[Events]
//Background and Video events
0,0,"6d237c84-60bc-4f4e-a7e5-f10e2d0516bc.jpg",0,0
//Break Periods
//Storyboard Layer 0 (Background)
//Storyboard Layer 1 (Fail)
//Storyboard Layer 2 (Pass)
//Storyboard Layer 3 (Foreground)
//Storyboard Sound Samples

[TimingPoints]
192,303.030303030303,3,1,1,50,1,0
722,-100,3,1,1,5,0,0
798,-100,3,1,1,50,0,0
949,303.030303030303,3,1,1,50,1,0
1252,-100,3,1,2,50,0,0
1706,-100,3,1,1,50,0,0
1858,-100,3,2,2,50,0,0
3221,-100,3,2,1,50,0,0
3449,-100,3,1,1,5,0,0
3524,-100,3,1,1,50,0,0
3752,-100,3,1,1,5,0,0
3827,-100,3,1,1,35,0,0
4206,-100,3,1,1,5,0,0
4282,-100,3,1,1,35,0,0
4358,-100,3,1,1,5,0,0
4433,-100,3,1,1,35,0,0
4888,-100,3,1,2,50,0,0
5267,-100,3,1,1,5,0,0
5342,-100,3,2,2,30,0,0
5418,-100,3,2,2,40,0,0
5494,-100,3,2,2,50,0,0
5645,-100,3,1,1,50,0,0
5797,-100,3,1,2,50,0,0
5873,-100,3,1,2,20,0,0
6100,-100,3,1,1,50,0,0
6403,-100,3,2,1,50,0,0
7691,-100,3,2,1,25,0,0
7767,-100,3,1,1,50,0,0
7842,-100,3,1,1,5,0,0
7918,-100,3,1,1,50,0,0
7994,-100,3,1,1,5,0,0
8070,-100,3,1,1,50,0,0
8524,-100,3,1,2,50,0,0
9433,-100,3,2,2,50,0,0
10797,-100,3,1,1,50,0,0
11252,-100,3,1,1,25,0,0
11403,-100,3,1,1,50,0,0
12161,-100,3,1,2,50,0,0
12767,-100,3,2,1,50,0,0
13676,-100,3,1,2,50,0,0
13903,-100,3,1,2,5,0,0
13979,-100,3,1,2,50,0,0
14055,-100,3,1,2,5,0,0
14130,-100,3,1,2,50,0,0
14282,-100,3,1,2,40,0,0
14888,-100,3,2,1,50,0,0
15115,-100,3,2,1,5,0,0
15191,-100,3,2,2,50,0,0
15342,-100,3,1,1,25,0,0
15494,-100,3,1,2,40,0,0
15797,-100,3,1,2,50,0,0
16252,-100,3,1,1,50,0,0
16403,-100,3,2,1,50,0,0
17464,-133.333333333333,3,2,2,35,0,0
17767,-133.333333333333,3,2,2,10,0,0
17918,-133.333333333333,3,2,2,35,0,0
18221,-133.333333333333,3,1,1,5,0,0
18373,-100,3,1,1,50,0,0
19433,-100,3,1,2,50,0,0
19888,-100,3,1,1,50,0,0
21100,-133.333333333333,3,1,1,50,0,0
22009,-83.3333333333333,3,1,1,50,0,0
22767,-83.3333333333333,3,1,2,50,0,0
23373,-83.3333333333333,3,1,1,50,0,0
23600,-83.3333333333333,3,1,1,40,0,0
23676,-83.3333333333333,3,1,1,30,0,0
23827,-83.3333333333333,3,1,1,50,0,0
23903,-83.3333333333333,3,1,1,5,0,0
23979,-83.3333333333333,3,1,1,50,0,0
24055,-83.3333333333333,3,1,1,5,0,0
24130,-83.3333333333333,3,1,1,50,0,0
24206,-83.3333333333333,3,1,1,5,0,0
24282,-83.3333333333333,3,1,1,50,0,0
24358,-83.3333333333333,3,1,1,5,0,0
24433,-83.3333333333333,3,1,1,50,0,0
24585,-83.3333333333333,3,1,2,50,0,0
24888,-83.3333333333333,3,1,1,25,0,0
25039,-83.3333333333333,3,1,1,50,0,0
25115,-83.3333333333333,3,1,1,5,0,0
25191,-83.3333333333333,3,1,1,50,0,0
25267,-83.3333333333333,3,1,1,5,0,0
25342,-83.3333333333333,3,1,1,50,0,0
25645,-100,3,1,1,50,0,0
26403,-100,3,1,2,50,0,0
26555,-100,3,1,1,35,0,0
30115,-100,3,1,1,5,0,0
30191,303.030303030303,3,3,1,20,1,0
30645,-133.333333333333,3,3,1,20,0,0
31554,-133.333333333333,3,3,1,10,0,0
32009,-133.333333333333,3,3,1,10,0,0

[Colours]
Combo1 : 196,104,230
Combo2 : 143,24,24
Combo3 : 108,227,115
Combo4 : 116,175,186

[HitObjects]
374,50,192,6,0,L|379:-6,3,40,2|2|2|2,0:0|0:0|0:0|0:0,0:0:0:0:
372,86,495,2,0,P|377:148|396:187,1,80,2|2,0:0|0:0,0:0:0:0:
445,281,798,1,8,0:0:0:0:
272,189,949,6,0,P|226:167|191:165,1,80,4|0,0:0|0:0,0:0:0:0:
108,47,1252,2,0,B|76:87|76:87|84:195,1,160,6|0,0:0|0:0,0:0:0:0:
341,341,1858,6,0,B|402:341|402:341|423:349|423:349|443:341|443:341|505:341,2,160,2|0|0,0:0|0:0|0:0,0:0:0:0:
415,214,2615,1,8,1:0:0:0:
277,135,2767,5,8,0:0:0:0:
177,161,2918,1,2,0:0:0:0:
136,251,3070,1,8,0:0:0:0:
184,337,3221,2,0,B|235:349|235:349|272:293|241:227,1,160,6|6,0:0|0:0,0:0:0:0:
81,66,3827,2,0,L|67:8,3,40,2|2|2|2,0:0|0:0|0:0|0:0,0:0:0:0:
88,111,4130,2,0,P|83:168|65:204,1,80,2|2,0:0|0:0,0:0:0:0:
0,303,4433,1,8,0:0:0:0:
158,349,4585,6,0,P|201:341|254:345,1,80,4|0,0:0|0:0,0:0:0:0:
441,362,4888,2,0,P|392:352|376:248,1,160,6|0,0:0|0:0,0:0:0:0:
447,103,5342,1,2,0:0:0:0:
452,121,5418,1,2,0:0:0:0:
457,139,5494,6,0,P|461:194|448:241,1,80,4|2,0:0|1:0,0:0:0:0:
312,180,5797,2,0,P|226:173|154:193,1,160,10|2,0:0|0:0,0:0:0:0:
82,297,6252,1,2,0:0:0:0:
87,301,6403,1,2,0:0:0:0:
51,156,6554,1,0,0:0:0:0:
65,129,6630,1,0,0:0:0:0:
86,108,6706,2,0,P|129:88|186:73,1,80,2|0,0:0|0:0,0:0:0:0:
463,31,7161,5,2,0:0:0:0:
392,105,7312,1,8,2:0:0:0:
487,135,7464,2,0,B|511:166|511:166|505:270,1,120,6|0,0:0|0:0,0:0:0:0:
501,294,7767,2,0,P|474:329|428:348,1,80,2|2,0:0|0:0,0:0:0:0:
259,384,8070,1,8,0:0:0:0:
385,277,8221,6,0,P|378:220|360:188,1,80,4|0,0:0|0:0,0:0:0:0:
236,158,8524,2,0,P|314:137|358:66,1,160,6|0,0:0|0:0,0:0:0:0:
272,0,8979,1,0,0:0:0:0:
161,11,9130,6,0,L|71:19,1,80,10|0,0:0|0:0,0:0:0:0:
0,142,9433,2,0,L|79:149,1,80,2|0,2:0|0:0,0:0:0:0:
246,252,9736,2,0,L|154:262,1,80,2|8,2:0|1:0,0:0:0:0:
80,358,10039,2,0,L|1:351,2,80,8|2|8,0:0|0:0|0:0,0:0:0:0:
199,362,10494,2,0,L|369:346,1,160,12|2,0:0|0:0,0:0:0:0:
378,236,10949,1,0,0:0:0:0:
396,125,11100,6,0,P|394:75|313:22,1,120,0|2,0:0|0:0,0:0:0:0:
295,16,11403,1,2,0:0:0:0:
292,163,11555,1,0,0:0:0:0:
191,69,11706,1,8,0:0:0:0:
182,214,11858,6,0,P|192:286|209:313,1,80,4|0,0:0|0:0,0:0:0:0:
70,230,12161,2,0,P|54:120|29:79,1,160,4|0,0:0|0:0,0:0:0:0:
266,30,12767,2,0,B|390:23|390:23|428:47,2,160,2|2|4,0:0|0:0|0:0,0:0:0:0:
70,75,13676,6,0,L|11:82,2,40,2|2|2,0:0|0:0|0:0,0:0:0:0:
140,172,13979,2,0,P|195:199|236:199,1,80,10|8,0:0|0:0,0:0:0:0:
308,136,14282,2,0,P|347:143|380:164,1,80,2|2,0:0|0:0,0:0:0:0:
371,332,14585,1,2,0:0:0:0:
446,251,14736,1,2,0:0:0:0:
300,242,14888,2,0,P|221:245|149:293,1,160,4|6,0:0|0:0,0:0:0:0:
40,219,15342,6,0,L|34:169,1,40,2|2,0:0|0:0,0:0:0:0:
33,130,15494,2,0,P|53:89|95:67,1,80,4|0,0:0|0:0,0:0:0:0:
220,0,15797,2,0,P|206:81|236:159,1,160,6|0,0:0|0:0,0:0:0:0:
300,241,16252,1,2,0:0:0:0:
410,257,16403,6,0,L|519:266,2,80,8|2|4,0:0|0:0|0:0,0:0:0:0:
348,144,16858,1,0,0:0:0:0:
293,52,17009,2,0,L|213:45,2,80,10|0|2,0:0|0:0|0:0,0:0:0:0:
453,51,17464,6,0,B|432:106|480:106|454:185,1,120.000004577637,2|0,0:0|0:0,0:0:0:0:
451,189,17842,1,2,0:0:0:0:
442,211,17918,1,6,0:0:0:0:
182,277,18373,6,0,P|197:325|189:369,2,80,2|0|2,0:0|2:0|0:0,0:0:0:0:
113,187,18827,1,2,0:0:0:0:
110,73,18979,1,8,0:0:0:0:
208,13,19130,2,0,P|223:61|215:105,1,80,4|0,0:0|0:0,0:0:0:0:
18,139,19433,2,0,P|-9:225|3:304,1,160,6|0,0:0|0:0,0:0:0:0:
102,346,19888,1,2,0:0:0:0:
216,347,20039,6,0,P|272:327|299:294,1,80,8|4,0:0|0:0,0:0:0:0:
282,121,20342,2,0,P|271:179|286:219,1,80,4|0,0:0|0:0,0:0:0:0:
434,298,20645,2,0,P|388:259|346:252,1,80,8|4,0:0|0:0,0:0:0:0:
171,229,20949,1,6,0:0:0:0:
281,122,21100,6,0,B|290:59|253:-1|253:-1|231:40|240:64,1,180.000006866455,0|0,0:0|0:0,0:0:0:0:
431,130,22009,6,0,L|447:22,2,95.9999970703126,6|0|6,0:0|2:0|0:0,0:0:0:0:
414,251,22464,2,0,P|415:316|440:369,1,95.9999970703126,6|2,0:0|2:0,0:0:0:0:
284,318,22767,6,0,B|240:295|240:295|55:306|55:306|9:281,1,287.999991210938,4|0,0:0|0:0,0:0:0:0:
0,143,23373,1,2,0:0:0:0:
125,214,23524,2,0,P|170:206|202:188,2,47.9999985351563,2|2|10,0:0|0:0|0:0,0:0:0:0:
91,95,23827,22,0,L|79:-9,2,95.9999970703126,2|0|2,0:0|2:0|0:0,0:0:0:0:
208,91,24282,2,0,P|273:82|325:95,1,95.9999970703126,2|8,0:0|0:0,0:0:0:0:
419,28,24585,2,0,B|385:172|385:172|368:250|420:308,1,287.999991210938,4|2,0:0|0:0,0:0:0:0:
480,213,25191,1,2,0:0:0:0:
348,173,25342,2,0,P|300:180|257:201,1,95.9999970703126,4|8,0:0|0:0,0:0:0:0:
163,371,25645,6,0,P|203:364|239:346,1,80,6|0,0:0|2:0,0:0:0:0:
142,190,25948,2,0,P|148:230|166:266,1,80,6|6,0:0|0:0,0:0:0:0:
324,282,26252,1,8,0:0:0:0:
257,200,26403,1,4,0:0:0:0:
256,192,26555,12,2,30115,0:0:0:0:
297,173,30191,5,4,0:0:0:0:
382,268,30645,2,0,B|387:202|387:202|398:181|398:181|391:158|391:158|397:92,2,180.000006866455,8|4|2,0:0|0:0|0:0,0:0:0:0:
297,173,32009,1,8,0:0:0:0:
