osu file format v14

[General]
AudioFilename: audio.mp3
AudioLeadIn: 0
PreviewTime: 570
Countdown: 0
SampleSet: Normal
StackLeniency: 0.2
Mode: 3
LetterboxInBreaks: 0
SpecialStyle: 0
WidescreenStoryboard: 1

[Editor]
DistanceSpacing: 0.8
BeatDivisor: 4
GridSize: 32
TimelineZoom: 2.200002

[Metadata]
Title:Fault Line
TitleUnicode:Fault Line
Artist:Tennyson
ArtistUnicode:Tennyson
Creator:squirrelpascals
Version:HD
Source:
Tags:like what ep Ora Pika fdsfd sammish Spork Lover DakiniBrave Crowie FoxyGrandpa Nysrogh
BeatmapID:1223237
BeatmapSetID:575121

[Difficulty]
HPDrainRate:6
CircleSize:4
OverallDifficulty:7
ApproachRate:9.3
SliderMultiplier:1.4
SliderTickRate:1

[Events]
//Background and Video events
0,0,"6d237c84-60bc-4f4e-a7e5-f10e2d0516bc.jpg",0,0
//Break Periods
//Storyboard Layer 0 (Background)
//Storyboard Layer 1 (Fail)
//Storyboard Layer 2 (Pass)
//Storyboard Layer 3 (Foreground)
//Storyboard Sound Samples
Sample,5191,0,"soft-hitclap2.wav",70
Sample,5342,0,"soft-hitclap2.wav",70

[TimingPoints]
192,303.030303030303,3,1,1,30,1,0
949,303.030303030303,3,1,1,30,1,0
30191,303.030303030303,3,1,1,30,1,0

[HitObjects]
64,192,192,5,0,0:0:0:70:drum-hitwhistle.wav
448,192,192,1,0,0:0:0:30:
192,192,293,1,0,0:0:0:70:drum-hitwhistle.wav
320,192,343,1,0,0:0:0:70:drum-hitwhistle.wav
192,192,381,1,0,0:0:0:0:
320,192,495,1,0,0:0:0:70:soft-hitclap.wav
448,192,495,1,0,0:0:0:30:
64,192,646,1,0,0:0:0:70:soft-hitclap.wav
192,192,646,1,0,0:0:0:30:
448,192,798,128,0,949:0:0:0:70:normal-hitclap.wav
64,192,798,1,0,0:0:0:30:
192,192,949,1,0,0:0:0:70:normal-hitwhistle2.wav
320,192,949,128,0,1252:0:0:0:70:normal-hitfinish2.wav
64,192,1252,128,0,1858:0:0:0:70:soft-hitwhistle2.wav
448,192,1252,1,0,0:0:0:30:
320,192,1706,1,0,0:0:0:0:
448,192,1858,128,0,2009:0:0:0:30:
64,192,2009,1,0,0:0:0:70:soft-hitclap.wav
320,192,2009,1,0,0:0:0:30:
64,192,2161,1,0,0:0:0:30:
192,192,2161,1,0,0:0:0:30:
448,192,2236,1,0,0:0:0:30:
192,192,2312,1,0,0:0:0:70:normal-hitclap.wav
320,192,2312,1,0,0:0:0:30:
64,192,2464,128,0,2615:0:0:0:70:normal-hitwhistle2.wav
448,192,2464,1,0,0:0:0:30:
320,192,2615,1,0,0:0:0:70:normal-hitwhistle.wav
448,192,2615,1,0,0:0:0:30:
192,192,2767,128,0,2918:0:0:0:70:soft-hitfinish.wav
448,192,2918,128,0,3070:0:0:0:30:
64,192,2918,1,0,0:0:0:30:
320,192,3070,128,0,3221:0:0:0:30:
192,192,3070,1,0,0:0:0:30:
64,192,3221,128,0,3827:0:0:0:70:soft-hitfinish.wav
448,192,3221,1,0,0:0:0:30:
320,192,3373,1,0,0:0:0:70:normal-hitwhistle2.wav
192,192,3524,128,0,3827:0:0:0:30:
448,192,3676,1,0,0:0:0:30:
320,192,3827,1,0,0:0:0:30:
448,192,3827,1,0,0:0:0:30:
64,192,3903,1,0,0:0:0:70:normal-hitwhistle.wav
320,192,3979,1,0,0:0:0:70:normal-hitwhistle.wav
192,192,4055,1,0,0:0:0:70:normal-hitwhistle.wav
320,192,4130,1,0,0:0:0:70:normal-hitwhistle.wav
448,192,4130,1,0,0:0:0:30:
64,192,4282,1,0,0:0:0:70:normal-hitwhistle.wav
192,192,4282,1,0,0:0:0:30:
448,192,4433,128,0,4585:0:0:0:70:normal-hitclap.wav
320,192,4433,1,0,0:0:0:30:
192,192,4585,128,0,4888:0:0:0:70:normal-hitclap2.wav
64,192,4585,1,0,0:0:0:30:
448,192,4736,128,0,4888:0:0:0:30:
64,192,4888,128,0,5494:0:0:0:30:
320,192,4888,1,0,0:0:0:30:
448,192,5191,1,0,0:0:0:70:normal-hitwhistle2.wav
448,192,5342,1,0,0:0:0:70:soft-hitclap2.wav
192,192,5494,1,0,0:0:0:30:
320,192,5494,128,0,5645:0:0:0:30:
64,192,5645,1,0,0:0:0:70:drum-hitwhistle.wav
448,192,5645,1,0,0:0:0:30:
192,192,5797,128,0,6100:0:0:0:70:normal-hitclap.wav
448,192,5797,1,0,0:0:0:30:
64,192,6100,1,0,0:0:0:70:soft-hitwhistle.wav
448,192,6100,1,0,0:0:0:30:
192,192,6252,1,0,0:0:0:70:normal-hitwhistle.wav
448,192,6252,1,0,0:0:0:30:
64,192,6403,1,0,0:0:0:70:soft-hitclap2.wav
320,192,6403,1,0,0:0:0:30:
448,192,6555,128,0,6706:0:0:0:70:normal-hitwhistle2.wav
192,192,6555,1,0,0:0:0:30:
64,192,6706,128,0,7009:0:0:0:70:normal-hitclap.wav
192,192,6706,1,0,0:0:0:30:
448,192,6858,1,0,0:0:0:30:
320,192,7009,128,0,7161:0:0:0:70:normal-hitwhistle2.wav
192,192,7009,1,0,0:0:0:30:
64,192,7161,1,0,0:0:0:70:drum-hitwhistle.wav
448,192,7161,1,0,0:0:0:30:
448,192,7312,1,0,0:0:0:70:drum-hitclap.wav
192,192,7312,1,0,0:0:0:30:
64,192,7464,1,0,0:0:0:70:soft-hitclap2.wav
192,192,7464,1,0,0:0:0:30:
448,192,7539,1,0,0:0:0:70:soft-hitclap2.wav
64,192,7615,1,0,0:0:0:70:soft-hitclap2.wav
320,192,7691,1,0,0:0:0:70:soft-hitclap2.wav
192,192,7767,1,0,0:0:0:70:normal-hitwhistle.wav
448,192,7767,1,0,0:0:0:30:
64,192,7842,1,0,0:0:0:70:normal-hitwhistle.wav
320,192,7918,1,0,0:0:0:70:drum-hitwhistle.wav
448,192,7918,1,0,0:0:0:30:
64,192,8070,128,0,8221:0:0:0:70:normal-hitclap.wav
320,192,8070,1,0,0:0:0:30:
192,192,8221,1,0,0:0:0:70:normal-hitclap.wav
448,192,8221,128,0,8524:0:0:0:70:normal-hitfinish2.wav
192,192,8524,128,0,9130:0:0:0:70:normal-hitwhistle2.wav
64,192,8524,1,0,0:0:0:30:
448,192,8676,1,0,0:0:0:30:
320,192,8827,1,0,0:0:0:70:normal-hitwhistle2.wav
448,192,8979,1,0,0:0:0:70:soft-hitclap2.wav
64,192,8979,1,0,0:0:0:30:
320,192,9130,1,0,0:0:0:70:drum-hitclap.wav
64,192,9130,128,0,9282:0:0:0:30:
192,192,9282,1,0,0:0:0:70:drum-hitwhistle.wav
448,192,9282,1,0,0:0:0:30:
448,192,9433,128,0,9585:0:0:0:70:normal-hitclap.wav
64,192,9433,1,0,0:0:0:30:
320,192,9585,1,0,0:0:0:30:
192,192,9736,128,0,9888:0:0:0:70:normal-hitwhistle2.wav
64,192,9736,1,0,0:0:0:30:
448,192,9888,1,0,0:0:0:70:drum-hitclap.wav
320,192,9888,1,0,0:0:0:30:
64,192,10039,1,0,0:0:0:30:
320,192,10039,1,0,0:0:0:30:
64,192,10191,1,0,0:0:0:70:soft-hitwhistle2.wav
448,192,10191,1,0,0:0:0:30:
192,192,10342,1,0,0:0:0:70:drum-hitclap.wav
320,192,10342,1,0,0:0:0:30:
192,192,10494,1,0,0:0:0:70:soft-hitclap2.wav
448,192,10494,1,0,0:0:0:30:
64,192,10645,128,0,10949:0:0:0:70:normal-hitwhistle2.wav
320,192,10645,1,0,0:0:0:30:
448,192,10797,1,0,0:0:0:70:drum-hitwhistle.wav
320,192,10797,1,0,0:0:0:30:
192,192,10949,1,0,0:0:0:70:normal-hitclap.wav
448,192,10949,1,0,0:0:0:30:
64,192,11100,1,0,0:0:0:70:soft-hitclap2.wav
320,192,11100,128,0,11555:0:0:0:30:
192,192,11252,1,0,0:0:0:70:normal-hitwhistle.wav
448,192,11327,1,0,0:0:0:70:normal-hitwhistle.wav
64,192,11403,1,0,0:0:0:70:soft-hitclap2.wav
192,192,11403,1,0,0:0:0:70:drum-hitwhistle.wav
448,192,11555,1,0,0:0:0:70:soft-hitclap2.wav
192,192,11555,128,0,11706:0:0:0:70:normal-hitwhistle.wav
64,192,11706,128,0,11858:0:0:0:70:drum-hitclap.wav
320,192,11706,1,0,0:0:0:30:
448,192,11858,128,0,12161:0:0:0:70:normal-hitclap.wav
192,192,11858,1,0,0:0:0:70:normal-hitfinish2.wav
64,192,12009,1,0,0:0:0:70:normal-hitwhistle2.wav
64,192,12161,128,0,12767:0:0:0:70:soft-hitfinish.wav
192,192,12161,1,0,0:0:0:30:
448,192,12312,1,0,0:0:0:70:normal-hitwhistle2.wav
320,192,12464,1,0,0:0:0:70:normal-hitwhistle2.wav
192,192,12615,1,0,0:0:0:70:normal-hitwhistle.wav
448,192,12615,1,0,0:0:0:30:
320,192,12767,1,0,0:0:0:70:soft-hitclap2.wav
192,192,12767,1,0,0:0:0:30:
448,192,12918,1,0,0:0:0:70:normal-hitwhistle.wav
64,192,12918,1,0,0:0:0:70:soft-hitclap2.wav
320,192,13070,128,0,13221:0:0:0:70:normal-hitwhistle2.wav
64,192,13221,1,0,0:0:0:70:normal-hitwhistle2.wav
192,192,13373,128,0,13524:0:0:0:30:
448,192,13524,1,0,0:0:0:70:normal-hitwhistle.wav
64,192,13676,1,0,0:0:0:70:soft-hitclap2.wav
192,192,13752,1,0,0:0:0:70:soft-hitclap2.wav
448,192,13827,1,0,0:0:0:70:soft-hitclap2.wav
64,192,13979,1,0,0:0:0:70:normal-hitclap.wav
192,192,13979,1,0,0:0:0:30:
320,192,14130,1,0,0:0:0:70:normal-hitclap.wav
448,192,14130,1,0,0:0:0:30:
64,192,14282,128,0,14433:0:0:0:30:
320,192,14282,1,0,0:0:0:30:
320,192,14433,128,0,14585:0:0:0:70:soft-hitclap2.wav
448,192,14433,1,0,0:0:0:30:
192,192,14585,128,0,14736:0:0:0:70:soft-hitclap2.wav
64,192,14585,1,0,0:0:0:30:
448,192,14736,128,0,14888:0:0:0:70:normal-hitwhistle.wav
320,192,14736,1,0,0:0:0:30:
64,192,14888,128,0,15191:0:0:0:70:normal-hitclap.wav
192,192,14888,1,0,0:0:0:70:normal-hitwhistle.wav
320,192,15191,1,0,0:0:0:70:normal-hitclap.wav
448,192,15191,1,0,0:0:0:70:soft-hitfinish2.wav
192,192,15342,1,0,0:0:0:70:normal-hitwhistle.wav
448,192,15418,1,0,0:0:0:70:normal-hitwhistle.wav
64,192,15494,1,0,0:0:0:70:drum-hitwhistle.wav
320,192,15494,128,0,15797:0:0:0:30:
192,192,15645,1,0,0:0:0:30:
448,192,15797,128,0,16403:0:0:0:70:normal-hitfinish2.wav
64,192,15797,1,0,0:0:0:30:
320,192,15873,1,0,0:0:0:30:
64,192,15948,1,0,0:0:0:70:soft-hitclap2.wav
192,192,16100,1,0,0:0:0:70:normal-hitwhistle2.wav
64,192,16252,1,0,0:0:0:70:normal-hitwhistle.wav
320,192,16252,1,0,0:0:0:30:
192,192,16403,1,0,0:0:0:70:normal-hitclap2.wav
320,192,16403,128,0,16555:0:0:0:30:
64,192,16555,128,0,16706:0:0:0:70:normal-hitwhistle.wav
448,192,16555,1,0,0:0:0:70:normal-hitfinish.wav
192,192,16706,128,0,16858:0:0:0:30:
320,192,16858,128,0,17009:0:0:0:30:
448,192,17009,1,0,0:0:0:70:normal-hitwhistle2.wav
64,192,17009,128,0,17161:0:0:0:30:
320,192,17161,128,0,17312:0:0:0:70:normal-hitwhistle.wav
192,192,17161,1,0,0:0:0:30:
64,192,17312,128,0,17464:0:0:0:70:soft-hitclap2.wav
448,192,17312,1,0,0:0:0:30:
192,192,17464,128,0,17767:0:0:0:30:
448,192,17615,1,0,0:0:0:70:soft-hitclap.wav
320,192,17767,1,0,0:0:0:30:
448,192,17842,1,0,0:0:0:30:
64,192,17918,128,0,18373:0:0:0:30:
448,192,18373,1,0,0:0:0:70:soft-hitclap2.wav
320,192,18373,1,0,0:0:0:30:
192,192,18524,1,0,0:0:0:70:soft-hitfinish2.wav
448,192,18600,1,0,0:0:0:70:normal-hitwhistle.wav
64,192,18676,1,0,0:0:0:70:drum-hitwhistle.wav
192,192,18676,1,0,0:0:0:30:
320,192,18827,1,0,0:0:0:70:normal-hitwhistle2.wav
448,192,18827,1,0,0:0:0:30:
64,192,18979,1,0,0:0:0:70:normal-hitclap.wav
448,192,18979,1,0,0:0:0:30:
320,192,19130,1,0,0:0:0:70:soft-hitwhistle.wav
64,192,19130,128,0,19433:0:0:0:70:normal-hitfinish2.wav
448,192,19282,1,0,0:0:0:30:
448,192,19433,128,0,20039:0:0:0:70:normal-hitwhistle2.wav
192,192,19433,1,0,0:0:0:30:
64,192,19585,1,0,0:0:0:30:
320,192,19736,1,0,0:0:0:70:normal-hitwhistle2.wav
64,192,19888,1,0,0:0:0:70:normal-hitwhistle.wav
320,192,19888,1,0,0:0:0:30:
192,192,20039,1,0,0:0:0:70:normal-hitclap.wav
64,192,20039,1,0,0:0:0:30:
192,192,20191,1,0,0:0:0:70:normal-hitwhistle.wav
448,192,20191,1,0,0:0:0:30:
64,192,20342,128,0,20494:0:0:0:30:
320,192,20342,1,0,0:0:0:30:
320,192,20494,128,0,20645:0:0:0:70:soft-hitclap2.wav
448,192,20494,1,0,0:0:0:30:
64,192,20645,128,0,20797:0:0:0:70:normal-hitwhistle2.wav
192,192,20645,1,0,0:0:0:30:
448,192,20797,128,0,20949:0:0:0:70:normal-hitwhistle2.wav
320,192,20797,1,0,0:0:0:30:
192,192,20949,128,0,21100:0:0:0:70:normal-hitwhistle2.wav
64,192,20949,1,0,0:0:0:30:
320,192,21100,128,0,21403:0:0:0:30:
64,192,21403,1,0,0:0:0:30:
448,192,21479,1,0,0:0:0:30:
192,192,21555,1,0,0:0:0:30:
64,192,21555,128,0,22009:0:0:0:30:
448,192,22009,1,0,0:0:0:70:normal-hitwhistle.wav
320,192,22009,1,0,0:0:0:70:soft-hitclap2.wav
320,192,22161,1,0,0:0:0:30:
448,192,22161,1,0,0:0:0:30:
64,192,22312,1,0,0:0:0:70:normal-hitwhistle.wav
192,192,22312,1,0,0:0:0:30:
192,192,22464,1,0,0:0:0:70:normal-hitwhistle.wav
448,192,22464,1,0,0:0:0:30:
64,192,22615,128,0,22767:0:0:0:70:normal-hitclap.wav
320,192,22767,128,0,23827:0:0:0:70:normal-hitfinish2.wav
448,192,22767,128,0,23827:0:0:0:30:
192,192,23070,1,0,0:0:0:70:normal-hitwhistle.wav
64,192,23373,1,0,0:0:0:70:drum-hitwhistle.wav
192,192,23524,1,0,0:0:0:70:soft-hitclap2.wav
64,192,23600,1,0,0:0:0:70:soft-hitclap2.wav
192,192,23676,1,0,0:0:0:70:soft-hitclap2.wav
64,192,23827,128,0,23979:0:0:0:70:drum-hitwhistle.wav
192,192,23827,1,0,0:0:0:30:
320,192,23979,1,0,0:0:0:30:
448,192,23979,128,0,24130:0:0:0:30:
192,192,24130,128,0,24282:0:0:0:70:normal-hitwhistle.wav
64,192,24130,1,0,0:0:0:30:
448,192,24282,128,0,24433:0:0:0:70:normal-hitwhistle.wav
320,192,24282,1,0,0:0:0:30:
192,192,24433,128,0,24585:0:0:0:70:normal-hitclap.wav
64,192,24433,1,0,0:0:0:30:
64,192,24585,128,0,25645:0:0:0:70:normal-hitfinish2.wav
448,192,24585,128,0,25645:0:0:0:70:drum-hitwhistle.wav
320,192,25039,1,0,0:0:0:70:drum-hitwhistle.wav
320,192,25191,1,0,0:0:0:70:drum-hitwhistle.wav
192,192,25342,1,0,0:0:0:70:soft-hitclap2.wav
320,192,25494,1,0,0:0:0:70:drum-hitclap.wav
192,192,25645,128,0,25797:0:0:0:70:normal-hitwhistle.wav
320,192,25645,1,0,0:0:0:30:
448,192,25797,128,0,25948:0:0:0:30:
64,192,25797,1,0,0:0:0:30:
192,192,25948,128,0,26100:0:0:0:30:
320,192,25948,1,0,0:0:0:30:
64,192,26100,1,0,0:0:0:70:normal-hitfinish.wav
448,192,26100,1,0,0:0:0:30:
320,192,26252,128,0,26403:0:0:0:30:
64,192,26252,1,0,0:0:0:30:
192,192,26403,128,0,30191:0:0:0:70:normal-hitfinish2.wav
448,192,26403,1,0,0:0:0:30:
448,192,28979,128,0,30191:0:0:0:30:
64,192,30191,1,0,0:0:0:30:normal-hitclap2.wav
320,192,30494,1,0,0:0:0:30:
64,192,30645,1,0,0:0:0:30:
192,192,30797,1,0,0:0:0:30:
64,192,31100,1,0,0:0:0:30:normal-hitfinish.wav
448,192,31100,1,0,0:0:0:30:
