osu file format v14

[General]
AudioFilename: audio.mp3
AudioLeadIn: 0
PreviewTime: 570
Countdown: 0
SampleSet: Soft
StackLeniency: 0.4
Mode: 0
LetterboxInBreaks: 0
WidescreenStoryboard: 0

[Editor]
DistanceSpacing: 2.5
BeatDivisor: 4
GridSize: 32
TimelineZoom: 5

[Metadata]
Title:Fault Line
TitleUnicode:Fault Line
Artist:Tennyson
ArtistUnicode:Tennyson
Creator:squirrelpascals
Version:Foxy's Extreme
Source:
Tags:like what ep Ora Pika fdsfd sammish Spork Lover DakiniBrave Crowie FoxyGrandpa Nysrogh
BeatmapID:1229968
BeatmapSetID:575121

[Difficulty]
HPDrainRate:6
CircleSize:7
OverallDifficulty:8
ApproachRate:9.5
SliderMultiplier:1.5
SliderTickRate:1

[Events]
//Background and Video events
0,0,"6d237c84-60bc-4f4e-a7e5-f10e2d0516bc.jpg",0,0
//Break Periods
//Storyboard Layer 0 (Background)
//Storyboard Layer 1 (Fail)
//Storyboard Layer 2 (Pass)
//Storyboard Layer 3 (Foreground)
//Storyboard Sound Samples

[TimingPoints]
192,303.030303030303,3,2,1,50,1,0
798,-100,3,1,1,50,0,0
949,303.030303030303,3,1,1,50,1,0
1252,-200,3,1,2,50,0,0
1858,-100,3,2,2,50,0,0
2009,-100,3,1,1,50,0,0
2161,-100,3,2,2,50,0,0
2312,-100,3,1,1,50,0,0
2464,-100,3,2,2,50,0,0
2615,-100,3,1,1,50,0,0
2767,-100,3,2,2,50,0,0
3070,-100,3,2,2,45,0,0
3221,-66.6666666666667,3,2,2,50,0,0
3240,-66.6666666666667,3,2,2,5,0,0
3524,-66.6666666666667,3,2,1,50,0,0
3752,-66.6666666666667,3,2,1,5,0,0
3827,-66.6666666666667,3,2,1,50,0,0
4433,-66.6666666666667,3,1,1,50,0,0
4888,-100,3,1,2,50,0,0
5342,-100,3,2,1,30,0,0
5380,-100,3,2,1,30,0,0
5494,-200,3,2,1,50,0,0
5645,-200,3,1,2,50,0,0
6100,-100,3,1,1,50,0,0
6176,-100,3,1,1,5,0,0
6252,-100,3,1,1,50,0,0
6327,-100,3,1,1,5,0,0
6403,-100,3,2,2,50,0,0
6479,-100,3,2,2,5,0,0
6555,-100,3,2,2,50,0,0
7009,-100,3,1,2,50,0,0
7161,-100,3,2,1,50,0,0
7312,-100,3,1,1,50,0,0
7615,-100,3,1,1,40,0,0
7767,-100,3,1,1,50,0,0
8145,-100,3,1,1,5,0,0
8221,-100,3,1,1,60,0,0
8297,-100,3,1,1,5,0,0
8373,-100,3,1,2,50,0,0
8449,-100,3,1,2,5,0,0
8525,-200,3,1,2,50,0,0
8979,-200,3,2,2,50,0,0
9130,-100,3,2,2,50,0,0
9131,-100,3,2,1,50,0,0
9358,-100,3,2,1,5,0,0
9434,-100,3,2,1,50,0,0
9661,-100,3,2,1,5,0,0
9737,-100,3,2,1,50,0,0
9964,-100,3,2,1,5,0,0
10040,-100,3,2,2,50,0,0
10494,-66.6666666666667,3,2,1,50,0,0
10798,-100,3,2,1,50,0,0
10949,-100,3,1,1,50,0,0
11252,-100,3,1,1,40,0,0
11403,-100,3,1,1,50,0,0
12161,-200,3,1,2,50,0,0
12615,-200,3,2,2,50,0,0
12767,-66.6666666666667,3,2,1,50,0,0
13070,-100,3,2,1,40,0,0
13221,-100,3,2,1,5,0,0
13373,-200,3,2,1,40,0,0
13524,-100,3,2,1,5,0,0
13676,-100,3,1,2,40,0,0
13827,-100,3,1,2,50,0,0
14736,-100,3,2,2,50,0,0
14888,-66.6666666666667,3,2,2,50,0,0
15342,-66.6666666666667,3,2,1,50,0,0
15494,-100,3,1,1,50,0,0
15797,-200,3,1,2,50,0,0
16252,-200,3,1,1,50,0,0
16555,-200,3,2,1,50,0,0
17009,-100,3,2,1,50,0,0
17085,-100,3,2,1,5,0,0
17161,-100,3,2,1,50,0,0
17236,-100,3,2,1,5,0,0
17312,-100,3,2,1,50,0,0
17388,-100,3,2,1,5,0,0
17464,-200,3,2,2,25,0,0
18297,-200,3,2,2,5,0,0
18373,-100,3,1,1,50,0,0
18524,-100,3,2,1,50,0,0
18676,-100,3,1,1,50,0,0
19282,-100,3,1,2,50,0,0
19433,-200,3,1,2,50,0,0
19888,-100,3,1,1,50,0,0
22161,-100,3,2,2,50,0,0
22312,-100,3,1,1,50,0,0
22767,-100,3,1,2,50,0,0
23070,-100,3,2,2,50,0,0
23373,-100,3,2,1,50,0,0
23524,-100,3,2,1,40,0,0
23676,-100,3,2,1,50,0,0
23827,-100,3,1,1,50,0,0
24585,-100,3,1,2,50,0,0
24888,-100,3,1,2,5,0,0
24964,-100,3,1,1,50,0,0
25645,-100,3,1,2,50,0,0
26555,-100,3,2,1,50,0,0
30191,303.030303030303,3,3,1,50,1,0
30645,-200,3,3,1,50,0,0

[Colours]
Combo1 : 196,104,230
Combo2 : 143,24,24
Combo3 : 108,227,115
Combo4 : 116,175,186

[HitObjects]
110,126,192,5,8,0:0:0:0:
142,186,343,1,8,0:0:0:0:
142,186,419,1,8,0:0:0:0:
142,186,495,1,8,0:0:0:0:
174,126,646,1,8,0:0:0:0:
78,186,798,5,8,0:0:0:0:
206,186,949,1,4,0:0:0:0:
142,76,1100,1,0,0:0:0:0:
144,248,1252,6,0,P|190:258|215:343,1,131.25,4|0,0:0|0:0,0:0:0:0:
219,330,1858,6,0,P|252:287|251:254,1,75,4|2,0:0|0:0,0:0:0:0:
170,124,2161,2,0,P|178:160|206:186,1,75,8|8,0:0|0:0,0:0:0:0:
371,184,2464,2,0,P|335:173|300:184,1,75,10|8,0:0|0:0,0:0:0:0:
337,234,2767,5,12,0:0:0:0:
404,133,2918,1,0,0:0:0:0:
287,132,3070,1,8,0:0:0:0:
427,227,3221,2,0,L|435:210,1,14.0625005364418,10|0,0:0|0:0,0:0:0:0:
432,214,3524,6,0,L|359:367,1,168.750006437302,4|0,0:0|0:0,0:0:0:0:
360,366,3827,5,8,0:0:0:0:
337,234,3979,1,8,0:0:0:0:
319,255,4054,1,8,0:0:0:0:
311,282,4130,1,8,0:0:0:0:
432,214,4282,1,8,0:0:0:0:
302,185,4433,5,8,0:0:0:0:
406,165,4585,2,0,P|370:118|305:104,1,112.500004291535,4|0,0:0|0:0,0:0:0:0:
432,214,4888,6,0,P|465:169|456:77,1,150,4|0,0:0|0:0,0:0:0:0:
406,46,5342,6,0,L|381:44,3,18.75,4|4|4|4,0:0|0:0|0:0|0:0,0:0:0:0:
367,52,5494,6,0,L|330:43,1,37.5,2|2,0:0|0:0,0:0:0:0:
320,102,5797,2,0,L|283:93,1,37.5,8|2,0:0|0:0,0:0:0:0:
273,152,6100,6,0,L|236:143,1,37.5,2|0,0:0|0:0,0:0:0:0:
320,102,6252,2,0,L|283:93,1,37.5,2|0,0:0|0:0,0:0:0:0:
367,52,6403,2,0,L|330:43,1,37.5,2|0,0:0|0:0,0:0:0:0:
238,23,6555,6,0,B|271:30|271:30|150:44,1,150,4|0,0:0|0:0,0:0:0:0:
91,129,7009,1,2,0:0:0:0:
208,115,7161,1,8,0:0:0:0:
60,86,7312,1,8,0:0:0:0:
239,158,7464,5,2,0:0:0:0:
140,218,7615,1,2,0:0:0:0:
122,221,7691,1,2,0:0:0:0:
104,225,7766,1,2,0:0:0:0:
271,241,7918,1,2,0:0:0:0:
184,338,8070,6,0,P|169:321|164:302,1,37.5,8|0,0:0|0:0,0:0:0:0:
88,274,8221,2,0,P|110:269|129:274,1,37.5,4|0,0:0|0:0,0:0:0:0:
191,223,8373,2,0,P|183:244|169:258,1,37.5,2|0,0:0|0:0,0:0:0:0:
89,336,8524,6,0,P|37:311|56:217,1,150,4|0,0:0|0:0,0:0:0:0:
130,176,8979,1,0,0:0:0:0:
130,176,9130,2,0,P|94:168|55:178,1,75,2|0,0:0|0:0,0:0:0:0:
1,115,9433,2,0,P|37:107|76:117,1,75,4|0,0:0|0:0,0:0:0:0:
130,54,9736,2,0,P|94:46|55:56,1,75,2|0,0:0|0:0,0:0:0:0:
169,113,10039,5,12,0:0:0:0:
196,5,10190,1,0,0:0:0:0:
130,54,10342,1,8,0:0:0:0:
235,64,10494,2,0,L|237:38,1,14.0625005364418,12|0,0:0|0:0,0:0:0:0:
236,49,10797,2,0,L|226:177,1,112.500004291535,8|8,0:0|0:0,0:0:0:0:
216,254,11100,5,2,0:0:0:0:
244,170,11252,1,2,0:0:0:0:
227,161,11327,1,2,0:0:0:0:
208,164,11403,1,2,0:0:0:0:
211,311,11555,1,2,0:0:0:0:
349,250,11706,5,8,0:0:0:0:
421,169,11858,2,0,P|368:149|347:153,1,75,4|0,0:0|0:0,0:0:0:0:
289,317,12161,2,0,P|342:337|363:333,1,75,4|0,0:0|0:0,0:0:0:0:
349,250,12615,1,8,0:0:0:0:
348,250,12767,6,0,P|309:253|345:237,1,112.500004291535,4|8,0:0|0:0,0:0:0:0:
315,162,13070,6,0,P|293:146|318:155,1,75,2|0,0:0|0:0,0:0:0:0:
222,172,13373,6,0,P|215:157|225:169,1,37.5,2|0,0:0|0:0,0:0:0:0:
190,230,13676,1,2,0:0:0:0:
190,230,13752,1,2,0:0:0:0:
190,230,13827,5,2,0:0:0:0:
122,114,13979,1,8,0:0:0:0:
122,230,14130,1,8,0:0:0:0:
190,114,14282,1,2,0:0:0:0:
89,172,14433,1,2,0:0:0:0:
222,172,14585,1,2,0:0:0:0:
156,57,14736,1,8,0:0:0:0:
156,286,14888,6,0,B|209:287|209:287|256:321|256:321|313:321,1,168.750006437302,6|0,0:0|0:0,0:0:0:0:
395,295,15191,2,0,B|359:293|359:293|327:271|327:271|289:271,1,112.500004291535,2|8,0:0|0:0,0:0:0:0:
212,240,15418,1,8,0:0:0:0:
212,240,15494,6,0,B|241:234|241:234|243:223|243:223|276:216,1,75,12|0,0:0|0:0,0:0:0:0:
377,162,15797,6,0,B|399:181|399:181|307:159,1,112.5,4|2,0:0|0:0,0:0:0:0:
204,179,16403,1,8,0:0:0:0:
156,131,16555,1,10,0:0:0:0:
204,83,16706,1,4,0:0:0:0:
251,131,16858,1,2,0:0:0:0:
153,182,17009,6,0,L|125:207,1,37.5,0|0,0:0|0:0,0:0:0:0:
153,79,17161,2,0,L|127:51,1,37.5,8|0,0:0|0:0,0:0:0:0:
254,80,17312,2,0,L|281:54,1,37.5,8|0,0:0|0:0,0:0:0:0:
253,181,17464,6,0,L|303:236,1,75,4|2,0:0|0:0,0:0:0:0:
354,291,17842,1,2,0:0:0:0:
354,291,17918,2,0,L|303:235,1,75,2|0,0:0|0:0,0:0:0:0:
345,195,18373,5,2,0:0:0:0:
262,277,18524,1,2,0:0:0:0:
262,277,18600,1,0,0:0:0:0:
262,277,18676,1,2,0:0:0:0:
233,165,18827,1,2,0:0:0:0:
345,195,18979,5,8,0:0:0:0:
345,195,19130,2,0,L|395:250,1,75,12|2,0:0|0:0,0:0:0:0:
262,277,19433,2,0,L|211:221,1,75,4|2,0:0|0:0,0:0:0:0:
107,139,19888,5,2,0:0:0:0:
233,165,20039,1,8,0:0:0:0:
143,90,20191,5,6,0:0:0:0:
211,221,20342,1,6,0:0:0:0:
83,131,20494,5,2,0:0:0:0:
256,171,20645,1,14,0:0:0:0:
132,67,20797,5,0,0:0:0:0:
223,242,20948,1,14,0:0:0:0:
241,81,22009,5,4,0:0:0:0:
206,108,22161,1,2,0:0:0:0:
255,72,22312,1,4,0:0:0:0:
191,118,22464,1,4,0:0:0:0:
271,63,22615,1,8,0:0:0:0:
176,128,22767,6,0,B|160:161|127:156|127:156|92:159|83:198|120:222|136:188,1,150,4|8,0:0|0:0,0:0:0:0:
240,148,23221,1,2,0:0:0:0:
132,99,23373,1,2,0:0:0:0:
188,213,23524,1,2,0:0:0:0:
188,213,23600,1,2,0:0:0:0:
188,213,23676,1,2,0:0:0:0:
217,92,23827,5,4,0:0:0:0:
130,196,23979,1,2,0:0:0:0:
132,99,24130,1,4,0:0:0:0:
51,187,24282,1,6,0:0:0:0:
0,76,24433,1,8,0:0:0:0:
0,76,24585,6,0,P|74:59|134:103,1,150,4|0,0:0|0:0,0:0:0:0:
59,137,24964,1,0,0:0:0:0:
59,137,25040,1,2,0:0:0:0:
78,40,25191,1,2,0:0:0:0:
135,155,25342,1,2,0:0:0:0:
131,98,25493,1,8,0:0:0:0:
196,169,25645,5,4,0:0:0:0:
282,110,25797,1,2,0:0:0:0:
203,41,25948,1,4,0:0:0:0:
207,161,26100,5,4,0:0:0:0:
311,153,26252,1,8,0:0:0:0:
278,54,26403,1,12,0:0:0:0:
256,192,26479,12,2,30191,0:0:0:0:
232,120,30645,6,0,B|207:136|182:122|182:122|176:87|213:78,2,112.5,8|4|8,0:0|0:0|0:0,0:0:0:0:
232,120,32009,1,10,0:0:0:0:
