osu file format v14

[General]
AudioFilename: audio.mp3
AudioLeadIn: 0
PreviewTime: -1
Countdown: 1
SampleSet: Soft
StackLeniency: 0.7
Mode: 0
LetterboxInBreaks: 0
WidescreenStoryboard: 0

[Editor]
DistanceSpacing: 2.5
BeatDivisor: 4
GridSize: 8
TimelineZoom: 3.000001

[Metadata]
Title:Fault Line
TitleUnicode:Fault Line
Artist:Tennyson
ArtistUnicode:Tennyson
Creator:squirrelpascals
Version:Dakini's Insane
Source:
Tags:
BeatmapID:1225693
BeatmapSetID:575121

[Difficulty]
HPDrainRate:6
CircleSize:4
OverallDifficulty:8.3
ApproachRate:9
SliderMultiplier:1.4
SliderTickRate:1

[Events]
//Background and Video events
0,0,"6d237c84-60bc-4f4e-a7e5-f10e2d0516bc.jpg",0,0
//Break Periods
//Storyboard Layer 0 (Background)
//Storyboard Layer 1 (Fail)
//Storyboard Layer 2 (Pass)
//Storyboard Layer 3 (Foreground)
//Storyboard Sound Samples

[TimingPoints]
192,303.030303030303,3,1,1,50,1,0
949,303.030303030303,3,1,1,50,1,0
1252,-133.333333333333,3,1,2,50,0,0
1858,-133.333333333333,3,2,1,50,0,0
3373,-133.333333333333,3,1,2,50,0,0
3525,-100,3,1,1,50,0,0
4888,-100,3,1,2,50,0,0
5342,-100,3,1,2,30,0,0
5494,-100,3,1,2,40,0,0
5645,-100,3,1,1,50,0,0
6403,-100,3,2,2,50,0,0
6555,-100,3,2,2,40,0,0
6706,-100,3,2,2,30,0,0
7009,-100,3,1,2,50,0,0
7161,-100,3,1,1,50,0,0
7540,-100,3,1,1,10,0,0
7616,-100,3,1,1,50,0,0
7691,-100,3,1,1,10,0,0
7767,-100,3,1,1,50,0,0
7843,-100,3,1,1,5,0,0
7919,-100,3,1,1,50,0,0
7994,-100,3,1,1,5,0,0
8222,-100,3,1,1,50,0,0
8524,-100,3,1,2,50,0,0
8979,-100,3,2,1,50,0,0
9888,-100,3,2,2,35,0,0
10039,-100,3,2,2,50,0,0
11100,-100,3,1,1,50,0,0
11327,-100,3,1,1,35,0,0
11403,-100,3,1,1,50,0,0
12161,-100,3,1,2,50,0,0
12615,-100,3,2,1,50,0,0
13676,-100,3,1,2,30,0,0
13752,-100,3,1,2,40,0,0
13827,-100,3,1,2,50,0,0
14736,-100,3,1,1,50,0,0
14888,-100,3,2,1,50,0,0
15115,-100,3,2,1,5,0,0
15191,-100,3,2,1,50,0,0
15342,-100,3,1,1,30,0,0
15418,-100,3,1,1,40,0,0
15494,-100,3,1,1,50,0,0
15797,-100,3,1,2,50,0,0
16252,-100,3,2,2,50,0,0
17464,-100,3,2,2,40,0,0
17615,-100,3,2,2,5,0,0
17767,-100,3,2,2,30,0,0
17918,-100,3,2,2,40,0,0
18373,-100,3,1,1,50,0,0
18524,-100,3,1,1,30,0,0
18600,-100,3,1,1,40,0,0
18676,-100,3,1,1,50,0,0
19282,-100,3,1,2,50,0,0
19888,-100,3,1,1,50,0,0
22767,-133.333333333333,3,1,2,50,0,0
23222,-100,3,2,1,50,0,0
23827,-100,3,1,1,50,0,0
24585,-133.333333333333,3,1,2,50,0,0
25040,-100,3,2,2,50,0,0
25342,-100,3,1,1,50,0,0
26403,-100,3,1,2,50,0,0
30191,303.030303030303,3,3,1,50,1,0
30645,-200,3,3,1,50,0,0
30952,-200,3,3,1,5,0,0
31100,-200,3,3,1,50,0,0
31403,-200,3,3,1,10,0,0
31554,-200,3,3,1,35,0,0
31857,-200,3,3,1,10,0,0
32009,-200,3,3,1,50,0,0
32312,-200,3,3,1,5,0,0

[Colours]
Combo1 : 196,104,230
Combo2 : 143,24,24
Combo3 : 108,227,115
Combo4 : 116,175,186

[HitObjects]
113,104,192,5,2,3:0:0:0:
109,129,267,1,2,3:0:0:0:
106,155,343,1,2,3:0:0:0:
103,181,419,1,2,3:0:0:0:
100,207,495,1,2,3:0:0:0:
214,161,646,1,2,0:0:0:0:
259,300,799,1,8,0:0:0:0:
259,300,949,6,0,B|296:303|296:303|340:299,1,70,4|0,3:0|0:0,0:0:0:0:
381,113,1252,2,0,P|317:137|298:224,1,157.500006008148,4|0,0:0|0:0,0:0:0:0:
400,224,1858,6,0,L|465:228,1,52.5000020027161,0|2,0:0|0:0,0:0:0:0:
267,84,2161,2,0,L|202:88,1,52.5000020027161,0|8,0:0|0:0,0:0:0:0:
387,200,2464,2,0,L|452:204,1,52.5000020027161,0|8,0:0|0:0,0:0:0:0:
488,129,2767,5,0,0:0:0:0:
262,65,2918,1,0,0:0:0:0:
293,155,3070,1,2,0:0:0:0:
434,18,3221,1,2,0:0:0:0:
341,0,3373,1,0,0:0:0:0:
368,111,3525,6,0,P|379:145|377:180,1,70,4|0,0:0|0:0,0:0:0:0:
310,313,3828,1,2,0:0:0:0:
310,313,3903,1,2,0:0:0:0:
310,313,3979,2,0,L|246:307,1,35,2|2,0:0|0:0,0:0:0:0:
472,247,4131,1,2,0:0:0:0:
409,325,4282,1,2,0:0:0:0:
294,157,4434,1,8,0:0:0:0:
294,157,4585,6,0,P|259:151|224:155,1,70,4|0,3:0|0:0,0:0:0:0:
152,223,4888,2,0,P|126:158|154:85,1,140,4|0,0:0|0:0,0:0:0:0:
294,241,5343,1,2,0:0:0:0:
291,258,5418,1,2,0:0:0:0:
290,275,5494,5,2,0:0:0:0:
195,357,5645,1,2,0:0:0:0:
152,223,5798,2,0,P|194:215|225:221,1,70,8|0,0:0|0:0,0:0:0:0:
93,283,6101,1,2,0:0:0:0:
52,140,6252,1,2,0:0:0:0:
153,83,6403,6,0,L|149:168,1,70,2|8,0:0|0:0,0:0:0:0:
69,11,6707,2,0,L|-10:17,1,70,4|0,0:0|0:0,0:0:0:0:
234,54,7010,1,2,0:0:0:0:
234,54,7161,6,0,L|230:139,1,70,2|8,0:0|0:0,0:0:0:0:
91,290,7464,2,0,L|154:298,1,35,2|2,0:0|0:0,0:0:0:0:
252,219,7616,2,0,L|189:227,1,35,2|2,0:0|0:0,0:0:0:0:
94,301,7767,2,0,L|157:309,1,35,2|0,0:0|0:0,0:0:0:0:
249,230,7918,2,0,L|186:238,1,35,2|0,0:0|0:0,0:0:0:0:
124,198,8070,1,8,0:0:0:0:
259,361,8222,6,0,L|329:353,1,70,4|0,3:0|0:0,0:0:0:0:
461,327,8524,2,0,P|436:263|375:234,1,140,4|2,0:0|0:0,0:0:0:0:
128,305,8979,1,0,0:0:0:0:
215,95,9131,5,8,0:0:0:0:
238,229,9282,1,2,0:0:0:0:
82,171,9434,2,0,P|127:164|169:171,1,70,4|0,0:0|0:0,0:0:0:0:
224,327,9737,1,2,0:0:0:0:
357,146,9888,1,2,0:0:0:0:
357,146,9964,1,2,0:0:0:0:
357,146,10039,5,2,0:0:0:0:
239,240,10191,1,0,0:0:0:0:
345,252,10342,1,0,0:0:0:0:
251,134,10494,1,0,0:0:0:0:
164,180,10645,2,0,P|153:145|158:103,1,70
202,322,10949,5,4,0:0:0:0:
202,322,11101,2,0,B|87:334,1,105,2|0,0:0|0:0,0:0:0:0:
54,318,11404,1,2,0:0:0:0:
324,236,11555,1,2,0:0:0:0:
136,107,11707,1,8,0:0:0:0:
136,107,11858,6,0,L|123:204,1,70,4|0,3:0|0:0,0:0:0:0:
214,34,12161,2,0,P|147:2|66:27,1,140,4|2,0:0|0:0,0:0:0:0:
126,176,12616,1,8,0:0:0:0:
297,127,12767,6,0,P|261:122|227:127,1,70,2|2,0:0|1:0,0:0:0:0:
355,214,13070,2,0,P|391:219|425:214,1,70,2|0,0:0|0:0,0:0:0:0:
135,91,13373,2,0,P|130:127|135:161,1,70,2|0,0:0|0:0,0:0:0:0:
388,129,13676,5,2,0:0:0:0:
388,129,13752,1,2,0:0:0:0:
388,129,13828,1,2,0:0:0:0:
240,35,13979,1,10,0:0:0:0:
233,211,14131,1,8,0:0:0:0:
343,30,14282,1,2,0:0:0:0:
164,131,14434,1,10,0:0:0:0:
372,208,14585,5,10,0:0:0:0:
343,30,14736,1,2,0:0:0:0:
239,221,14888,2,0,B|350:232,1,105,4|0,0:0|0:0,0:0:0:0:
372,208,15191,1,2,0:0:0:0:
169,97,15343,1,2,0:0:0:0:
169,97,15418,1,2,0:0:0:0:
169,97,15494,6,0,L|157:177,1,70,12|0,3:0|0:0,0:0:0:0:
249,43,15797,2,0,P|191:5|123:15,1,140,4|2,0:0|0:0,0:0:0:0:
123,14,16252,1,8,0:0:0:0:
29,144,16404,5,8,0:0:0:0:
260,134,16555,1,2,0:0:0:0:
158,166,16706,2,0,L|167:258,1,70
81,85,17009,1,8,1:0:0:0:
45,246,17162,1,2,1:0:0:0:
0,35,17313,5,8,0:0:0:0:
167,96,17464,2,0,L|154:194,1,70,12|0,0:0|0:0,0:0:0:0:
15,137,17767,1,2,0:0:0:0:
15,137,17843,1,2,0:0:0:0:
15,137,17919,1,2,0:0:0:0:
290,104,18373,1,2,0:0:0:0:
204,35,18525,1,2,0:0:0:0:
204,35,18601,1,2,0:0:0:0:
204,35,18676,1,2,0:0:0:0:
261,205,18828,1,2,0:0:0:0:
290,104,18979,1,8,0:0:0:0:
383,141,19131,6,0,P|389:108|379:71,1,70,4|2,3:0|3:0,0:0:0:0:
195,131,19434,2,0,P|163:212|196:278,1,140,4|2,0:0|0:0,0:0:0:0:
330,199,19888,6,0,L|256:205,1,70,2|8,0:0|0:0,0:0:0:0:
152,292,20191,1,4,0:0:0:0:
412,249,20343,1,4,0:0:0:0:
260,204,20494,1,2,0:0:0:0:
377,381,20646,1,12,0:0:0:0:
325,123,20798,1,0,0:0:0:0:
275,351,20949,5,12,0:0:0:0:
175,169,21100,2,0,P|169:208|181:248,1,70
325,123,21403,1,0,0:0:0:0:
325,123,21479,1,0,0:0:0:0:
325,123,21555,1,0,0:0:0:0:
325,123,22010,5,2,0:0:0:0:
275,351,22161,1,0,0:0:0:0:
414,149,22313,1,2,0:0:0:0:
233,274,22464,1,2,0:0:0:0:
126,105,22616,1,8,0:0:0:0:
126,105,22767,6,0,B|206:98|206:98|240:107,1,105.000004005432,4|2,0:0|0:0,0:0:0:0:
229,104,23222,1,8,0:0:0:0:
164,255,23373,1,2,0:0:0:0:
82,166,23525,1,2,0:0:0:0:
82,166,23601,1,2,0:0:0:0:
82,166,23676,5,8,0:0:0:0:
325,123,23827,1,2,0:0:0:0:
275,351,23978,1,0,0:0:0:0:
142,266,24130,1,0,0:0:0:0:
355,299,24282,1,0,0:0:0:0:
179,372,24434,1,8,0:0:0:0:
112,181,24585,6,0,P|176:180|223:217,1,105.000004005432,4|0,0:0|0:0,0:0:0:0:
409,173,25040,2,0,P|415:208|411:243,1,70,4|2,0:0|0:0,0:0:0:0:
376,82,25343,6,0,P|411:76|446:80,1,70,4|10,0:0|0:0,0:0:0:0:
245,136,25645,1,4,0:0:0:0:
287,42,25797,1,2,0:0:0:0:
319,171,25949,2,2,L|308:254,1,70,2|6,0:0|0:0,0:0:0:0:
101,187,26252,1,8,0:0:0:0:
334,143,26404,5,12,0:0:0:0:
256,192,26479,8,2,30191,0:0:0:0:
190,140,30645,6,0,L|188:216,1,70,8|0,0:0|0:0,0:0:0:0:
308,211,31100,2,4,L|306:141,1,70
151,289,31554,2,0,P|191:295|231:286,1,70,2|2,0:0|0:0,0:0:0:0:
91,186,32009,1,2,0:0:0:0:
