osu file format v14

[General]
AudioFilename: audio.mp3
AudioLeadIn: 0
PreviewTime: 570
Countdown: 0
SampleSet: Normal
StackLeniency: 0.3
Mode: 0
LetterboxInBreaks: 0
WidescreenStoryboard: 0

[Editor]
Bookmarks: 30191
DistanceSpacing: 1.8
BeatDivisor: 4
GridSize: 16
TimelineZoom: 2.540004

[Metadata]
Title:Fault Line
TitleUnicode:Fault Line
Artist:Tennyson
ArtistUnicode:Tennyson
Creator:squirrelpascals
Version:Crowie's Extra
Source:
Tags:like what ep Ora Pika fdsfd sammish Spork Lover DakiniBrave Crowie FoxyGrandpa Nysrogh
BeatmapID:1234862
BeatmapSetID:575121

[Difficulty]
HPDrainRate:6
CircleSize:4.6
OverallDifficulty:8
ApproachRate:9.2
SliderMultiplier:0.8
SliderTickRate:1

[Events]
//Background and Video events
0,0,"6d237c84-60bc-4f4e-a7e5-f10e2d0516bc.jpg",0,0
//Break Periods
//Storyboard Layer 0 (Background)
//Storyboard Layer 1 (Fail)
//Storyboard Layer 2 (Pass)
//Storyboard Layer 3 (Foreground)
//Storyboard Sound Samples

[TimingPoints]
192,303.030303030303,3,1,1,50,1,0
646,-25,3,1,1,50,0,0
722,-25,3,1,1,5,0,0
798,-25,3,1,1,50,0,0
949,303.030303030303,3,1,1,50,1,0
949,-33.3333333333333,3,1,1,50,0,0
1100,-50,3,1,1,50,0,0
1252,-55.5555555555556,3,1,2,50,0,0
1706,-55.5555555555556,3,1,1,50,0,0
1858,-55.5555555555556,3,2,2,50,0,0
3221,-50,3,2,1,50,0,0
3449,-50,3,1,1,5,0,0
3524,-33.3333333333333,3,1,1,50,0,0
3827,-33.3333333333333,3,1,1,35,0,0
4130,-100,3,1,1,35,0,0
4206,-100,3,1,1,5,0,0
4282,-100,3,1,1,35,0,0
4358,-100,3,1,1,5,0,0
4433,-100,3,1,1,35,0,0
4585,-33.3333333333333,3,1,1,35,0,0
4736,-50,3,1,1,35,0,0
4888,-55.5555555555556,3,1,2,50,0,0
5267,-55.5555555555556,3,1,1,5,0,0
5342,-66.6666666666667,3,2,2,30,0,0
5418,-55.5555555555556,3,2,2,40,0,0
5494,-33.3333333333333,3,2,2,50,0,0
5645,-33.3333333333333,3,1,1,50,0,0
5797,-50,3,1,2,50,0,0
5873,-50,3,1,2,20,0,0
6100,-50,3,1,1,50,0,0
6403,-50,3,2,1,50,0,0
7691,-50,3,2,1,25,0,0
7767,-100,3,1,1,50,0,0
7842,-100,3,1,1,5,0,0
7918,-100,3,1,1,50,0,0
7994,-100,3,1,1,5,0,0
8070,-50,3,1,1,50,0,0
8221,-100,3,1,1,50,0,0
8524,-55.5555555555556,3,1,2,50,0,0
9130,-50,3,1,2,50,0,0
9433,-57.1428571428571,3,2,2,50,0,0
9736,-66.6666666666667,3,2,2,50,0,0
10797,-50,3,1,1,50,0,0
11252,-50,3,1,1,25,0,0
11403,-50,3,1,1,50,0,0
11555,-25,3,1,1,50,0,0
11858,-33.3333333333333,3,1,1,50,0,0
12161,-55.5555555555556,3,1,2,50,0,0
12767,-33.3333333333333,3,2,1,50,0,0
13070,-50,3,2,1,50,0,0
13676,-50,3,1,2,50,0,0
13979,-50,3,1,2,50,0,0
14130,-50,3,1,2,50,0,0
14282,-50,3,1,2,40,0,0
14888,-50,3,2,1,50,0,0
14926,-50,3,2,1,20,0,0
15115,-50,3,2,1,5,0,0
15191,-33.3333333333333,3,2,2,50,0,0
15342,-33.3333333333333,3,1,1,25,0,0
15494,-33.3333333333333,3,1,2,40,0,0
15797,-55.5555555555556,3,1,2,50,0,0
16252,-55.5555555555556,3,1,1,50,0,0
16403,-55.5555555555556,3,2,1,50,0,0
16706,-50,3,2,1,50,0,0
17464,-100,3,2,2,35,0,0
17767,-100,3,2,2,10,0,0
17918,-100,3,2,2,35,0,0
18221,-100,3,1,1,5,0,0
18373,-33.3333333333333,3,1,1,50,0,0
19433,-55.5555555555556,3,1,2,50,0,0
19888,-55.5555555555556,3,1,1,50,0,0
20039,-50,3,1,1,50,0,0
20797,-33.3333333333333,3,1,1,50,0,0
20949,-25,3,1,1,50,0,0
21100,-100,3,1,1,5,0,0
22009,-33.3333333333333,3,1,1,50,0,0
22767,-50,3,1,2,50,0,0
23070,-50,3,1,2,50,0,0
23373,-50,3,1,1,50,0,0
23600,-50,3,1,1,40,0,0
23676,-50,3,1,1,30,0,0
23827,-33.3333333333333,3,1,1,50,0,0
23979,-33.3333333333333,3,1,1,50,0,0
24130,-33.3333333333333,3,1,1,50,0,0
24282,-33.3333333333333,3,1,1,50,0,0
24433,-33.3333333333333,3,1,1,50,0,0
24585,-55.5555555555556,3,1,2,50,0,0
24888,-55.5555555555556,3,1,1,25,0,0
25039,-100,3,1,1,50,0,0
25115,-100,3,1,1,5,0,0
25191,-100,3,1,1,50,0,0
25267,-100,3,1,1,5,0,0
25342,-25,3,1,1,50,0,0
26403,-25,3,1,2,50,0,0
26479,-25,3,2,2,5,0,0
29282,-200,3,2,1,5,0,0
30191,303.030303030303,3,3,1,20,1,0
32009,-150.00000015,3,3,1,10,0,0

[Colours]
Combo1 : 196,104,230
Combo2 : 143,24,24
Combo3 : 108,227,115
Combo4 : 116,175,186

[HitObjects]
152,249,192,6,0,L|123:252,1,20,2|2,0:0|0:0,0:0:0:0:
40,231,343,2,0,L|11:234,1,20,2|2,0:0|0:0,0:0:0:0:
166,241,495,5,2,0:0:0:0:
49,317,646,2,0,P|38:351|78:378,1,80,2|0,0:0|0:0,0:0:0:0:
199,319,798,1,8,0:0:0:0:
205,328,949,6,0,L|267:334,1,60.0000022888184,4|0,0:0|0:0,0:0:0:0:
440,356,1100,2,0,L|402:352,2,20,0|0|0,0:0|0:0|0:0,0:0:0:0:
338,380,1252,2,0,B|354:309|354:309|326:243|326:243|342:173,1,215.999993408203,6|0,0:0|0:0,0:0:0:0:
489,214,1858,6,0,P|445:212|399:245,1,71.9999978027344,2|2,0:0|1:0,0:0:0:0:
359,69,2161,2,0,P|398:89|421:140,1,71.9999978027344,0|8,0:0|1:0,0:0:0:0:
252,185,2464,1,0,0:0:0:0:
238,181,2615,1,8,1:0:0:0:
135,239,2767,1,8,0:0:0:0:
168,127,2918,1,2,0:0:0:0:
234,295,3070,1,8,0:0:0:0:
75,186,3221,2,0,L|88:37,1,120,6|0,0:0|0:0,0:0:0:0:
86,66,3524,6,0,B|77:94|77:94|97:147,1,60.0000022888184,6|0,0:0|0:0,0:0:0:0:
135,239,3676,1,0,0:0:0:0:
257,108,3827,1,2,0:0:0:0:
248,85,3903,1,2,0:0:0:0:
232,67,3979,1,2,0:0:0:0:
212,54,4055,1,2,0:0:0:0:
190,47,4130,2,0,L|168:48,1,20,2|0,0:0|0:0,0:0:0:0:
296,5,4282,2,0,L|274:6,1,20,2|0,0:0|0:0,0:0:0:0:
398,58,4433,1,8,0:0:0:0:
504,16,4585,6,0,L|497:96,1,60.0000022888184,4|0,0:0|0:0,0:0:0:0:
484,265,4736,2,0,L|486:235,2,20,0|0|0,0:0|0:0|0:0,0:0:0:0:
493,161,4888,2,0,B|456:163|456:163|439:183|439:183|384:188|384:188|364:171|364:171|328:175,1,179.999994506836,6|0,0:0|0:0,0:0:0:0:
304,203,5342,2,0,P|318:199|329:184,1,30.0000011444092
161,141,5494,2,0,L|170:227,1,60.0000022888184,4|0,0:0|0:0,0:0:0:0:
183,367,5645,1,2,1:0:0:0:
78,336,5797,2,0,L|54:333,6,20,10|0|2|0|2|0|2,0:0|0:0|0:0|0:0|0:0|0:0|0:0,0:0:0:0:
89,346,6100,2,0,P|99:319|114:303,1,40,2|0,0:0|0:0,0:0:0:0:
248,296,6252,2,0,P|265:317|272:339,1,40,2|0,0:0|0:0,0:0:0:0:
175,280,6403,1,2,0:0:0:0:
400,301,6555,6,0,P|417:245|365:244,1,120
358,235,6858,1,0,0:0:0:0:
447,358,7009,1,0,0:0:0:0:
499,220,7161,1,2,0:0:0:0:
511,229,7312,1,8,2:0:0:0:
248,296,7464,5,6,0:0:0:0:
246,280,7539,1,0,0:0:0:0:
261,251,7615,1,0,0:0:0:0:
259,235,7691,1,0,0:0:0:0:
234,213,7767,2,0,L|231:188,1,20,2|0,0:0|0:0,0:0:0:0:
355,102,7918,2,0,L|352:126,1,20,2|0,0:0|0:0,0:0:0:0:
328,314,8070,1,8,0:0:0:0:
161,127,8221,6,0,L|140:125,1,20,4|0,0:0|0:0,0:0:0:0:
84,270,8373,2,0,L|102:267,1,20,0|0,0:0|0:0,0:0:0:0:
40,136,8524,2,0,B|-16:146|-16:146|31:206|31:206|111:193,1,215.999993408203,6|0,0:0|0:0,0:0:0:0:
302,113,9130,6,0,P|262:94|218:103,1,80,10|0,0:0|0:0,0:0:0:0:
342,182,9433,2,0,P|338:137|315:111,1,70.000000667572,2|0,2:0|0:0,0:0:0:0:
302,251,9736,2,0,P|338:225|348:204,1,60.0000022888184,2|8,2:0|1:0,0:0:0:0:
208,253,10039,1,8,0:0:0:0:
294,264,10191,1,2,0:0:0:0:
256,185,10342,1,8,0:0:0:0:
192,338,10494,6,0,B|226:328|258:341|258:341|288:353|313:346,1,120.000004577637,12|2,0:0|0:0,0:0:0:0:
437,369,10949,1,0,0:0:0:0:
458,137,11100,1,2,0:0:0:0:
458,125,11176,1,0,0:0:0:0:
459,113,11252,1,2,0:0:0:0:
460,101,11327,1,2,0:0:0:0:
461,89,11403,1,2,0:0:0:0:
504,244,11555,2,0,P|472:217|427:215,1,80,2|0,0:0|0:0,0:0:0:0:
296,263,11706,1,8,0:0:0:0:
302,251,11858,6,0,L|296:191,1,60.0000022888184,4|0,0:0|0:0,0:0:0:0:
289,83,12009,1,0,0:0:0:0:
160,213,12161,2,0,P|120:205|195:155,1,215.999993408203,4|0,0:0|0:0,0:0:0:0:
95,289,12767,6,0,P|70:284|36:252,1,60.0000022888184,2|0,0:0|0:0,0:0:0:0:
38,241,12918,1,2,1:0:0:0:
405,155,13070,6,0,L|450:150,1,40,2|0,0:0|0:0,0:0:0:0:
278,240,13373,6,0,L|232:235,1,40,4|0,0:0|0:0,0:0:0:0:
336,103,13676,5,2,0:0:0:0:
322,122,13752,1,2,0:0:0:0:
315,145,13827,1,2,0:0:0:0:
359,303,13979,1,10,0:0:0:0:
405,155,14130,5,8,0:0:0:0:
212,115,14282,1,2,0:0:0:0:
381,230,14433,5,2,0:0:0:0:
247,7,14585,1,2,0:0:0:0:
196,238,14736,6,0,L|183:293,1,40,2|0,0:0|0:0,0:0:0:0:
110,173,14888,2,0,L|103:145,6,20,4|0|0|0|0|0|0,0:0|0:0|0:0|0:0|0:0|0:0|0:0,0:0:0:0:
0,264,15191,2,0,L|60:258,1,60.0000022888184,6|0,0:0|0:0,0:0:0:0:
333,241,15342,1,2,0:0:0:0:
338,238,15418,1,2,0:0:0:0:
342,234,15494,6,0,P|344:290|286:285,1,120.000004577637,4|0,0:0|0:0,0:0:0:0:
232,98,15797,2,0,B|276:124|358:116|363:81|363:81|325:65|301:105,1,215.999993408203,6|2,0:0|0:0,0:0:0:0:
254,223,16403,5,2,0:0:0:0:
264,192,16555,1,8,0:0:0:0:
136,89,16706,2,0,P|135:134|178:174,1,80,2|0,0:0|0:0,0:0:0:0:
13,366,17009,6,0,P|27:352|36:335,1,40,10|0,0:0|0:0,0:0:0:0:
0,219,17161,2,0,P|4:238|15:254,1,40
100,260,17312,1,2,0:0:0:0:
94,273,17464,6,0,L|180:280,1,80,2|0,0:0|0:0,0:0:0:0:
183,299,17842,1,2,0:0:0:0:
183,299,17918,2,0,P|226:269|286:276,1,100,6|0,0:0|0:0,0:0:0:0:
345,293,18373,5,2,0:0:0:0:
462,108,18524,1,0,2:0:0:0:
469,102,18600,1,0,0:0:0:0:
476,98,18676,1,2,0:0:0:0:
325,218,18827,1,2,0:0:0:0:
481,181,18979,2,0,L|401:174,1,60.0000022888184,8|0,0:0|0:0,0:0:0:0:
290,89,19130,6,0,L|317:242,1,120.000004577637,4|0,0:0|0:0,0:0:0:0:
127,71,19433,2,0,B|184:90|224:44|224:44|264:0|322:18,1,215.999993408203,6|2,0:0|0:0,0:0:0:0:
193,222,20039,5,8,0:0:0:0:
159,0,20191,1,4,0:0:0:0:
23,174,20342,5,4,0:0:0:0:
50,41,20494,1,0,0:0:0:0:
102,229,20645,6,0,L|114:298,1,40,14|0,0:0|2:0,0:0:0:0:
218,270,20797,2,0,P|203:227|172:219,1,60.0000022888184,0|0,2:0|0:0,0:0:0:0:
85,353,20949,2,0,L|183:363,1,80,6|0,0:0|0:0,0:0:0:0:
303,242,21100,6,0,P|304:195|283:168,1,80
273,180,21479,1,0,0:0:0:0:
273,180,21555,2,0,L|384:189,1,100
448,142,22009,6,0,P|454:174|438:218,1,60.0000022888184
469,274,22161,2,0,P|440:289|393:287,1,60.0000022888184
213,300,22312,6,0,P|226:270|265:244,1,60.0000022888184
273,180,22464,2,0,P|305:184|342:212,1,60.0000022888184
333,283,22615,5,2,2:0:0:0:
68,100,22767,6,0,B|157:70|157:70|129:117,1,120,4|0,0:0|0:0,0:0:0:0:
149,106,23070,2,0,B|144:142|144:142|151:169|151:169|141:191|141:191|144:224,1,120,0|0,0:0|0:0,0:0:0:0:
150,295,23373,1,2,0:0:0:0:
13,280,23524,1,2,0:0:0:0:
27,272,23600,1,2,0:0:0:0:
43,267,23676,2,0,P|62:265|82:265,1,40,10|0,0:0|0:0,0:0:0:0:
308,340,23827,5,2,0:0:0:0:
491,307,23979,1,0,2:0:0:0:
384,134,24130,5,2,0:0:0:0:
222,109,24282,1,2,0:0:0:0:
308,340,24433,6,0,L|298:277,1,40,8|0,0:0|0:0,0:0:0:0:
275,35,24585,6,0,B|285:69|285:69|311:100|311:100|284:167,1,143.999995605469,4|2,0:0|0:0,0:0:0:0:
260,238,24964,1,2,0:0:0:0:
251,235,25039,2,0,L|220:240,1,20,2|0,0:0|0:0,0:0:0:0:
410,204,25191,2,0,L|381:210,1,20,2|0,0:0|0:0,0:0:0:0:
90,315,25342,2,0,P|128:229|43:267,1,240,4|0,0:0|0:0,0:0:0:0:
93,266,25645,5,6,0:0:0:0:
75,118,25797,1,0,2:0:0:0:
225,27,25948,5,6,0:0:0:0:
207,175,26100,1,6,0:0:0:0:
64,107,26252,6,0,L|143:99,1,80,8|0,0:0|0:0,0:0:0:0:
444,71,26403,1,4,0:0:0:0:
256,192,26479,12,0,29130,0:0:0:0:
111,240,29282,6,0,L|112:229,11,10
124,252,30191,6,0,L|133:344,1,80,2|0,0:0|0:0,0:0:0:0:
219,185,30645,1,8,0:0:0:0:
201,284,30797,1,0,0:0:0:0:
209,294,31100,6,0,P|247:286|291:307,1,80,4|0,0:0|0:0,0:0:0:0:
349,384,31554,2,0,L|359:327,1,40,2|0,0:0|0:0,0:0:0:0:
374,245,31858,1,0,0:0:0:0:
512,320,32009,6,0,P|473:312|436:326,2,80,8|0|0,0:0|0:0|0:0,0:0:0:0:
