osu file format v14

[General]
AudioFilename: audio.mp3
AudioLeadIn: 0
PreviewTime: 570
Countdown: 0
SampleSet: None
StackLeniency: 0.2
Mode: 0
LetterboxInBreaks: 0
WidescreenStoryboard: 1

[Editor]
DistanceSpacing: 1
BeatDivisor: 4
GridSize: 16
TimelineZoom: 2.999999

[Metadata]
Title:Fault Line
TitleUnicode:Fault Line
Artist:Tennyson
ArtistUnicode:Tennyson
Creator:squirrelpascals
Version:Advanced
Source:
Tags:like what ep Ora Pika Chewy sammish Spork Lover DakiniBrave Crowie FoxyGrandpa Nysrogh
BeatmapID:1605973
BeatmapSetID:575121

[Difficulty]
HPDrainRate:5
CircleSize:3
OverallDifficulty:5
ApproachRate:6
SliderMultiplier:1.00000000596046
SliderTickRate:1

[Events]
//Background and Video events
0,0,"6d237c84-60bc-4f4e-a7e5-f10e2d0516bc.jpg",0,0
//Break Periods
//Storyboard Layer 0 (Background)
//Storyboard Layer 1 (Fail)
//Storyboard Layer 2 (Pass)
//Storyboard Layer 3 (Foreground)
//Storyboard Sound Samples

[TimingPoints]
192,303.030303030303,4,2,0,100,1,0
949,303.030303030303,4,2,0,100,1,0
1858,-133.333333333333,4,2,0,100,0,0
4585,-100,4,2,0,100,0,0
5494,-133.333333333333,4,2,0,100,0,0
7161,-100,4,2,0,100,0,0
9130,-133.333333333333,4,2,0,100,0,0
11858,-100,4,2,0,100,0,0
16403,-133.333333333333,4,2,0,100,0,0
19130,-100,4,2,0,100,0,0
21100,-133.333333333333,4,2,0,100,0,0
22009,-100,4,2,0,100,0,0
30191,303.030303030303,3,2,0,100,1,0
30645,-133.333333333333,4,2,0,100,0,0

[Colours]
Combo1 : 196,104,230
Combo2 : 143,24,24
Combo3 : 108,227,115
Combo4 : 116,175,186

[HitObjects]
66,287,192,6,0,P|60:238|70:189,1,100.000000596046
100,100,646,1,0,0:0:0:0:
180,156,798,1,0,0:0:0:0:
211,69,949,6,0,P|238:62|272:65,1,50.0000002980232
357,16,1252,2,0,P|347:64|352:114,1,100.000000596046
479,273,1858,6,0,L|490:362,2,75.0000033080579
298,334,2767,2,0,L|257:332,2,37.5000016540288
285,251,3221,2,0,L|199:246,1,75.0000033080576
10,263,3827,6,0,P|10:212|21:177,1,75.0000033080576
82,120,4282,1,0,0:0:0:0:
157,174,4433,5,0,0:0:0:0:
222,104,4585,2,0,P|227:76|226:48,1,50.000000298023
91,20,4888,2,0,L|79:141,1,100.000000596046
64,360,5494,6,0,P|81:349|105:346,1,37.5000016540288
185,371,5797,2,0,L|280:364,1,75.0000033080576
315,292,6252,1,0,0:0:0:0:
386,346,6403,2,0,P|411:344|462:381,1,75.0000033080576
492,116,7161,5,0,0:0:0:0:
404,128,7312,1,0,0:0:0:0:
316,140,7464,2,0,P|274:129|237:93,1,75.0000033080576
236,77,7767,2,0,P|231:50|217:28,1,50.000000298023
94,13,8070,5,0,0:0:0:0:
137,108,8221,2,0,L|147:175,1,50.000000298023
66,223,8524,2,0,L|58:335,1,100.000000596046
257,365,9130,6,0,L|338:358,2,75.0000033080576
248,206,10039,2,0,L|203:209,2,37.5000016540288
331,242,10494,1,0,0:0:0:0:
457,42,11100,6,0,P|424:58|405:90,1,75.0000033080576
410,187,11555,1,0,0:0:0:0:
325,145,11706,1,0,0:0:0:0:
248,206,11858,6,0,P|219:205|185:195,1,50.000000298023
109,162,12161,2,0,P|133:128|120:69,1,100.000000596046
1,222,12767,2,0,L|0:331,2,100.000000596046
181,294,13676,5,0,0:0:0:0:
181,294,13827,1,0,0:0:0:0:
181,294,13979,2,0,L|190:357,1,50.000000298023
284,367,14282,2,0,L|276:317,1,50.000000298023
365,256,14585,1,0,0:0:0:0:
365,256,14736,1,0,0:0:0:0:
365,256,14888,6,0,L|372:168,1,75.0000004470345
393,158,15191,2,0,L|400:70,1,75.0000004470345
423,58,15494,6,0,P|424:26|417:1,1,50.000000298023
304,0,15797,2,0,P|284:25|209:52,1,100.000000596046
33,89,16403,6,0,L|29:142,1,37.5000016540288
101,190,16706,2,0,L|189:196,1,75.0000033080576
278,215,17161,1,0,0:0:0:0:
278,215,17312,1,0,0:0:0:0:
278,215,17464,6,0,B|328:235|256:295|323:322,1,112.500004962086
307,313,18373,6,0,L|355:307,2,37.5000016540288
223,366,18827,1,0,0:0:0:0:
153,297,18979,5,0,0:0:0:0:
69,350,19130,2,0,P|36:340|19:324,1,50.000000298023
66,224,19433,2,0,P|66:177|35:126,1,100.000000596046
3,30,19888,6,0,L|59:22,2,50.000000298023
155,45,20342,2,0,P|138:74|137:107,1,50.000000298023
252,75,20645,2,0,P|268:104|269:137,1,50.000000298023
374,149,20949,1,0,0:0:0:0:
374,149,21100,6,0,B|357:178|357:178|373:269,1,112.500004962086
370,255,22009,6,0,L|427:264,2,50.000000298023
283,265,22464,1,0,0:0:0:0:
237,345,22615,5,0,0:0:0:0:
148,359,22767,2,0,P|135:326|142:263,1,100.000000596046
214,109,23373,2,0,L|221:168,2,50.000000298023
131,63,23827,6,0,L|76:58,2,50.000000298023
216,18,24282,2,0,L|265:22,1,50.000000298023
363,34,24585,2,0,P|353:85|362:134,1,100.000000596046
433,203,25039,2,0,L|486:195,2,50.000000298023
278,327,25645,6,0,P|301:350|311:386,1,50.000000298023
192,300,25948,2,0,P|160:308|124:299,1,50.000000298023,0|0,0:0|0:0,0:0:0:0:
258,239,26252,2,0,P|266:207|292:180,1,50.000000298023,0|0,0:0|0:0,0:0:0:0:
256,192,26555,12,0,30191,0:0:0:0:
153,312,30645,6,0,B|221:295|195:323|267:303,2,112.500004962086
2,271,32009,1,0,0:0:0:0:
