osu file format v14

[General]
AudioFilename: audio.mp3
AudioLeadIn: 0
PreviewTime: 570
Countdown: 0
SampleSet: Soft
StackLeniency: 0.4
Mode: 0
LetterboxInBreaks: 0
WidescreenStoryboard: 1

[Editor]
Bookmarks: 15342,25904,27874
DistanceSpacing: 1.2
BeatDivisor: 4
GridSize: 16
TimelineZoom: 0.9600003

[Metadata]
Title:Fault Line (Intro)
TitleUnicode:Fault Line (Intro)
Artist:Tennyson
ArtistUnicode:Tennyson
Creator:squirrelpascals
Version:Chewy's Hard
Source:
Tags:
BeatmapID:1262346
BeatmapSetID:575121

[Difficulty]
HPDrainRate:5
CircleSize:3
OverallDifficulty:6
ApproachRate:8
SliderMultiplier:1.44
SliderTickRate:1

[Events]
//Background and Video events
0,0,"6d237c84-60bc-4f4e-a7e5-f10e2d0516bc.jpg",0,0
//Break Periods
//Storyboard Layer 0 (Background)
//Storyboard Layer 1 (Fail)
//Storyboard Layer 2 (Pass)
//Storyboard Layer 3 (Foreground)
//Storyboard Sound Samples

[TimingPoints]
192,303.030303030303,3,2,0,100,1,0
949,303.030303030303,3,2,0,100,1,0
17464,-200,3,2,0,100,0,0
18373,-100,3,2,0,100,0,0
21100,-200,3,2,0,100,0,0
22009,-83.3333333333333,3,2,0,100,0,0
25645,-100,3,2,0,100,0,0
26403,-200,3,2,0,100,0,0
26706,-200,3,2,0,90,0,0
27009,-200,3,2,0,80,0,0
27312,-200,3,2,0,70,0,0
27615,-200,3,2,0,60,0,0
27918,-200,3,2,0,50,0,0
28221,-200,3,2,0,40,0,0
28524,-200,3,2,0,40,0,0
28827,-200,3,2,0,30,0,0
29130,-200,3,2,0,20,0,0
30191,303.030303030303,3,2,0,100,1,0
30191,-200,3,2,0,100,0,0
30645,-133.333333333333,3,2,0,75,0,0
31100,-133.333333333333,3,2,0,50,0,0
31554,-133.333333333333,3,2,0,25,0,0
32009,-133.333333333333,3,2,0,5,0,0

[Colours]
Combo1 : 196,104,230
Combo2 : 143,24,24
Combo3 : 108,227,115
Combo4 : 116,175,186

[HitObjects]
234,129,192,6,0,L|237:94,2,36
184,200,495,1,0,0:0:0:0:
228,273,646,2,0,L|326:256,1,72
155,323,949,6,0,P|140:255|187:197,1,144
467,28,1858,2,0,P|478:61|471:104,1,72
428,171,2161,2,0,P|417:204|424:247,1,72
442,324,2464,2,0,L|267:293,1,144
247,367,2918,1,0,0:0:0:0:
210,288,3070,1,0,0:0:0:0:
254,214,3221,2,0,B|308:205|308:205|347:220|347:220|401:213,1,144
356,135,3676,1,0,0:0:0:0:
300,299,3827,6,0,B|347:304,2,36
226,344,4130,2,0,L|128:327,1,72
278,173,4433,5,0,0:0:0:0:
223,250,4585,2,0,P|196:226|181:186,1,72
258,44,4888,6,0,P|295:110|272:179,2,144
59,118,5797,6,0,B|95:134|127:112|127:112|159:136|203:115,1,144
171,34,6252,1,0,0:0:0:0:
221,202,6403,6,0,P|266:172|275:86,1,144
104,68,7009,1,0,0:0:0:0:
66,145,7161,1,0,0:0:0:0:
95,226,7312,1,0,0:0:0:0:
56,303,7464,2,0,B|68:336,4,36
235,287,7918,5,0,0:0:0:0:
95,226,8070,1,0,0:0:0:0:
246,295,8221,6,0,L|176:307,1,72
346,179,8524,6,0,B|355:233|355:233|340:272|340:272|347:326,1,144
437,178,9130,6,0,P|426:138|405:112,1,72,0|0,0:0|0:0,0:0:0:0:
361,41,9433,2,0,P|332:70|320:101,1,72,0|0,0:0|0:0,0:0:0:0:
277,172,9736,2,0,P|318:182|351:177,1,72
232,98,10039,6,0,L|162:110,1,72
81,78,10342,1,0,0:0:0:0:
91,164,10494,1,0,0:0:0:0:
289,332,10949,1,0,0:0:0:0:
152,332,11100,6,0,B|227:292|207:364|296:329,1,144
364,287,11555,1,0,0:0:0:0:
512,375,11706,5,0,0:0:0:0:
512,375,11858,2,0,L|442:363,1,72
489,148,12161,6,0,B|480:202|480:202|495:241|495:241|488:295,1,144
385,149,12767,2,0,L|315:137,1,72
251,196,13070,2,0,L|181:208,1,72
107,160,13373,1,0,0:0:0:0:
52,323,13676,2,0,B|47:370,2,36
218,297,13979,5,0,0:0:0:0:
46,234,14130,1,0,0:0:0:0:
230,306,14282,6,0,P|240:265|235:232,1,72
195,165,14585,1,0,0:0:0:0:
293,81,14736,5,0,0:0:0:0:
185,169,14888,2,0,L|115:157,1,72
60,224,15191,1,0,0:0:0:0:
28,143,15342,2,0,B|31:107,2,36
179,58,15797,6,0,B|338:5|288:154|471:92,1,288
444,185,16555,1,0,0:0:0:0:
357,185,16706,1,0,0:0:0:0:
213,281,17009,1,0,0:0:0:0:
282,332,17161,1,0,0:0:0:0:
292,246,17312,1,0,0:0:0:0:
213,281,17464,6,0,B|159:288|124:337|124:337|86:287|18:292,1,216
52,208,18524,2,0,B|48:172,2,36
88,93,18827,6,0,P|123:89|158:99,1,72
200,174,19130,2,0,P|176:130|225:52,1,144
321,292,19888,5,0,0:0:0:0:
236,306,20039,1,0,0:0:0:0:
298,204,20191,6,0,L|368:216,1,72
236,306,20494,5,0,0:0:0:0:
180,240,20645,1,0,0:0:0:0:
120,338,20797,5,0,0:0:0:0:
180,240,20949,1,0,0:0:0:0:
54,235,21100,6,0,B|59:274|37:301|37:301|-8:233|37:163,1,216
109,117,22161,1,0,0:0:0:0:
179,166,22312,1,0,0:0:0:0:
248,114,22464,2,0,L|346:134,1,86.3999973632813
504,166,22767,6,0,B|493:227|493:227|510:272|510:272|502:333,1,172.799994726563
297,307,23373,1,0,0:0:0:0:
376,274,23524,2,0,L|420:281,2,43.1999986816407
306,222,23827,1,0,0:0:0:0:
225,253,23979,1,0,0:0:0:0:
144,283,24130,1,0,0:0:0:0:
63,314,24282,2,0,L|75:244,1,72
97,116,24585,6,0,B|140:68|217:79|247:132|247:132|280:110|319:135|319:135|358:161|409:137,1,345.599989453125
368,60,25342,1,0,0:0:0:0:
454,65,25494,1,0,0:0:0:0:
299,124,25645,6,0,L|287:194,1,72
396,321,25948,2,0,L|384:251,1,72
286,194,26252,5,0,0:0:0:0:
284,301,26403,6,0,B|214:343|164:271|164:271|105:324|41:271|41:271|72:210|42:164|42:164|12:119|27:66|27:66|62:43|108:73|108:73|93:106|130:140|130:140,1,648
183,189,29282,6,0,L|169:249,2,54
191,81,29964,5,0,0:0:0:0:
288,136,30191,6,0,B|343:209|278:336|278:336|326:251|430:248|483:328|483:328|449:348|393:322,1,540
