osu file format v14

[General]
AudioFilename: audio.mp3
AudioLeadIn: 0
PreviewTime: 54763
Countdown: 0
SampleSet: Soft
StackLeniency: 0.3
Mode: 0
LetterboxInBreaks: 0
WidescreenStoryboard: 1

[Editor]
DistanceSpacing: 1.8
BeatDivisor: 4
GridSize: 4
TimelineZoom: 1.8

[Metadata]
Title:Tsunagaru Connect (TV Size)
TitleUnicode:ツナガルコネクト (TV Size)
Artist:Tennoji Rina (CV: Tanaka Chiemi)
ArtistUnicode:天王寺璃奈 (CV: 田中ちえ美)
Creator:Sekai
Version:Insane
Source:ラブライブ!虹ヶ咲学園スクールアイドル同好会
Tags:J-Pop JPop DECO*27 Kowari Sekaii Sekai-nyan -_Ex_- Darksonic love live! nijigasaki high school idol club gakuen doukoukai doukou kai nijigaku ニジガク llas sifas スクスタ festival all stars スクールアイドルフェスティバル perfect dream project pdp rina chan board anime insert video game japanese pop
BeatmapID:2688268
BeatmapSetID:1295652

[Difficulty]
HPDrainRate:6.5
CircleSize:4.5
OverallDifficulty:7.5
ApproachRate:8.8
SliderMultiplier:1.6
SliderTickRate:1

[Events]
//Background and Video events
Video,-120,"Video.mp4"
0,0,"rinacutebg.jpg",0,0
//Break Periods
//Storyboard Layer 0 (Background)
//Storyboard Layer 1 (Fail)
//Storyboard Layer 2 (Pass)
//Storyboard Layer 3 (Foreground)
//Storyboard Layer 4 (Overlay)
//Storyboard Sound Samples

[TimingPoints]
3163,342.857142857143,4,2,1,80,1,0
3163,-100,4,2,1,80,0,0
8477,-100,4,2,1,60,0,0
8648,-100,4,2,1,80,0,0
14048,-100,4,2,1,60,0,0
14134,-100,4,2,1,80,0,0
19620,-111.111111111111,4,2,1,80,0,0
30592,-100,4,2,1,80,0,0
41563,-111.111111111111,4,2,1,80,0,0
47048,-105.263157894737,4,2,1,80,0,0
52534,-100,4,2,1,80,0,0
54934,-66.6666666666667,4,2,1,80,0,0
55191,-66.6666666666667,4,2,1,5,0,0
55277,-90.9090909090909,4,2,1,80,0,1
66248,-133.333333333333,4,2,1,80,0,1
66505,-90.9090909090909,4,2,1,5,0,0
66591,-66.6666666666667,4,2,1,80,0,1
66934,-90.9090909090909,4,2,1,80,0,1
76791,-90.9090909090909,4,2,1,5,0,1
76877,-90.9090909090909,4,2,1,80,0,1
77220,-111.111111111111,4,2,1,80,0,0
82363,-111.111111111111,4,2,1,60,0,0
82705,-100,4,2,1,80,0,0
93677,-111.111111111111,4,2,1,80,0,0
100534,-111.111111111111,4,2,1,5,0,0

[Colours]
Combo1 : 165,213,225
Combo2 : 238,116,170
SliderBorder : 238,116,170
SliderTrackOverride : 165,213,225

[HitObjects]
256,192,3162,6,0,B|180:216|180:160|96:192,1,160,6|2,1:2|0:0,0:0:0:0:
140,256,3677,1,2,0:0:0:0:
224,124,3848,2,0,B|300:100|300:156|380:125,1,160,2|2,0:0|0:0,0:0:0:0:
472,64,4363,1,2,0:0:0:0:
379,125,4534,6,0,L|415:201,1,80,6|0,1:2|0:0,0:0:0:0:
356,316,4877,2,0,L|321:243,1,80,6|0,1:2|0:0,0:0:0:0:
396,116,5220,2,0,L|432:192,1,80,6|0,1:2|0:0,0:0:0:0:
336,328,5563,2,0,L|301:255,1,80,6|0,1:2|0:0,0:0:0:0:
136,208,5905,6,0,P|208:208|264:144,1,160,0|2,1:0|0:0,0:0:0:0:
152,132,6420,2,0,L|92:292,1,160,2|0,1:2|1:0,0:0:0:0:
44,160,6934,1,2,0:0:0:0:
44,160,7105,2,0,L|76:80,1,80,10|0,1:2|0:0,0:0:0:0:
216,236,7448,6,0,L|184:316,1,80,0|8,1:0|0:0,0:0:0:0:
336,344,7791,1,0,1:0:0:0:
336,344,7877,1,0,1:0:0:0:
336,344,7963,2,0,P|400:348|464:280,1,160,2|8,1:2|0:0,0:0:0:0:
460,92,8477,2,0,L|476:108,2,20,0|0|0,1:0|1:0|1:0,0:0:0:0:
460,92,8648,6,0,P|380:108|316:60,1,160,4|10,1:2|0:0,0:0:0:0:
200,24,9163,1,0,0:0:0:0:
319,65,9334,2,0,L|267:129,1,80,0|0,1:0|0:0,0:0:0:0:
149,86,9677,2,0,L|201:22,1,80,10|0,0:0|0:0,0:0:0:0:
9,192,10020,5,0,1:0:0:0:
40,292,10191,1,0,0:0:0:0:
139,261,10363,1,10,0:0:0:0:
109,162,10534,1,0,0:0:0:0:
40,292,10705,2,0,P|36:332|56:372,1,80,0|0,1:0|0:0,0:0:0:0:
184,184,11048,2,0,P|188:144|171:108,1,80,10|0,0:0|0:0,0:0:0:0:
312,248,11391,6,0,P|376:232|464:268,1,160,0|10,1:0|0:0,0:0:0:0:
376,336,11905,1,0,0:0:0:0:
352,160,12077,2,0,P|308:164|272:184,1,80,0|0,1:0|0:0,0:0:0:0:
204,344,12420,2,0,P|248:340|284:320,1,80,10|0,0:0|0:0,0:0:0:0:
380,92,12763,6,0,P|296:92|220:136,1,160,0|10,1:0|0:0,0:0:0:0:
128,196,13277,1,0,0:0:0:0:
180,68,13448,2,0,P|212:40|260:24,1,80,0|0,1:0|0:0,0:0:0:0:
128,196,13791,2,0,P|96:224|48:240,1,80,8|8,1:2|1:2,0:0:0:0:
40,324,14048,1,0,1:0:0:0:
40,324,14134,6,0,L|28:160,1,160,4|10,1:2|0:0,0:0:0:0:
28,164,14648,1,0,0:0:0:0:
136,364,14820,2,0,L|128:276,1,80,0|0,1:0|0:0,0:0:0:0:
240,304,15163,2,0,L|248:384,1,80,10|0,0:0|0:0,0:0:0:0:
360,188,15505,5,0,1:0:0:0:
312,40,15677,1,0,0:0:0:0:
437,131,15848,1,10,0:0:0:0:
282,131,16020,1,0,0:0:0:0:
408,40,16191,2,0,L|488:48,1,80,0|0,1:0|0:0,0:0:0:0:
282,131,16534,2,0,L|202:123,1,80,10|0,0:0|0:0,0:0:0:0:
64,288,16877,6,0,B|188:264|188:264|164:312,1,160,0|10,1:0|0:0,0:0:0:0:
80,360,17391,1,0,0:0:0:0:
120,192,17563,2,0,L|28:212,1,80,0|0,1:0|0:0,0:0:0:0:
80,360,17905,1,10,0:0:0:0:
41,208,18077,6,0,L|198:176,1,160,8|0,0:0|0:0,0:0:0:0:
88,112,18591,2,0,L|9:128,1,80,8|0,1:2|0:0,0:0:0:0:
180,268,18934,2,0,L|258:251,1,80,8|0,1:2|0:0,0:0:0:0:
88,96,19277,2,0,L|9:112,1,80,8|0,1:2|0:0,0:0:0:0:
216,88,19620,6,0,P|298:96|353:55,1,143.999995605469,6|10,1:2|0:2,0:0:0:0:
480,136,20134,1,2,0:2:0:0:
480,136,20305,2,0,P|484:176|464:208,1,71.9999978027344,0|2,0:2|1:2,0:0:0:0:
356,268,20648,1,8,0:2:0:0:
388,176,20820,6,0,L|508:272,1,143.999995605469,2|2,1:2|1:2,0:0:0:0:
356,268,21334,2,0,L|296:220,1,71.9999978027344,8|2,0:2|0:2,0:0:0:0:
163,166,21677,1,0,0:0:0:0:
203,263,21848,1,2,1:2:0:0:
256,124,22020,1,8,0:2:0:0:
299,223,22191,1,2,0:2:0:0:
163,166,22363,6,0,P|104:144|28:176,1,143.999995605469,2|10,1:2|0:2,0:0:0:0:
112,296,22877,1,2,0:2:0:0:
112,296,23048,2,0,L|96:220,1,71.9999978027344,0|2,0:0|1:2,0:0:0:0:
28,320,23391,1,8,0:2:0:0:
193,306,23563,6,0,L|161:158,1,143.999995605469,2|0,1:2|1:2,0:0:0:0:
115,20,24077,1,8,0:2:0:0:
162,165,24248,1,0,0:2:0:0:
208,20,24420,1,0,0:2:0:0:
86,109,24591,1,0,1:2:0:0:
237,109,24763,1,8,0:2:0:0:
115,20,24934,1,2,0:2:0:0:
308,40,25105,6,0,P|376:28|440:64,1,143.999995605469,2|10,1:2|0:2,0:0:0:0:
492,164,25620,1,2,0:2:0:0:
439,63,25791,2,0,L|511:23,1,71.9999978027344,0|2,0:2|1:2,0:0:0:0:
492,164,26134,1,8,0:2:0:0:
501,28,26305,6,0,L|356:108,1,143.999995605469,2|2,1:2|1:2,0:0:0:0:
256,152,26820,2,0,P|256:116|272:80,1,71.9999978027344,8|2,0:2|0:2,0:0:0:0:
352,196,27163,2,0,P|352:232|336:268,1,71.9999978027344,0|2,0:0|1:2,0:0:0:0:
256,356,27505,1,8,0:2:0:0:
338,264,27677,1,2,0:2:0:0:
256,356,27848,6,0,L|124:300,1,143.999995605469,2|8,1:2|0:2,0:0:0:0:
26,209,28363,1,2,0:2:0:0:
30,303,28534,1,0,0:2:0:0:
120,206,28705,1,2,1:2:0:0:
123,299,28877,1,8,0:2:0:0:
26,209,29048,6,0,P|24:152|84:80,1,143.999995605469,2|0,1:2|1:2,0:0:0:0:
180,104,29563,1,10,0:2:0:0:
302,15,29734,1,0,0:0:0:0:
256,160,29905,1,2,0:2:0:0:
209,15,30077,1,2,1:2:0:0:
331,104,30249,1,8,0:2:0:0:
180,104,30420,1,2,0:2:0:0:
302,15,30591,5,4,1:2:0:0:
388,152,30763,1,2,0:2:0:0:
388,152,30848,1,2,0:2:0:0:
388,152,30934,2,0,P|404:108|400:68,1,80,10|2,0:2|0:2,0:0:0:0:
331,104,31191,1,0,0:0:0:0:
272,144,31277,2,0,P|256:188|260:228,1,80,2|2,0:2|1:2,0:0:0:0:
284,328,31620,1,8,0:2:0:0:
168,272,31791,6,0,L|328:236,1,160,2|2,1:2|1:2,0:0:0:0:
288,352,32305,2,0,L|204:372,1,80,10|2,0:2|0:2,0:0:0:0:
168,272,32648,1,2,0:2:0:0:
122,130,32820,1,2,1:2:0:0:
242,217,32991,1,8,0:2:0:0:
93,217,33163,6,0,L|16:72,1,160,2|0,0:2|0:0,0:0:0:0:
17,75,33677,1,8,0:2:0:0:
93,217,33848,2,0,P|132:212|168:192,1,80,2|0,0:2|0:2,0:0:0:0:
272,120,34191,1,2,1:2:0:0:
167,192,34363,1,10,0:2:0:0:
272,120,34534,2,0,P|309:134|344:176,1,80,2|0,1:2|0:2,0:0:0:0:
261,292,34877,5,2,1:2:0:0:
261,292,35048,2,0,L|236:368,1,80,10|0,0:2|0:2,0:0:0:0:
137,284,35391,1,2,0:2:0:0:
48,239,35563,1,0,1:2:0:0:
94,150,35734,1,8,0:2:0:0:
182,196,35905,1,2,0:2:0:0:
368,192,36077,5,0,1:2:0:0:
272,124,36248,1,2,0:2:0:0:
272,124,36334,1,2,0:2:0:0:
272,124,36420,2,0,P|228:108|184:116,1,80,10|2,0:2|0:2,0:0:0:0:
261,292,36763,2,0,P|305:308|349:300,1,80,2|2,0:2|1:2,0:0:0:0:
448,252,37105,1,8,0:2:0:0:
364,380,37277,6,0,L|344:220,1,160,2|2,1:2|1:2,0:0:0:0:
330,113,37791,1,10,0:2:0:0:
181,113,37963,1,2,0:2:0:0:
302,26,38134,1,2,0:2:0:0:
256,168,38305,1,2,1:2:0:0:
256,168,38477,1,8,0:2:0:0:
210,26,38648,6,0,P|132:25|70:72,1,160,2|0,0:2|0:0,0:0:0:0:
40,204,39163,1,8,0:2:0:0:
69,73,39334,1,2,0:2:0:0:
103,252,39505,2,0,L|35:200,1,80,0|2,0:0|1:2,0:0:0:0:
69,73,39848,2,0,L|132:121,1,80,10|2,0:2|1:2,0:0:0:0:
244,284,40191,5,0,0:2:0:0:
212,197,40363,1,2,1:2:0:0:
298,166,40534,1,10,0:2:0:0:
330,252,40705,1,0,0:2:0:0:
212,197,40877,2,0,P|196:160|204:112,1,80,10|0,0:2|1:2,0:0:0:0:
330,252,41220,2,0,P|346:289|338:337,1,80,8|0,0:2|0:0,0:0:0:0:
202,362,41563,6,0,L|346:326,1,143.999995605469,4|0,1:2|0:0,0:0:0:0:
256,224,42077,1,0,1:2:0:0:
256,224,42248,2,0,L|116:258,1,143.999995605469,10|0,1:2|0:2,0:0:0:0:
20,276,42763,1,0,1:2:0:0:
72,104,42934,5,2,0:2:0:0:
72,104,43105,2,0,P|140:84|208:120,1,143.999995605469,0|0,1:2|1:2,0:0:0:0:
336,116,43620,2,0,L|276:164,1,71.9999978027344,10|0,1:2|0:0,0:0:0:0:
392,208,43963,2,0,L|452:160,1,71.9999978027344,0|0,0:2|1:2,0:0:0:0:
424,315,44305,6,0,P|348:307|292:351,1,143.999995605469,2|0,1:2|0:0,0:0:0:0:
280,224,44820,1,0,1:2:0:0:
280,224,44991,2,0,P|248:248|224:284,1,71.9999978027344,10|0,1:2|0:0,0:0:0:0:
180,368,45334,1,0,0:2:0:0:
229,273,45505,6,0,L|97:177,1,143.999995605469,2|0,1:2|1:2,0:0:0:0:
152,96,46020,2,0,L|209:139,1,71.9999978027344,0|0,0:2|1:2,0:0:0:0:
24,136,46363,2,0,P|24:96|40:64,1,71.9999978027344,10|0,1:2|1:2,0:0:0:0:
112,188,46705,2,0,P|126:220|125:256,1,71.9999978027344,12|0,0:2|0:2,0:0:0:0:
256,272,47048,6,0,B|368:244|368:244|360:280,1,151.999995941162,6|2,1:2|1:2,0:0:0:0:
256,344,47563,1,2,0:2:0:0:
320,180,47734,2,0,L|236:200,1,75.9999979705811,8|2,1:2|0:2,0:0:0:0:
182,361,48077,2,0,L|255:343,1,75.9999979705811,0|2,1:2|0:2,0:0:0:0:
112,264,48420,6,0,P|88:192|120:128,1,151.999995941162,0|2,1:2|1:2,0:0:0:0:
212,48,48934,1,2,0:2:0:0:
120,127,49105,2,0,L|64:71,1,75.9999979705811,8|0,0:2|0:2,0:0:0:0:
212,48,49448,2,0,L|268:104,1,75.9999979705811,2|0,1:2|0:2,0:0:0:0:
436,160,49791,6,0,B|316:156|316:156|316:176|348:192,1,151.999995941162,2|10,1:2|0:2,0:0:0:0:
468,236,50305,1,0,0:2:0:0:
376,88,50477,2,0,L|464:92,1,75.9999979705811,2|0,1:2|0:0,0:0:0:0:
468,236,50820,2,0,L|380:232,1,75.9999979705811,10|2,0:2|0:2,0:0:0:0:
244,328,51163,5,2,1:2:0:0:
208,244,51334,1,0,0:2:0:0:
292,208,51505,1,10,0:2:0:0:
327,292,51677,1,2,0:2:0:0:
208,244,51848,2,0,P|196:208|208:164,1,75.9999979705811,0|2,1:2|0:2,0:0:0:0:
244,328,52191,2,0,P|204:336|152:320,1,75.9999979705811,12|2,0:2|0:2,0:0:0:0:
292,208,52534,5,12,1:2:0:0:
292,96,52705,1,0,1:2:0:0:
388,152,52877,1,0,1:2:0:0:
292,220,53048,5,12,1:2:0:0:
292,82,53219,1,0,1:2:0:0:
409,151,53391,1,0,1:2:0:0:
292,236,53563,5,12,1:2:0:0:
292,63,53734,1,0,1:2:0:0:
437,149,53906,1,0,1:2:0:0:
292,256,54077,5,12,1:2:0:0:
292,44,54248,1,0,1:2:0:0:
469,149,54420,1,0,1:2:0:0:
292,256,54763,5,2,0:0:0:0:
292,256,54934,2,0,P|287:323|251:259,1,180.000006866455,8|0,0:2|0:2,0:0:0:0:
180,240,55277,6,0,P|164:284|184:344,1,88.000002685547,6|0,1:2|0:0,0:0:0:0:
376,320,55620,2,0,P|382:277|367:236,1,88.000002685547,10|2,0:2|0:2,0:0:0:0:
160,240,55963,2,0,P|144:284|164:344,1,88.000002685547,0|2,1:2|0:2,0:0:0:0:
392,320,56305,2,0,P|398:277|383:236,1,88.000002685547,10|2,0:2|0:2,0:0:0:0:
256,148,56648,5,0,1:2:0:0:
200,40,56820,1,2,0:2:0:0:
312,40,56991,1,10,0:2:0:0:
256,148,57163,1,2,0:2:0:0:
312,40,57334,2,0,L|388:92,1,88.000002685547,0|2,1:2|0:2,0:0:0:0:
168,128,57677,2,0,L|92:76,1,88.000002685547,10|2,0:2|0:2,0:0:0:0:
12,276,58020,6,0,P|84:260|172:308,1,176.000005371094,2|10,1:2|0:2,0:0:0:0:
72,352,58534,1,2,0:2:0:0:
176,212,58705,2,0,P|128:192|80:188,1,88.000002685547,0|2,1:2|0:2,0:0:0:0:
72,352,59048,2,0,P|120:372|168:376,1,88.000002685547,10|2,0:2|0:2,0:0:0:0:
316,256,59391,6,0,B|364:128|364:128|384:144|380:168,1,176.000005371094,0|10,1:2|0:2,0:0:0:0:
420,260,59905,1,2,0:2:0:0:
248,208,60077,2,0,L|284:120,1,88.000002685547,0|0,1:2|0:2,0:0:0:0:
148,228,60420,2,0,L|181:146,1,88.000002685547,8|2,0:2|0:2,0:0:0:0:
256,360,60763,6,0,P|192:336|92:384,1,176.000005371094,6|8,1:2|0:2,0:0:0:0:
256,360,61277,1,2,0:2:0:0:
97,376,61448,2,0,P|89:352|105:288,1,88.000002685547,2|0,1:2|0:0,0:0:0:0:
251,276,61791,2,0,P|264:317|255:359,1,88.000002685547,10|2,0:2|0:2,0:0:0:0:
4,368,62134,6,0,P|4:316|76:216,1,176.000005371094,0|10,1:2|0:2,0:0:0:0:
202,151,62648,1,2,0:2:0:0:
72,217,62820,2,0,L|48:129,1,88.000002685547,2|0,1:2|0:0,0:0:0:0:
179,67,63163,2,0,L|202:151,1,88.000002685547,8|2,0:2|0:2,0:0:0:0:
202,151,63420,1,0,0:0:0:0:
201,150,63505,5,2,1:2:0:0:
257,321,63677,1,2,0:2:0:0:
312,151,63848,1,10,0:2:0:0:
168,256,64020,1,2,0:2:0:0:
345,256,64191,1,2,1:2:0:0:
202,151,64363,1,2,0:2:0:0:
257,321,64534,1,10,0:2:0:0:
312,151,64705,6,0,B|415:67|415:67|415:103|423:115,1,176.000005371094,10|2,0:2|0:2,0:0:0:0:
331,248,65220,2,0,L|406:188,1,88.000002685547,10|0,1:2|0:2,0:0:0:0:
348,28,65563,2,0,L|279:82,1,88.000002685547,8|2,1:2|0:2,0:0:0:0:
380,252,65905,2,0,L|455:192,1,88.000002685547,10|2,1:2|0:2,0:0:0:0:
292,316,66248,6,0,B|252:300|252:300|232:304|232:304|200:288,1,90.0000034332277,0|0,1:2|0:2,0:0:0:0:
144,352,66591,6,0,P|208:332|120:316,1,240.000009155274,14|0,1:2|1:2,0:0:0:0:
124,196,67105,5,2,0:2:0:0:
124,196,67277,2,0,P|76:224|52:268,1,88.000002685547,10|2,1:2|0:2,0:0:0:0:
200,160,67620,2,0,P|172:124|124:104,1,88.000002685547,0|2,1:2|0:2,0:0:0:0:
282,220,67963,1,10,1:2:0:0:
231,64,68134,1,2,0:2:0:0:
363,160,68305,1,0,1:2:0:0:
200,160,68477,1,2,0:2:0:0:
332,64,68648,2,0,P|388:60|432:76,1,88.000002685547,10|2,1:2|0:2,0:0:0:0:
468,176,68991,6,0,L|460:-8,1,176.000005371094,2|10,1:2|1:2,0:0:0:0:
460,0,69505,1,2,0:2:0:0:
468,176,69677,2,0,P|428:184|384:164,1,88.000002685547,0|2,1:2|0:2,0:0:0:0:
216,252,70020,2,0,P|256:244|300:264,1,88.000002685547,10|2,1:2|0:2,0:0:0:0:
56,203,70363,5,0,1:2:0:0:
112,308,70534,1,2,0:2:0:0:
161,147,70705,1,10,1:2:0:0:
216,252,70877,1,2,0:2:0:0:
56,203,71048,2,0,P|48:156|64:116,1,88.000002685547,0|0,1:2|0:2,0:0:0:0:
236,24,71391,2,0,P|250:65|241:107,1,88.000002685547,8|2,1:2|0:2,0:0:0:0:
428,148,71734,6,0,B|292:168|292:168|336:184,1,176.000005371094,6|8,1:2|1:2,0:0:0:0:
452,248,72248,1,2,0:2:0:0:
432,68,72420,2,0,L|336:84,1,88.000002685547,2|0,1:2|0:0,0:0:0:0:
365,262,72763,2,0,L|452:248,1,88.000002685547,10|2,1:2|0:2,0:0:0:0:
216,260,73105,5,0,1:2:0:0:
216,123,73277,1,2,0:2:0:0:
334,192,73448,1,10,1:2:0:0:
207,275,73620,1,2,0:2:0:0:
204,104,73792,1,2,1:2:0:0:
352,192,73963,1,0,0:0:0:0:
192,80,74134,2,0,P|236:52|284:52,1,88.000002685547,8|2,1:2|0:2,0:0:0:0:
304,52,74391,1,0,0:0:0:0:
340,56,74477,5,2,1:2:0:0:
352,192,74648,1,2,0:2:0:0:
340,56,74820,2,0,L|432:72,1,88.000002685547,10|2,1:2|0:2,0:0:0:0:
439,207,75163,2,0,L|352:191,1,88.000002685547,2|2,1:2|0:2,0:0:0:0:
388,288,75505,1,10,0:2:0:0:
340,124,75677,1,10,1:2:0:0:
200,260,75848,5,0,1:2:0:0:
160,120,76020,1,10,1:2:0:0:
160,120,76191,2,0,P|112:116|72:136,1,88.000002685547,10|0,1:2|0:0,0:0:0:0:
220,68,76534,2,0,L|148:216,1,132.00000402832,8|0,1:2|0:0,0:0:0:0:
162,186,76877,1,12,1:2:0:0:
116,300,77048,1,0,0:0:0:0:
312,256,77220,5,0,0:2:0:0:
256,160,77391,1,2,0:2:0:0:
312,256,77563,2,0,L|276:332,1,71.9999978027344,2|2,0:2|0:2,0:0:0:0:
412,296,77905,2,0,P|456:300|488:280,1,71.9999978027344,2|2,0:2|0:2,0:0:0:0:
496,184,78248,2,0,P|452:180|420:200,1,71.9999978027344,2|2,0:2|0:2,0:0:0:0:
324,144,78591,6,0,L|420:32,1,143.999995605469,2|2,0:2|0:2,0:0:0:0:
256,40,79105,1,0,0:0:0:0:
256,40,79277,2,0,L|162:149,1,143.999995605469,2|2,0:2|0:2,0:0:0:0:
52,224,79791,1,0,0:0:0:0:
161,148,79963,1,0,0:2:0:0:
52,224,80134,5,2,0:2:0:0:
164,264,80305,2,0,P|208:292|244:292,1,71.9999978027344,2|2,0:2|0:2,0:0:0:0:
339,212,80648,1,2,0:2:0:0:
296,345,80819,1,0,0:2:0:0:
252,212,80991,1,2,1:2:0:0:
365,294,81163,6,0,L|504:240,1,143.999995605469,10|0,1:2|1:2,0:0:0:0:
456,348,81677,1,8,1:2:0:0:
440,184,81848,1,0,1:2:0:0:
440,184,81934,1,0,1:2:0:0:
440,184,82020,2,0,L|368:212,1,71.9999978027344,10|0,1:2|0:0,0:0:0:0:
288,104,82363,2,0,L|316:96,7,17.9999994506836,0|0|0|0|0|0|0|0,1:0|1:0|1:0|1:0|1:0|1:0|1:0|1:0,0:0:0:0:
288,104,82705,6,0,P|216:116|152:64,1,160,4|10,1:2|0:0,0:0:0:0:
152,180,83220,1,0,0:0:0:0:
152,180,83391,2,0,P|108:156|80:120,1,80,0|0,1:0|0:0,0:0:0:0:
288,104,83734,2,0,P|332:128|360:164,1,80,10|0,0:0|0:0,0:0:0:0:
399,251,84077,5,0,1:0:0:0:
351,149,84248,1,0,0:0:0:0:
453,102,84420,1,10,0:0:0:0:
500,203,84591,1,0,0:0:0:0:
351,149,84763,2,0,L|280:204,1,80,0|0,1:0|0:0,0:0:0:0:
335,299,85105,2,0,L|406:244,1,80,10|0,0:0|0:0,0:0:0:0:
196,288,85448,6,0,P|120:300|68:244,1,160,0|10,1:0|0:0,0:0:0:0:
168,152,85963,1,0,0:0:0:0:
168,152,86134,2,0,L|144:240,1,80,0|0,1:0|0:0,0:0:0:0:
72,112,86477,2,0,L|96:24,1,80,10|0,0:0|0:0,0:0:0:0:
168,152,86820,6,0,L|124:312,1,160,0|10,1:0|0:0,0:0:0:0:
304,320,87334,1,0,1:0:0:0:
304,320,87420,1,0,1:0:0:0:
304,320,87505,1,8,1:2:0:0:
256,172,87677,1,8,1:2:0:0:
381,263,87848,1,8,1:2:0:0:
226,263,88020,1,8,1:2:0:0:
352,172,88191,6,0,P|400:172|440:192,1,80,4|0,1:2|1:0,0:0:0:0:
226,263,88534,2,0,P|178:263|138:243,1,80,10|0,0:0|0:1,0:0:0:0:
32,176,88877,1,0,1:0:0:0:
149,250,89048,1,0,0:0:0:0:
32,176,89220,2,0,P|8:216|16:260,1,80,10|0,0:0|0:0,0:0:0:0:
200,168,89563,5,0,1:0:0:0:
164,74,89734,1,0,0:0:0:0:
257,38,89905,1,10,0:0:0:0:
293,132,90077,1,0,0:0:0:0:
164,74,90248,2,0,P|152:36|168:-4,1,80,0|0,1:0|0:0,0:0:0:0:
293,132,90591,2,0,P|306:169|294:206,1,80,10|0,0:0|0:0,0:0:0:0:
224,268,90934,6,0,L|392:224,1,160,0|10,1:0|0:0,0:0:0:0:
224,268,91448,1,0,0:0:0:0:
378,227,91620,2,0,P|390:271|374:311,1,80,0|0,1:0|0:0,0:0:0:0:
296,376,91963,1,10,0:0:0:0:
448,344,92134,6,0,P|464:276|440:184,1,160,8|0,0:0|0:0,0:0:0:0:
412,72,92648,2,0,L|352:132,1,80,8|0,1:2|0:0,0:0:0:0:
224,112,92991,2,0,L|284:52,1,80,8|0,1:2|0:0,0:0:0:0:
142,59,93334,2,0,L|82:119,1,80,8|0,1:2|0:0,0:0:0:0:
68,252,93677,6,0,P|132:236|192:284,1,143.999995605469,4|0,1:2|0:0,0:0:0:0:
264,324,94191,2,0,L|328:284,1,71.9999978027344,2|0,0:0|0:0,0:0:0:0:
440,308,94534,2,0,L|376:348,1,71.9999978027344,2|0,0:0|0:0,0:0:0:0:
404,228,94877,1,2,0:0:0:0:
256,192,95048,12,0,100534,0:0:0:0:
