osu file format v14

[General]
AudioFilename: audio.mp3
AudioLeadIn: 0
PreviewTime: 54754
Countdown: 0
SampleSet: Soft
StackLeniency: 0.7
Mode: 0
LetterboxInBreaks: 0
WidescreenStoryboard: 1

[Editor]
DistanceSpacing: 1.8
BeatDivisor: 4
GridSize: 32
TimelineZoom: 2.4

[Metadata]
Title:Tsunagaru Connect (TV Size)
TitleUnicode:ツナガルコネクト (TV Size)
Artist:Tennoji Rina (CV: Tanaka Chiemi)
ArtistUnicode:天王寺璃奈 (CV: 田中ちえ美)
Creator:ClariS-
Version:Happiness
Source:ラブライブ!虹ヶ咲学園スクールアイドル同好会
Tags:bite you death byd eringiRa -karUpA- Kyutei Anya Melfissa Shingyouji Yuni Tennouji love live! nijigasaki high school idol club gakuen doukoukai doukou kai nijigaku ニジガク llas sifas スクスタ festival all stars スクールアイドルフェスティバル perfect dream project pdp board DECO*27 anime insert video game japanese pop j-pop jpop
BeatmapID:3853085
BeatmapSetID:1872519

[Difficulty]
HPDrainRate:5
CircleSize:3.8
OverallDifficulty:8.5
ApproachRate:9.2
SliderMultiplier:1.8
SliderTickRate:1

[Events]
//Background and Video events
0,0,"rinacutebg.jpg",0,0
Video,-120,"Video.mp4"
//Break Periods
//Storyboard Layer 0 (Background)
//Storyboard Layer 1 (Fail)
//Storyboard Layer 2 (Pass)
//Storyboard Layer 3 (Foreground)
//Storyboard Layer 4 (Overlay)
//Storyboard Sound Samples

[TimingPoints]
1783,342.857142857143,4,2,1,60,1,0
3154,-133.333333333333,4,2,1,60,0,0
4525,-100,4,2,1,60,0,0
4783,-100,4,2,1,5,0,0
4868,-100,4,2,1,60,0,0
5468,-100,4,2,1,5,0,0
5554,-100,4,2,1,60,0,0
5897,-133.333333333333,4,2,1,60,0,0
8640,-100,4,2,1,70,0,0
19611,-133.333333333333,4,2,1,50,0,0
30754,-133.333333333333,4,2,1,60,0,0
31440,-117.647058823529,4,2,1,60,0,0
41554,-153.846153846153,4,2,1,50,0,0
47040,-125,4,2,1,60,0,0
50040,-125,4,2,1,5,0,0
50125,-125,4,2,1,60,0,0
51411,-125,4,2,1,5,0,0
51497,-125,4,2,1,60,0,0
54754,-153.846153846154,4,2,1,60,0,0
55268,-90.9090909090909,4,2,1,80,0,1
65811,-90.9090909090909,4,2,1,5,0,1
65897,-90.9090909090909,4,2,1,80,0,1
66240,-181.818181818181,4,2,1,80,0,0
66497,-181.818181818181,4,2,1,5,0,0
66583,-90.9090909090909,4,2,1,80,0,1
77211,-90.9090909090909,4,2,1,60,0,0
77383,-133.333333333333,4,2,1,60,0,0
78840,-133.333333333333,4,2,1,5,0,0
78925,-133.333333333333,4,2,1,60,0,0
79525,-133.333333333333,4,2,1,5,0,0
79611,-133.333333333333,4,2,1,60,0,0
81154,-117.647058823529,4,2,1,60,0,0
82697,-100,4,2,1,70,0,0
93583,-100,4,2,1,5,0,0
93668,-153.846153846153,4,2,1,60,0,0
100525,-153.846153846153,4,2,1,5,0,0

[Colours]
Combo1 : 192,192,192
Combo2 : 255,193,255
Combo3 : 175,221,254
Combo4 : 255,155,108

[HitObjects]
438,71,3154,6,0,B|370:58|370:58|343:102|286:92,1,135.000005149842,6|0,1:2|0:0,0:0:0:0:
291,12,3668,1,2,0:0:0:0:
404,152,3840,2,0,L|388:303,1,135.000005149842
404,265,4354,1,0,0:0:0:0:
208,138,4525,6,0,P|247:91|329:102,1,135,6|0,1:2|0:0,0:0:0:0:
218,158,4868,2,0,L|129:148,1,90,6|0,1:2|0:0,0:0:0:0:
426,384,5211,6,0,B|389:346|389:346|406:257,1,135,6|0,1:2|0:0,0:0:0:0:
423,189,5554,2,0,L|440:100,1,90,6|0,1:2|0:0,0:0:0:0:
286,288,5897,6,0,P|331:253|416:276,1,135.000005149842,2|0,1:2|0:0,0:0:0:0:
477,321,6411,1,2,1:2:0:0:
477,321,6583,2,0,L|494:232,1,67.5000025749208
389,353,6925,1,0,0:0:0:0:
255,178,7097,6,0,L|122:202,1,135.000005149842,14|0,0:0|1:0,0:0:0:0:
15,268,7611,1,8,0:0:0:0:
61,120,7783,1,0,0:0:0:0:
61,120,7868,1,8,0:0:0:0:
61,120,7954,1,4,1:2:0:0:
61,120,8297,6,0,L|111:129,1,33.7500012874604,8|0,0:0|0:0,0:0:0:0:
111,48,8468,2,0,L|61:39,1,33.7500012874604
188,147,8640,6,0,P|216:114|261:106,1,90,6|0,1:2|0:0,0:0:0:0:
404,237,8983,2,0,L|316:222,1,90,8|2,0:0|0:0,0:0:0:0:
187,287,9325,5,0,1:0:0:0:
314,360,9497,1,0,0:0:0:0:
128,345,9668,2,0,P|106:299|118:250,1,90,8|0,0:0|0:0,0:0:0:0:
315,221,10011,5,0,1:0:0:0:
188,148,10183,1,0,0:0:0:0:
315,221,10354,2,0,L|403:206,1,90,8|0,0:0|0:0,0:0:0:0:
465,16,10697,6,0,B|490:47|490:47|475:130,1,90,0|2,1:0|0:0,0:0:0:0:
315,221,11040,2,0,B|290:190|290:190|305:107,1,90,10|0,0:0|0:0,0:0:0:0:
248,23,11383,5,2,1:2:0:0:
392,113,11554,1,0,0:0:0:0:
248,23,11725,2,0,P|197:16|149:41,1,90,8|2,0:0|0:0,0:0:0:0:
63,119,12068,1,0,1:0:0:0:
194,154,12240,1,0,0:0:0:0:
39,3,12411,1,8,0:0:0:0:
194,154,12583,6,0,P|208:199|174:258,1,90,2|0,1:2|0:0,0:0:0:0:
27,309,12925,2,0,P|68:294|111:306,1,90,2|8,1:2|0:0,0:0:0:0:
219,356,13268,1,2,0:0:0:0:
379,255,13440,5,2,1:2:0:0:
428,349,13611,1,0,0:0:0:0:
435,94,13783,5,10,0:0:0:0:
294,292,13954,1,8,0:0:0:0:
203,64,14125,6,0,L|193:155,1,90,6|0,1:2|0:0,0:0:0:0:
379,255,14468,2,0,L|369:165,1,90,8|2,0:0|0:0,0:0:0:0:
368,13,14811,5,0,1:0:0:0:
348,155,14983,1,0,0:0:0:0:
509,32,15154,1,8,0:0:0:0:
489,173,15325,1,0,0:0:0:0:
368,13,15497,6,0,P|333:-8|280:4,1,90,0|0,1:0|0:0,0:0:0:0:
111,140,15840,2,0,P|146:161|199:149,1,90,8|0,0:0|0:0,0:0:0:0:
348,155,16183,5,0,1:0:0:0:
368,297,16355,1,2,0:0:0:0:
207,174,16526,1,10,0:0:0:0:
227,315,16697,1,0,0:0:0:0:
423,186,16868,6,0,P|426:130|402:93,1,90,6|0,1:2|0:0,0:0:0:0:
154,282,17211,2,0,P|151:338|175:375,1,90,8|2,0:0|0:0,0:0:0:0:
292,242,17554,1,0,1:0:0:0:
59,186,17725,1,0,0:0:0:0:
227,315,17897,1,8,0:0:0:0:
263,81,18068,6,0,B|306:122|306:122|291:246,1,180,14|0,0:0|1:0,0:0:0:0:
126,237,18583,6,0,P|160:208|204:202,1,90,8|0,0:0|0:0,0:0:0:0:
446,331,18925,6,0,P|401:324|367:296,1,90,8|0,0:0|0:0,0:0:0:0:
445,83,19268,5,8,0:0:0:0:
445,83,19611,6,0,B|482:123|482:123|471:208,1,135.000005149842,6|8,1:2|0:0,0:0:0:0:
471,202,20468,1,0,1:0:0:0:
387,148,20640,1,10,0:0:0:0:
244,283,20811,6,0,P|188:251|106:260,1,135.000005149842,2|2,1:2|1:2,0:0:0:0:
42,307,21325,1,8,0:0:0:0:
42,307,21840,1,0,1:0:0:0:
119,254,22011,1,8,0:0:0:0:
247,366,22183,1,0,0:0:0:0:
247,366,22268,1,0,0:0:0:0:
247,366,22354,6,0,P|284:300|267:235,1,135.000005149842,2|8,1:2|0:0,0:0:0:0:
272,244,23211,1,0,1:0:0:0:
331,170,23383,1,10,0:0:0:0:
133,54,23554,6,0,L|-5:76,1,135.000005149842,2|2,1:2|1:2,0:0:0:0:
100,82,24068,2,0,L|168:92,1,67.5000025749208,8|0,0:0|0:0,0:0:0:0:
260,119,24411,1,0,0:0:0:0:
201,179,24583,1,0,1:0:0:0:
260,119,24754,2,0,P|273:89|263:43,1,67.5000025749208,10|0,0:0|0:0,0:0:0:0:
478,293,25097,6,0,P|438:255|344:269,1,135.000005149842,2|8,1:2|0:0,0:0:0:0:
361,256,25954,1,0,1:0:0:0:
404,334,26125,1,10,0:0:0:0:
481,157,26297,6,0,L|471:20,1,135.000005149842,2|2,1:2|1:2,0:0:0:0:
490,34,26811,1,8,0:0:0:0:
490,34,27325,1,0,1:0:0:0:
397,89,27497,1,10,0:0:0:0:
460,336,27840,6,0,B|389:322|389:322|374:277|320:270,1,135.000005149842,2|8,1:2|0:0,0:0:0:0:
348,277,28697,1,0,1:0:0:0:
291,356,28868,1,10,0:0:0:0:
133,63,29040,6,0,B|103:102|103:102|117:208,1,135.000005149842,2|0,1:2|1:0,0:0:0:0:
242,263,29554,2,0,P|211:242|166:248,1,67.5000025749208,8|0,0:0|0:0,0:0:0:0:
99,273,29897,1,0,0:0:0:0:
198,158,30068,1,0,1:0:0:0:
99,273,30240,2,0,L|107:339,1,67.5000025749208,10|0,0:0|0:0,0:0:0:0:
198,158,30583,5,6,1:2:0:0:
26,218,30754,1,2,0:0:0:0:
26,218,30840,1,2,0:0:0:0:
26,218,30925,1,8,0:0:0:0:
242,263,31097,1,2,0:0:0:0:
242,263,31183,1,2,0:0:0:0:
242,263,31268,1,2,0:0:0:0:
171,70,31440,2,0,L|95:79,1,76.5000014591217,0|8,1:0|0:0,0:0:0:0:
306,321,31783,6,0,P|331:256|287:188,1,153.000002918243,2|0,1:2|1:0,0:0:0:0:
220,348,32297,1,10,0:0:0:0:
403,329,32468,1,0,0:0:0:0:
242,263,32640,1,2,0:0:0:0:
403,329,32811,2,0,L|478:319,1,76.5000014591217,2|8,1:2|0:0,0:0:0:0:
272,172,33154,6,0,L|197:182,1,76.5000014591217,2|0,0:0|1:0,0:0:0:0:
343,247,33497,2,0,P|374:227|389:192,1,76.5000014591217,2|8,0:0|0:0,0:0:0:0:
353,85,33840,2,0,L|343:10,1,76.5000014591217,2|0,1:2|0:0,0:0:0:0:
322,22,34183,1,2,1:2:0:0:
448,87,34354,1,10,0:0:0:0:
196,182,34525,6,0,L|45:161,1,153.000002918243,2|2,1:2|1:2,0:0:0:0:
66,349,35040,1,10,0:0:0:0:
125,253,35211,1,2,0:0:0:0:
180,352,35383,1,2,0:0:0:0:
21,249,35554,1,0,1:0:0:0:
180,352,35725,2,0,L|291:337,1,76.5000014591217,8|2,0:0|0:0,0:0:0:0:
367,185,36068,5,0,1:0:0:0:
435,305,36240,1,2,0:0:0:0:
435,305,36325,1,2,0:0:0:0:
435,305,36411,1,8,0:0:0:0:
473,120,36583,1,2,0:0:0:0:
473,120,36668,1,0,0:0:0:0:
473,120,36754,1,2,0:0:0:0:
321,251,36925,2,0,P|293:218|295:161,1,76.5000014591217,0|8,1:0|0:0,0:0:0:0:
410,14,37268,6,0,L|235:0,1,153.000002918243,2|0,1:2|1:0,0:0:0:0:
139,49,37783,1,10,0:0:0:0:
248,124,37954,1,0,0:0:0:0:
257,1,38125,1,2,0:0:0:0:
144,144,38297,2,0,L|56:136,1,76.5000014591217,2|8,1:2|0:0,0:0:0:0:
343,278,38640,6,0,P|374:268|398:205,1,76.5000014591217,2|0,0:0|1:0,0:0:0:0:
222,222,38983,2,0,L|230:310,1,76.5000014591217,2|8,0:0|0:0,0:0:0:0:
349,354,39325,2,0,L|341:266,1,76.5000014591217,2|0,0:0|0:0,0:0:0:0:
413,125,39668,1,2,1:2:0:0:
316,201,39840,1,8,0:0:0:0:
208,31,40011,6,0,L|55:43,1,153.000002918243,6|0,1:2|1:0,0:0:0:0:
9,147,40525,2,0,L|85:140,1,76.5000014591217,8|2,0:0|0:0,0:0:0:0:
222,222,40868,1,10,0:0:0:0:
101,156,41040,1,0,1:0:0:0:
222,222,41211,2,0,P|240:266|217:313,1,76.5000014591217,12|0,0:0|0:0,0:0:0:0:
37,348,41554,6,8,P|47:298|112:274,1,116.999994644165,6|0,1:2|0:0,0:0:0:0:
169,343,42068,1,2,1:2:0:0:
222,222,42240,2,0,L|309:215,2,87.749995983124,10|2|2,0:0|0:0|1:2,0:0:0:0:
134,44,42925,6,0,B|146:71|146:71|139:110,1,58.4999973220826,2|0,0:0|1:0,0:0:0:0:
70,152,43183,1,2,0:0:0:0:
70,152,43268,2,0,L|63:214,1,58.4999973220826,0|2,0:0|1:2,0:0:0:0:
212,138,43611,2,0,P|182:105|139:99,2,87.749995983124,10|2|2,0:0|0:0|1:2,0:0:0:0:
303,290,44297,6,0,L|431:280,1,116.999994644165,2|0,1:2|0:0,0:0:0:0:
506,270,44811,1,0,1:2:0:0:
438,361,44983,2,0,P|417:324|422:274,2,87.749995983124,10|2|2,0:0|0:0|1:2,0:0:0:0:
506,270,45668,6,0,L|495:196,1,58.4999973220826,2|0,0:0|1:0,0:0:0:0:
424,159,45925,1,2,0:0:0:0:
424,159,46011,2,0,L|416:102,1,58.4999973220826,0|2,0:0|1:2,0:0:0:0:
329,61,46354,6,0,P|296:59|271:73,1,58.4999973220826,10|0,0:0|1:0,0:0:0:0:
260,154,46611,1,0,0:0:0:0:
260,154,46697,2,0,P|293:156|318:142,1,58.4999973220826,14|0,0:0|0:0,0:0:0:0:
102,15,47040,6,0,L|85:189,1,144,6|0,1:2|1:0,0:0:0:0:
87,158,47554,2,0,L|79:86,1,72,2|8,0:0|0:0,0:0:0:0:
186,192,47897,2,0,L|178:263,1,72,2|0,0:0|1:0,0:0:0:0:
77,367,48240,6,0,P|105:342|143:328,1,72,2|0,0:0|1:0,0:0:0:0:
260,367,48583,1,2,0:0:0:0:
196,276,48754,1,0,1:0:0:0:
260,367,48925,2,0,L|331:359,1,72,2|8,0:0|0:0,0:0:0:0:
385,279,49268,1,0,0:0:0:0:
442,370,49440,2,0,P|461:341|469:294,1,72,2|0,1:2|0:0,0:0:0:0:
385,279,49697,1,0,0:0:0:0:
385,279,49783,6,0,L|399:137,1,108,2|0,1:2|0:0,0:0:0:0:
465,110,50125,2,0,L|475:4,1,72,8|0,0:0|0:0,0:0:0:0:
322,0,50468,1,0,1:0:0:0:
378,84,50640,1,0,0:0:0:0:
263,126,50811,2,0,L|157:115,1,72,8|0,0:0|0:0,0:0:0:0:
50,172,51154,6,0,B|23:206|23:206|37:296,1,108,0|0,1:0|0:0,0:0:0:0:
115,313,51497,2,0,L|125:384,1,72,8|0,0:0|0:0,0:0:0:0:
208,285,51840,1,0,1:0:0:0:
113,227,52011,1,0,0:0:0:0:
208,285,52183,2,0,P|240:269|281:263,1,72,14|0,0:0|0:0,0:0:0:0:
451,370,52525,5,14,0:0:0:0:
414,188,52697,1,0,0:0:0:0:
355,317,52868,1,0,1:0:0:0:
505,259,53040,5,14,0:0:0:0:
232,177,53212,1,0,0:0:0:0:
436,105,53383,1,0,1:0:0:0:
355,317,53554,5,12,0:0:0:0:
273,44,53726,1,0,0:0:0:0:
201,248,53897,1,0,1:0:0:0:
436,105,54068,5,12,0:0:0:0:
100,205,54240,1,0,1:0:0:0:
351,294,54411,1,12,0:0:0:0:
351,294,54754,6,0,P|360:258|346:218,2,58.4999973220826,2|8|0,0:3|0:0|0:0,0:0:0:0:
193,341,55268,6,0,B|118:334|118:334|73:371|73:371|-14:364,1,198.000006042481,6|8,1:2|0:0,0:0:0:0:
213,174,55783,2,0,P|236:216|227:268,1,99.0000030212403,2|0,0:0|0:0,0:0:0:0:
118,335,56125,1,2,0:0:0:0:
44,185,56297,1,10,0:0:0:0:
228,264,56468,6,0,L|327:256,1,99.0000030212403,2|0,0:0|0:0,0:0:0:0:
432,178,56811,1,2,0:0:0:0:
283,98,56983,1,10,0:0:0:0:
508,208,57154,2,0,P|515:162|477:113,1,99.0000030212403,2|0,0:0|0:0,0:0:0:0:
283,98,57497,1,2,0:0:0:0:
327,256,57668,1,10,0:0:0:0:
420,17,57840,1,2,0:0:0:0:
176,214,58011,6,0,P|111:132|158:26,1,198.000006042481,6|8,1:2|0:0,0:0:0:0:
298,0,58525,2,0,L|281:106,1,99.0000030212403,2|0,0:0|0:0,0:0:0:0:
176,214,58868,1,2,0:0:0:0:
296,114,59040,1,10,0:0:0:0:
372,291,59211,6,0,L|488:278,1,99.0000030212403,2|0,0:0|1:0,0:0:0:0:
204,363,59554,1,2,0:0:0:0:
295,220,59725,1,10,0:0:0:0:
204,363,59897,2,0,L|88:350,1,99.0000030212403,2|0,0:0|1:0,0:0:0:0:
0,177,60240,1,0,0:0:0:0:
0,177,60411,2,0,L|98:188,1,99.0000030212403,8|2,0:0|0:0,0:0:0:0:
372,291,60754,5,6,1:2:0:0:
295,220,60925,1,0,0:0:0:0:
451,103,61097,2,0,L|432:214,1,99.0000030212403,8|2,0:0|0:0,0:0:0:0:
408,379,61440,1,2,1:2:0:0:
360,163,61611,1,0,0:0:0:0:
233,341,61783,1,8,0:0:0:0:
233,341,61954,6,0,P|182:347|137:314,1,99.0000030212403,2|0,0:0|0:0,0:0:0:0:
34,140,62297,1,2,0:0:0:0:
203,264,62468,1,10,0:0:0:0:
24,327,62640,1,2,0:0:0:0:
229,68,62811,2,8,L|432:95,1,198.000006042481,0|8,1:2|0:0,0:0:0:0:
203,264,63325,5,2,0:0:0:0:
203,264,63411,1,2,0:0:0:0:
203,264,63497,1,2,1:2:0:0:
305,55,63668,1,0,0:0:0:0:
345,284,63840,1,10,0:0:0:0:
178,123,64011,1,2,0:0:0:0:
408,154,64183,1,2,1:2:0:0:
203,264,64354,1,2,0:0:0:0:
296,168,64525,1,10,0:0:0:0:
108,20,64697,6,0,L|2:33,1,99.0000030212403,10|0,0:0|1:0,0:0:0:0:
296,168,65040,1,2,0:0:0:0:
296,168,65211,2,0,L|394:155,1,99.0000030212403,10|0,0:0|0:0,0:0:0:0:
152,350,65554,2,0,B|105:300|105:300|115:220,1,148.50000453186,2|0,1:2|0:0,0:0:0:0:
179,151,65897,2,0,L|191:52,1,99.0000030212403,8|0,0:0|0:0,0:0:0:0:
283,257,66240,6,0,P|245:260|211:242,1,74.2500022659302,0|0,1:2|0:0,0:0:0:0:
213,244,66583,6,0,P|308:234|394:281,1,198.000006042481,14|0,0:0|1:0,0:0:0:0:
490,362,67097,1,2,0:0:0:0:
324,336,67268,1,10,0:0:0:0:
477,164,67440,6,0,P|508:207|510:263,1,99.0000030212403,2|0,0:0|0:0,0:0:0:0:
359,166,67783,1,2,0:0:0:0:
491,47,67954,1,10,0:0:0:0:
359,166,68125,2,0,L|246:155,1,99.0000030212403,2|0,0:0|0:0,0:0:0:0:
131,135,68468,1,2,0:0:0:0:
185,272,68640,1,10,0:0:0:0:
214,43,68811,1,2,0:0:0:0:
36,321,68983,6,0,B|147:280|111:380|227:346,1,198.000006042481,2|8,1:2|0:0,0:0:0:0:
272,231,69497,2,0,P|220:264|180:272,1,99.0000030212403,2|0,0:0|0:0,0:0:0:0:
385,262,69840,1,2,0:0:0:0:
216,124,70011,1,10,0:0:0:0:
431,9,70183,6,0,L|423:123,1,99.0000030212403,2|0,0:0|1:0,0:0:0:0:
272,231,70525,1,2,0:0:0:0:
431,131,70697,1,10,0:0:0:0:
255,38,70868,2,0,P|203:15|145:34,1,99.0000030212403,2|0,0:0|1:0,0:0:0:0:
72,101,71211,1,0,0:0:0:0:
184,237,71383,2,0,L|192:123,1,99.0000030212403,8|2,0:0|0:0,0:0:0:0:
435,300,71725,5,6,1:2:0:0:
272,231,71897,1,0,0:0:0:0:
460,375,72068,2,0,P|497:348|511:300,1,99.0000030212403,8|2,0:0|0:0,0:0:0:0:
452,142,72411,1,2,1:2:0:0:
323,335,72583,1,0,0:0:0:0:
348,92,72754,1,8,0:0:0:0:
348,92,72925,6,0,L|358:191,1,99.0000030212403,2|0,0:0|0:0,0:0:0:0:
184,237,73268,1,2,0:0:0:0:
225,73,73440,1,10,0:0:0:0:
358,191,73611,1,2,0:0:0:0:
139,328,73783,2,0,P|94:282|145:148,1,198.000006042481,2|8,1:2|0:0,0:0:0:0:
286,28,74297,5,2,0:0:0:0:
286,28,74383,1,2,0:0:0:0:
286,28,74469,1,2,1:2:0:0:
184,237,74640,1,0,0:0:0:0:
144,8,74811,1,10,0:0:0:0:
311,169,74983,1,2,0:0:0:0:
81,138,75154,1,2,1:2:0:0:
286,28,75326,1,2,0:0:0:0:
193,124,75497,1,10,0:0:0:0:
407,250,75668,6,0,L|420:150,1,99.0000030212403,10|0,0:0|0:0,0:0:0:0:
292,286,76011,1,10,0:0:0:0:
292,286,76183,2,0,L|304:384,1,99.0000030212403,10|0,0:0|0:0,0:0:0:0:
106,155,76525,6,0,P|135:129|211:131,1,99.0000030212403,8|0,0:0|0:0,0:0:0:0:
478,297,76868,2,0,P|449:323|373:321,1,99.0000030212403,14|0,0:0|0:0,0:0:0:0:
319,196,77211,5,0,0:0:0:0:
224,277,77383,2,0,L|291:285,2,67.5000025749208,0|0|2,0:0|0:0|0:0,0:0:0:0:
136,299,77897,2,0,P|122:341|135:370,1,67.5000025749208
224,277,78240,2,0,P|238:235|225:206,1,67.5000025749208
71,129,78583,6,0,B|109:144|109:144|179:129,1,101.250003862381,2|0,0:0|0:0,0:0:0:0:
213,67,78925,2,0,L|279:52,1,67.5000025749208,2|0,0:0|0:0,0:0:0:0:
366,176,79268,6,0,P|393:212|385:277,1,101.250003862381,2|0,0:0|0:0,0:0:0:0:
409,189,79611,2,0,P|414:156|435:130,1,67.5000025749208,2|0,0:0|0:0,0:0:0:0:
512,79,79954,5,2,0:0:0:0:
419,34,80125,2,0,P|380:21|350:25,1,67.5000025749208
290,122,80468,1,2,0:0:0:0:
290,122,80640,2,0,B|250:86|250:86|260:-3,1,135.000005149842,0|0,0:0|1:0,0:0:0:0:
502,287,81154,6,0,B|410:272|410:272|385:312|338:309,1,153.000002918243,14|0,0:0|1:0,0:0:0:0:
287,352,81668,1,8,0:0:0:0:
340,233,81840,1,0,0:0:0:0:
340,233,81925,1,0,1:0:0:0:
340,233,82011,2,0,L|329:144,1,76.5000014591217,12|0,0:0|0:0,0:0:0:0:
212,190,82354,2,0,L|207:227,3,38.2500007295609
95,91,82697,6,0,P|133:61|199:74,1,90,6|0,1:2|0:0,0:0:0:0:
96,202,83040,2,0,L|-2:190,1,90,8|2,0:0|0:0,0:0:0:0:
254,363,83383,5,0,1:0:0:0:
126,305,83554,1,0,0:0:0:0:
254,363,83725,2,0,P|275:325|267:269,1,90,8|0,0:0|0:0,0:0:0:0:
238,115,84068,5,0,1:0:0:0:
357,209,84240,1,0,0:0:0:0:
447,89,84411,2,0,L|436:-5,1,90,8|0,0:0|0:0,0:0:0:0:
294,166,84754,6,0,P|329:135|401:149,1,90,0|2,1:0|0:0,0:0:0:0:
505,268,85097,2,0,L|415:257,1,90,10|0,0:0|0:0,0:0:0:0:
280,303,85440,5,2,1:2:0:0:
357,209,85611,1,0,0:0:0:0:
219,363,85783,2,0,P|195:324|205:273,1,90,8|2,0:0|0:0,0:0:0:0:
293,167,86125,1,0,1:0:0:0:
376,353,86297,1,0,0:0:0:0:
480,176,86468,1,8,0:0:0:0:
200,281,86640,6,0,L|99:260,1,90,2|0,0:0|1:0,0:0:0:0:
293,167,86983,2,0,L|394:146,1,90,2|8,0:0|0:0,0:0:0:0:
119,50,87325,1,0,1:0:0:0:
119,50,87411,1,8,0:0:0:0:
119,50,87497,5,10,0:0:0:0:
200,281,87668,1,8,0:0:0:0:
196,109,87840,5,10,0:0:0:0:
115,340,88011,1,8,0:0:0:0:
16,180,88183,5,2,1:2:0:0:
101,239,88354,1,0,1:0:0:0:
196,109,88525,2,0,L|293:120,1,90,12|2,0:0|0:0,0:0:0:0:
416,315,88868,5,0,1:0:0:0:
298,134,89040,1,0,0:0:0:0:
267,283,89211,1,8,0:0:0:0:
447,165,89383,1,0,0:0:0:0:
267,283,89554,6,0,P|224:259|159:278,1,90,0|0,1:0|0:0,0:0:0:0:
41,354,89897,2,0,P|84:378|149:359,1,90,8|0,0:0|0:0,0:0:0:0:
193,242,90240,5,0,1:0:0:0:
13,124,90411,1,2,0:0:0:0:
162,93,90583,1,10,0:0:0:0:
44,274,90754,1,0,0:0:0:0:
162,93,90925,6,0,B|190:72|190:72|266:84,1,90,2|0,1:2|0:0,0:0:0:0:
352,163,91268,2,0,L|440:148,1,90,8|2,0:0|0:0,0:0:0:0:
497,30,91611,5,0,1:0:0:0:
437,169,91783,1,0,0:0:0:0:
357,39,91954,1,8,0:0:0:0:
252,235,92125,6,0,P|214:209|148:225,1,90,14|0,0:0|0:0,0:0:0:0:
82,239,92468,1,0,1:0:0:0:
185,378,92640,6,0,L|192:286,1,90,8|0,0:0|0:0,0:0:0:0:
5,29,92983,6,0,L|11:118,1,90,8|0,0:0|0:0,0:0:0:0:
361,91,93325,6,0,P|312:53|227:81,1,135,12|0,0:0|0:0,0:0:0:0:
348,109,93668,6,0,L|478:89,1,116.999994644165,6|2,1:2|0:0,0:0:0:0:
491,212,94183,2,0,P|455:162|484:96,2,116.999994644165,2|2|2,0:0|0:0|0:0,0:0:0:0:
256,192,95040,12,0,100525,0:0:0:0:
