osu file format v14

[General]
AudioFilename: audio.mp3
AudioLeadIn: 0
PreviewTime: 67865
Countdown: 0
SampleSet: Soft
StackLeniency: 1
Mode: 0
LetterboxInBreaks: 0
WidescreenStoryboard: 1

[Editor]
Bookmarks: 72291
DistanceSpacing: 1
BeatDivisor: 4
GridSize: 4
TimelineZoom: 1.7

[Metadata]
Title:Tele Telepathy
TitleUnicode:テレテレパシー
Artist:Tennoji Rina (CV: Tanaka Chiemi)
ArtistUnicode:天王寺璃奈 (CV: 田中ちえ美)
Creator:Doyak
Version:Normal
Source:ラブライブ!虹ヶ咲学園スクールアイドル同好会
Tags:Kyairie NotABox teletelepathy love live! school idol project nijigasaki academy club festival all stars llsifas video mobile game japanese LoveLive! ニジガク NijiGaku ラブライブ!スクールアイドルフェスティバル High School Gakuen Doukoukai Dōkōkai Love U my friends JPop J-Pop NOVECHIKA クボナオキ Kubo Naoki 縄田寿志 Hisashi Nawata pop
BeatmapID:3029299
BeatmapSetID:1449568

[Difficulty]
HPDrainRate:3
CircleSize:3.5
OverallDifficulty:4.5
ApproachRate:5.5
SliderMultiplier:1.2
SliderTickRate:1

[Events]
//Background and Video events
0,0,"173_t.png",0,0
//Break Periods
//Storyboard Layer 0 (Background)
//Storyboard Layer 1 (Fail)
//Storyboard Layer 2 (Pass)
//Storyboard Layer 3 (Foreground)
//Storyboard Layer 4 (Overlay)
//Storyboard Sound Samples

[TimingPoints]
314,413.793103448276,4,2,1,40,1,0
314,-111.111111111111,4,2,1,40,0,0
6314,-111.111111111111,4,2,2,40,0,0
6520,-100,4,2,2,90,0,0
6831,-100,4,2,2,5,0,0
6934,-100,4,2,2,70,0,0
13555,-90.9090909090909,4,2,2,90,0,1
28451,-90.9090909090909,4,2,2,90,0,0
31762,-90.9090909090909,4,2,2,60,0,0
33417,-100,4,2,2,75,0,0
40038,-111.111111111111,4,2,2,50,0,0
52865,-111.111111111111,4,2,2,70,0,0
53176,-111.111111111111,4,2,2,5,0,0
53279,-100,4,2,2,60,0,0
59900,-100,4,2,2,70,0,0
66934,-100,4,2,2,75,0,0
67348,-100,4,2,2,80,0,0
67762,-100,4,2,2,85,0,0
68176,-90.9090909090909,4,2,2,90,0,1
81314,-90.9090909090909,4,2,2,90,0,0
81417,-90.9090909090909,4,2,2,90,0,1
96314,-90.9090909090909,4,2,2,90,0,0
99624,-90.9090909090909,4,2,2,60,0,0
101279,-100,4,2,2,75,0,0
111210,-100,4,2,2,40,0,0

[Colours]
Combo1 : 70,238,242
Combo2 : 160,56,237
Combo3 : 238,13,226
Combo4 : 53,168,253

[HitObjects]
210,82,314,6,0,L|316:97,1,107.999996704102,2|10,0:2|0:2,0:2:0:0:
301,202,1141,2,0,L|194:186,1,107.999996704102,2|10,0:2|0:2,0:0:0:0:
140,178,1762,1,2,0:2:0:0:
49,237,2176,2,0,L|56:290,1,53.9999983520508,2|8,0:2|0:2,0:0:0:0:
63,345,2589,2,0,P|115:352|164:330,1,107.999996704102,10|2,0:2|0:2,0:2:0:0:
207,298,3210,1,10,0:2:0:0:
292,232,3624,6,0,L|307:338,1,107.999996704102,2|10,0:2|0:2,0:2:0:0:
412,323,4451,2,0,L|396:216,1,107.999996704102,2|8,0:2|0:2,0:0:0:0:
388,162,5072,1,2,0:2:0:0:
373,56,5486,2,0,L|426:48,2,53.9999983520508,2|2|2,0:2|0:2|0:2,0:0:0:0:
318,64,6107,2,0,L|265:72,1,53.9999983520508,2|2,0:2|3:2,0:0:0:0:
209,80,6520,1,8,0:2:0:0:
112,151,6934,6,0,P|87:96|96:38,2,120,6|8|0,3:2|0:2|3:2,0:2:0:0:
158,189,7969,1,2,0:2:0:0:
158,189,8176,2,0,L|149:248,1,60,10|2,0:2|0:2,0:0:0:0:
140,307,8589,2,0,L|258:323,1,120,2|8,3:2|0:2,0:2:0:0:
274,203,9417,2,0,L|392:219,1,120,2|8,3:2|0:2,0:2:0:0:
434,106,10245,6,0,P|375:97|321:121,1,120,2|8,3:2|0:2,0:0:0:0:
206,156,11072,1,12,0:2:0:0:
206,156,11279,2,0,L|197:96,1,60,10|10,0:2|0:2,0:0:0:0:
154,53,11693,2,0,P|100:76|42:68,1,120,6|2,3:2|0:2,0:2:0:0:
16,122,12314,2,0,L|25:182,1,60,2|2,0:2|0:2,0:0:0:0:
29,240,12727,1,12,0:2:0:0:
99,337,13141,1,10,0:2:0:0:
180,202,13555,6,0,L|245:211,1,66.0000020141602,6|2,3:2|0:2,0:0:0:0:
323,221,13969,2,0,L|388:230,1,66.0000020141602,10|2,0:2|0:2,0:0:0:0:
398,152,14382,2,0,L|332:142,1,66.0000020141602,2|2,3:2|0:2,0:0:0:0:
254,132,14796,2,0,L|188:122,1,66.0000020141602,10|2,0:2|0:2,0:0:0:0:
115,151,15210,6,0,P|132:212|98:267,1,132.00000402832,2|10,3:2|0:2,0:0:0:0:
150,327,15831,2,0,L|215:317,1,66.0000020141602,2|0,0:2|3:2,0:0:0:0:
293,308,16244,1,2,3:2:0:0:
293,308,16450,1,8,0:2:0:0:
449,286,16865,6,0,L|439:220,1,66.0000020141602,2|2,3:2|0:2,0:0:0:0:
429,144,17279,2,0,L|419:78,1,66.0000020141602,10|2,0:2|0:2,0:0:0:0:
341,89,17693,2,0,L|350:154,1,66.0000020141602,2|2,3:2|0:2,0:0:0:0:
361,232,18107,2,0,L|370:297,1,66.0000020141602,10|2,0:2|0:2,0:0:0:0:
300,335,18520,6,0,P|265:280|282:218,1,132.00000402832,2|10,3:2|0:2,0:0:0:0:
222,166,19141,2,0,L|156:176,1,66.0000020141602,2|0,0:2|3:2,0:0:0:0:
79,185,19555,1,2,0:2:0:0:
79,185,19761,1,8,0:2:0:0:
137,332,20176,6,0,P|177:358|224:346,2,99.0000030212403,6|2|2,3:2|0:2|0:2,0:0:0:0:
162,256,21003,2,0,L|228:266,1,66.0000020141602,2|0,3:2|0:2,0:0:0:0:
293,309,21417,1,8,0:2:0:0:
391,184,21831,6,0,P|417:143|405:96,2,99.0000030212403,2|2|2,3:2|0:2|0:2,0:0:0:0:
315,159,22658,2,0,L|325:93,1,66.0000020141602,2|8,3:2|0:1,0:0:0:0:
247,84,23072,2,0,L|237:150,1,66.0000020141602,10|2,0:1|0:2,0:0:0:0:
173,196,23486,6,0,L|107:196,2,66.0000020141602,4|10|2,3:2|0:2|3:2,0:0:0:0:
173,275,24107,2,0,L|107:275,2,66.0000020141602,6|8|2,3:2|0:2|3:2,0:0:0:0:
241,235,24727,1,8,0:2:0:0:
241,235,24934,5,6,3:2:0:0:
385,300,25348,2,0,L|385:366,2,66.0000020141602,2|2|2,0:2|0:2|0:2,0:0:0:0:
385,220,25969,1,10,0:2:0:0:
385,220,26176,2,0,L|385:154,1,66.0000020141602,2|0,3:2|3:2,0:0:0:0:
385,74,26589,5,6,3:2:0:0:
226,74,27003,2,0,L|226:8,2,66.0000020141602,2|2|2,0:2|0:2|0:2,0:0:0:0:
226,154,27624,1,10,0:2:0:0:
226,154,27831,2,0,L|226:220,1,66.0000020141602,10|0,0:2|3:2,0:0:0:0:
226,300,28244,1,0,3:2:0:0:
157,260,28451,5,6,3:2:0:0:
256,192,28555,12,2,31348,0:2:0:0:
310,231,33003,5,10,0:2:0:0:
407,157,33417,6,0,P|431:210|423:269,2,120,6|8|0,3:2|0:2|3:2,0:2:0:0:
358,123,34451,1,2,0:2:0:0:
358,123,34658,2,0,L|299:114,1,60,10|2,0:2|0:2,0:0:0:0:
240,105,35072,2,0,L|224:223,1,120,2|8,3:2|0:2,0:2:0:0:
344,239,35900,2,0,L|328:357,1,120,2|8,3:2|0:2,0:2:0:0:
208,340,36727,6,0,P|154:315|95:323,1,120,2|8,3:2|0:2,0:0:0:0:
139,211,37555,1,12,0:2:0:0:
139,211,37762,2,0,L|198:220,1,60,2|10,3:2|0:2,0:0:0:0:
251,191,38176,6,0,P|275:137|267:78,1,120,6|2,3:2|3:2,0:2:0:0:
215,48,38796,2,0,L|156:39,1,60,10|2,0:2|3:2,0:0:0:0:
96,29,39210,1,12,0:2:0:0:
79,147,39624,1,2,3:2:0:0:
62,265,40038,6,0,P|103:296|151:277,1,107.999996704102,6|10,3:2|0:2,0:2:0:0:
222,195,40865,1,2,3:2:0:0:
222,195,41072,2,0,L|214:141,1,53.9999983520508,2|10,3:2|0:2,0:0:0:0:
206,87,41486,2,0,P|247:55|295:74,1,107.999996704102,2|2,0:2|3:2,0:2:0:0:
384,137,42314,1,10,0:2:0:0:
384,137,42521,2,0,L|437:129,2,53.9999983520508,2|2|10,3:2|3:2|0:2,0:0:0:0:
319,223,43348,6,0,L|334:329,1,107.999996704102,2|8,3:2|0:2,0:2:0:0:
300,372,43969,2,0,L|246:364,1,53.9999983520508,10|2,0:2|3:2,0:0:0:0:
192,356,44382,1,2,3:2:0:0:
140,260,44796,1,2,0:2:0:0:
140,260,45003,2,0,L|86:252,1,53.9999983520508,2|2,3:2|3:2,0:0:0:0:
57,206,45417,2,0,L|3:198,2,53.9999983520508,10|10|2,0:2|0:2|3:2,0:0:0:0:
98,170,46038,1,10,3:1:0:0:
64,67,46451,1,2,0:2:0:0:
64,67,46658,6,0,L|117:59,1,53.9999983520508,6|2,3:2|3:2,0:2:0:0:
170,51,47072,2,0,L|223:43,1,53.9999983520508,10|10,0:2|0:2,0:0:0:0:
276,35,47486,2,0,L|329:27,2,53.9999983520508,2|2|10,3:2|3:2|0:2,0:0:0:0:
291,141,48314,2,0,L|237:148,1,53.9999983520508,2|2,3:2|3:2,0:0:0:0:
185,157,48727,2,0,L|131:164,1,53.9999983520508,10|10,0:2|0:2,0:0:0:0:
79,173,49141,2,0,L|25:180,2,53.9999983520508,2|2|10,3:2|3:2|0:2,0:0:0:0:
94,279,49969,6,0,P|62:320|81:368,1,107.999996704102,2|8,3:2|0:2,0:0:0:0:
189,384,50796,2,0,P|220:342|201:294,1,107.999996704102,2|8,3:2|0:2,0:2:0:0:
213,241,51417,1,2,0:2:0:0:
319,226,51831,1,2,3:2:0:0:
425,211,52245,1,10,0:2:0:0:
425,211,52451,2,0,L|432:264,1,53.9999983520508,2|8,3:2|3:1,0:0:0:0:
441,317,52865,1,12,0:1:0:0:
321,332,53279,6,0,P|297:279|305:220,1,120,2|10,3:2|0:2,0:2:0:0:
351,181,53900,1,2,0:2:0:0:
351,181,54107,2,0,P|375:128|367:69,1,120,2|10,3:2|0:2,0:2:0:0:
332,18,54727,1,2,0:2:0:0:
256,111,55141,1,2,0:2:0:0:
180,18,55555,2,0,L|62:34,1,120,2|2,0:2|3:2,0:2:0:0:
1,44,56176,1,10,0:2:0:0:
47,154,56589,6,0,L|38:213,1,60,2|2,3:2|0:2,0:0:0:0:
96,222,57003,2,0,L|87:281,1,60,10|2,0:2|0:2,0:0:0:0:
145,290,57417,2,0,L|136:349,2,60,2|2|10,3:2|3:2|0:2,0:0:0:0:
196,258,58038,2,0,P|254:249|308:273,1,120,2|2,0:2|0:2,0:2:0:0:
350,316,58658,1,8,0:2:0:0:
462,356,59072,2,0,P|470:297|446:243,1,120,0|12,3:2|0:2,0:0:0:0:
394,212,59693,6,0,L|403:153,1,60,2|4,0:2|3:2,0:0:0:0:
412,92,60107,1,2,3:2:0:0:
412,92,60314,2,0,L|353:83,1,60,10|10,0:2|0:2,0:0:0:0:
292,74,60727,2,0,L|283:133,1,60,2|2,0:2|3:2,0:0:0:0:
272,192,61141,1,10,0:2:0:0:
165,245,61555,1,6,3:2:0:0:
165,245,61762,2,0,L|156:186,1,60,10|2,0:2|3:2,0:0:0:0:
145,125,62176,2,0,L|27:141,1,120,6|0,3:2|3:2,0:2:0:0:
35,200,62796,2,0,L|44:259,1,60,8|10,0:2|0:2,0:0:0:0:
53,318,63210,5,6,3:2:0:0:
171,334,63624,1,0,3:2:0:0:
171,334,63831,1,14,0:2:0:0:
187,215,64245,1,2,0:2:0:0:
187,215,64451,2,0,L|128:206,1,60,6|8,3:2|0:2,0:0:0:0:
67,195,64865,1,0,3:2:0:0:
67,195,65072,2,0,L|58:254,2,60,6|0|0,3:2|3:2|3:2,0:0:0:0:
76,135,65693,1,0,3:2:0:0:
92,16,66107,1,8,0:2:0:0:
187,89,66520,6,0,L|246:80,1,60,6|10,3:2|0:2,0:0:0:0:
293,117,66934,2,0,L|352:108,1,60,10|10,0:2|0:2,0:0:0:0:
389,60,67348,2,0,L|448:51,1,60,10|10,0:2|0:2,0:2:0:0:
495,88,67762,1,10,0:2:0:0:
471,244,68176,6,0,L|461:308,1,66.0000020141602,6|2,3:2|0:2,0:0:0:0:
382,297,68589,2,0,L|391:232,1,66.0000020141602,10|2,0:2|0:2,0:0:0:0:
313,221,69003,2,0,L|303:285,1,66.0000020141602,2|2,3:2|0:2,0:0:0:0:
223,272,69417,2,0,L|232:207,1,66.0000020141602,10|2,0:2|0:2,0:0:0:0:
162,168,69831,6,0,P|127:222|144:284,1,132.00000402832,2|10,3:2|0:2,0:0:0:0:
157,364,70451,2,0,L|92:354,1,66.0000020141602,2|0,0:2|3:2,0:0:0:0:
13,340,70865,1,2,3:2:0:0:
13,340,71072,1,8,0:2:0:0:
46,184,71486,6,0,L|37:118,1,66.0000020141602,2|2,3:2|0:2,0:0:0:0:
116,108,71900,2,0,L|125:173,1,66.0000020141602,10|2,0:2|0:2,0:0:0:0:
205,162,72313,2,0,L|196:97,1,66.0000020141602,2|2,3:2|0:2,0:0:0:0:
276,88,72727,2,0,L|285:153,1,66.0000020141602,10|2,0:2|0:2,0:0:0:0:
359,182,73141,6,0,P|413:147|475:164,1,132.00000402832,2|10,3:2|0:2,0:0:0:0:
425,227,73762,2,0,L|414:292,1,66.0000020141602,2|0,0:2|3:2,0:0:0:0:
403,371,74176,1,2,0:2:0:0:
403,371,74383,1,8,0:2:0:0:
250,329,74796,6,0,P|224:289|236:242,2,99.0000030212403,6|2|2,3:2|0:2|0:2,0:0:0:0:
326,304,75624,2,0,L|316:238,1,66.0000020141602,2|0,3:2|0:2,0:0:0:0:
273,173,76037,1,8,0:2:0:0:
156,65,76451,6,0,P|109:51|67:75,2,99.0000030212403,2|2|2,3:2|0:2|0:2,0:0:0:0:
153,145,77279,2,0,L|86:153,1,66.0000020141602,2|0,3:2|3:2,0:0:0:0:
100,231,77693,2,0,L|166:222,1,66.0000020141602,10|2,0:2|0:2,0:0:0:0:
217,281,78107,6,0,L|217:347,2,66.0000020141602,4|2|8,3:2|0:2|0:2,0:0:0:0:
296,281,78727,1,2,3:2:0:0:
296,281,78934,2,0,L|296:347,2,66.0000020141602,12|2|0,0:2|3:2|3:2,0:0:0:0:
256,213,79555,5,6,3:2:0:0:
229,56,79969,2,0,L|163:56,2,66.0000020141602,2|10|2,3:2|0:2|3:2,0:0:0:0:
282,2,80589,1,10,0:2:0:0:
282,2,80796,2,0,P|307:61|281:120,1,132.00000402832,10|2,0:2|3:2,0:0:0:0:
203,131,81417,6,0,L|193:197,1,66.0000020141602,6|2,3:2|0:2,0:0:0:0:
183,273,81831,2,0,L|173:339,1,66.0000020141602,10|2,0:2|0:2,0:0:0:0:
95,328,82244,2,0,L|104:263,1,66.0000020141602,2|2,3:2|0:2,0:0:0:0:
115,185,82658,2,0,L|124:120,1,66.0000020141602,10|2,0:2|0:2,0:0:0:0:
196,87,83072,6,0,P|250:121|312:104,1,132.00000402832,2|10,3:2|0:2,0:0:0:0:
335,28,83693,2,0,L|270:19,1,66.0000020141602,2|0,0:2|3:2,0:0:0:0:
192,8,84107,1,2,3:2:0:0:
192,8,84314,1,8,0:2:0:0:
162,163,84727,6,0,L|227:154,1,66.0000020141602,2|2,3:2|0:2,0:0:0:0:
305,143,85141,2,0,L|370:134,1,66.0000020141602,10|2,0:2|0:2,0:0:0:0:
381,212,85555,2,0,L|315:222,1,66.0000020141602,2|2,3:2|0:2,0:0:0:0:
239,232,85969,2,0,L|173:242,1,66.0000020141602,10|2,0:2|0:2,0:0:0:0:
128,307,86382,6,0,P|93:252|111:190,1,132.00000402832,2|10,3:2|0:2,0:0:0:0:
185,162,87003,2,0,L|175:96,1,66.0000020141602,2|0,0:2|3:2,0:0:0:0:
165,19,87417,1,2,0:2:0:0:
165,19,87624,1,8,0:2:0:0:
264,141,88038,6,0,P|304:167|351:155,2,99.0000030212403,6|2|2,3:2|0:2|0:2,0:0:0:0:
289,65,88866,2,0,L|355:75,1,66.0000020141602,2|0,3:2|0:2,0:0:0:0:
420,118,89279,1,8,0:2:0:0:
448,280,89693,6,0,P|401:293|360:269,2,99.0000030212403,2|2|2,3:2|0:2|0:2,0:0:0:0:
483,208,90520,2,0,L|352:189,1,132.00000402832,2|10,3:2|0:2,0:0:0:0:
275,179,91141,1,2,0:2:0:0:
197,168,91348,5,12,0:2:0:0:
197,168,91555,1,2,0:2:0:0:
197,326,91969,2,0,B|329:326,1,132.00000402832,6|2,3:2|3:2,0:0:0:0:
409,326,92589,1,8,0:2:0:0:
409,326,92796,5,6,3:2:0:0:
409,167,93210,2,0,L|409:101,2,66.0000020141602,2|2|2,0:2|0:2|0:2,0:0:0:0:
329,167,93831,1,10,0:2:0:0:
329,167,94038,2,0,L|329:101,1,66.0000020141602,2|0,3:2|3:2,0:0:0:0:
329,21,94451,5,6,3:2:0:0:
170,21,94865,2,0,L|104:21,2,66.0000020141602,2|2|2,0:2|0:2|0:2,0:0:0:0:
170,101,95486,1,10,0:2:0:0:
170,101,95693,2,0,L|104:101,1,66.0000020141602,10|0,0:2|3:2,0:0:0:0:
24,101,96106,1,0,3:2:0:0:
64,169,96314,5,6,3:2:0:0:
256,192,96417,12,2,99210,0:2:0:0:
251,249,100865,5,10,0:2:0:0:
325,346,101279,6,0,P|272:370|213:362,2,120,6|8|0,3:2|0:2|3:2,0:2:0:0:
372,308,102314,1,2,0:2:0:0:
372,308,102520,2,0,L|431:317,1,60,10|2,0:2|0:2,0:0:0:0:
479,281,102934,2,0,L|495:163,1,120,2|8,3:2|0:2,0:2:0:0:
400,87,103762,2,0,L|384:205,1,120,2|8,3:2|0:2,0:2:0:0:
286,276,104589,6,0,P|262:223|270:164,1,120,2|8,3:2|0:2,0:0:0:0:
180,83,105417,1,12,0:2:0:0:
180,83,105624,2,0,L|121:92,1,60,2|2,3:2|3:2,0:0:0:0:
62,101,106038,6,0,L|78:219,1,120,6|2,3:2|3:2,0:2:0:0:
137,210,106658,2,0,L|146:269,1,60,10|2,0:2|3:2,0:0:0:0:
155,328,107072,1,12,0:2:0:0:
273,311,107486,1,2,3:2:0:0:
256,192,107900,5,6,3:2:0:0:
256,192,108003,12,0,111210,0:2:0:0:
