osu file format v14

[General]
AudioFilename: audio.mp3
AudioLeadIn: 0
PreviewTime: 67865
Countdown: 0
SampleSet: Soft
StackLeniency: 0.5
Mode: 0
LetterboxInBreaks: 0
WidescreenStoryboard: 0

[Editor]
DistanceSpacing: 1.1
BeatDivisor: 4
GridSize: 4
TimelineZoom: 0.9

[Metadata]
Title:Tele Telepathy
TitleUnicode:テレテレパシー
Artist:Tennoji Rina (CV: Tanaka Chiemi)
ArtistUnicode:天王寺璃奈 (CV: 田中ちえ美)
Creator:Doyak
Version:Message
Source:ラブライブ!虹ヶ咲学園スクールアイドル同好会
Tags:Kyairie NotABox teletelepathy love live! school idol project nijigasaki academy club festival all stars llsifas video mobile game japanese LoveLive! ニジガク NijiGaku ラブライブ!スクールアイドルフェスティバル High School Gakuen Doukoukai Dōkōkai Love U my friends JPop J-Pop NOVECHIKA クボナオキ Kubo Naoki 縄田寿志 Hisashi Nawata pop
BeatmapID:2980394
BeatmapSetID:1449568

[Difficulty]
HPDrainRate:6
CircleSize:4
OverallDifficulty:8.5
ApproachRate:9
SliderMultiplier:2
SliderTickRate:1

[Events]
//Background and Video events
0,0,"173_t.png",0,0
//Break Periods
//Storyboard Layer 0 (Background)
//Storyboard Layer 1 (Fail)
//Storyboard Layer 2 (Pass)
//Storyboard Layer 3 (Foreground)
//Storyboard Layer 4 (Overlay)
//Storyboard Sound Samples

[TimingPoints]
314,413.793103448276,4,2,1,40,1,0
314,-125,4,2,1,40,0,0
6314,-125,4,2,2,40,0,0
6520,-66.6666666666667,4,2,2,90,0,0
6831,-66.6666666666667,4,2,2,5,0,0
6934,-90.9090909090909,4,2,2,70,0,0
10658,-90.9090909090909,4,2,2,70,0,0
13555,-100,4,2,2,90,0,1
28451,-100,4,2,2,90,0,0
29279,-140.845070422535,4,2,2,90,0,0
31762,-140.845070422535,4,2,2,60,0,0
33417,-83.3333333333333,4,2,2,75,0,0
40038,-100,4,2,2,50,0,0
52865,-75.0187546886722,4,2,2,70,0,0
53176,-75.0187546886722,4,2,2,5,0,0
53279,-100,4,2,2,60,0,0
59900,-100,4,2,2,70,0,0
63210,-83.3333333333333,4,2,2,70,0,0
66934,-83.3333333333333,4,2,2,75,0,0
67348,-66.6666666666667,4,2,2,80,0,0
67762,-66.6666666666667,4,2,2,85,0,0
68176,-100,4,2,2,90,0,1
81314,-100,4,2,2,90,0,0
81417,-100,4,2,2,90,0,1
96314,-100,4,2,2,90,0,0
97141,-140.845070422535,4,2,2,90,0,0
99624,-140.845070422535,4,2,2,60,0,0
101279,-83.3333333333333,4,2,2,75,0,0
111210,-83.3333333333333,4,2,2,40,0,0

[Colours]
Combo1 : 70,238,242
Combo2 : 160,56,237
Combo3 : 238,13,226
Combo4 : 53,168,253

[HitObjects]
37,150,314,6,0,L|76:155,3,40,2|0|0|0,0:2|0:2|0:2|0:2,0:2:0:0:
165,213,727,2,0,L|126:218,3,40,10|0|0|0,0:2|0:2|0:2|0:2,0:2:0:0:
52,269,1141,6,0,L|47:230,1,40,2|0,0:2|0:2,0:2:0:0:
160,102,1348,2,0,L|154:141,1,40,2|0,0:2|0:2,0:2:0:0:
246,290,1555,2,0,L|241:251,1,40,10|0,0:2|0:2,0:2:0:0:
356,123,1762,6,0,L|350:162,3,40,2|0|0|0,0:2|0:2|0:2|0:2,0:2:0:0:
410,291,2176,2,0,L|415:252,1,40,2|0,0:2|0:2,0:2:0:0:
468,178,2382,2,0,L|429:172,1,40,8|0,0:2|0:2,0:2:0:0:
297,235,2589,6,0,L|336:241,3,40,10|0|0|0,0:2|0:2|0:2|0:2,0:2:0:0:
457,319,3003,2,0,L|442:282,1,40,2|0,0:2|0:2,0:2:0:0:
453,140,3210,2,0,L|428:171,3,40,10|0|0|0,0:2|0:2|0:2|0:2,0:2:0:0:
367,315,3624,6,0,L|327:310,3,40,2|0|0|0,0:2|0:2|0:2|0:2,0:2:0:0:
206,291,4038,2,0,L|246:296,3,40,10|0|0|0,0:2|0:2|0:2|0:2,0:2:0:0:
303,195,4451,6,0,L|298:234,1,40,2|0,0:2|0:2,0:2:0:0:
215,123,4658,2,0,L|210:83,1,40,2|0,0:2|0:2,0:2:0:0:
333,108,4865,2,0,L|294:114,1,40,8|0,0:2|0:2,0:2:0:0:
185,197,5072,6,0,L|224:202,2,40,2|0|0,0:2|0:2|0:2,0:2:0:0:
50,179,5486,1,2,0:2:0:0:
50,179,5693,1,2,0:2:0:0:
50,179,5900,1,2,0:2:0:0:
50,179,6107,6,0,L|55:218,1,40,2|2,0:2|0:2,0:2:0:0:
100,319,6314,2,0,L|105:280,1,40,2|2,3:2|0:2,0:2:0:0:
147,72,6520,6,0,P|234:108|161:167,1,225.000008583069,8|0,0:2|0:2,0:2:0:0:
243,235,6934,6,0,L|352:220,1,110.000003356934,6|0,3:2|0:2,0:2:0:0:
373,372,7348,2,0,L|265:387,1,110.000003356934,8|0,0:2|0:2,0:2:0:0:
122,328,7762,1,0,3:2:0:0:
151,114,7969,1,2,0:2:0:0:
122,328,8176,1,10,0:2:0:0:
151,114,8383,1,2,0:2:0:0:
202,308,8589,6,0,P|256:318|304:293,1,110.000003356934,2|0,3:2|0:2,0:2:0:0:
282,140,9003,2,0,P|228:129|180:154,1,110.000003356934,8|0,0:2|0:2,0:2:0:0:
376,359,9417,6,0,L|391:250,1,110.000003356934,2|0,3:2|0:2,0:2:0:0:
94,112,9831,2,0,L|108:220,1,110.000003356934,8|0,0:2|0:2,0:2:0:0:
235,344,10246,5,2,3:2:0:0:
235,344,10452,1,0,0:2:0:0:
276,39,10659,1,8,0:2:0:0:
276,39,10763,1,8,0:2:0:0:
276,39,10866,1,0,3:2:0:0:
418,214,11073,5,12,0:2:0:0:
377,208,11176,1,8,0:2:0:0:
336,202,11279,1,10,0:2:0:0:
296,197,11383,1,8,0:2:0:0:
256,192,11486,1,10,0:2:0:0:
14,273,11694,6,0,P|94:207|190:250,1,220.000006713867,6|2,3:2|0:2,0:2:0:0:
190,250,12313,1,2,0:2:0:0:
65,12,12521,2,0,L|80:120,1,110.000003356934,2|12,0:2|0:2,0:2:0:0:
119,346,12934,5,8,0:2:0:0:
160,339,13038,1,8,0:2:0:0:
201,334,13141,1,10,0:2:0:0:
241,328,13245,1,8,0:2:0:0:
282,323,13348,1,2,3:2:0:0:
407,213,13555,5,6,3:2:0:0:
427,62,13762,1,2,0:2:0:0:
276,40,13969,1,10,0:2:0:0:
256,192,14176,1,2,0:2:0:0:
235,343,14382,1,2,3:2:0:0:
84,321,14589,1,2,0:2:0:0:
104,170,14796,1,10,0:2:0:0:
256,192,15003,1,2,0:2:0:0:
386,364,15210,5,2,3:2:0:0:
427,62,15417,1,2,0:2:0:0:
125,19,15624,1,10,0:2:0:0:
84,321,15831,1,2,0:2:0:0:
256,192,16038,5,0,3:2:0:0:
256,192,16141,1,8,0:2:0:0:
256,192,16245,1,2,3:2:0:0:
235,343,16451,1,8,0:2:0:0:
276,40,16658,1,2,0:2:0:0:
407,170,16865,5,2,3:2:0:0:
427,321,17072,1,2,0:2:0:0:
276,343,17279,1,10,0:2:0:0:
256,192,17486,1,2,0:2:0:0:
235,40,17692,1,2,3:2:0:0:
84,62,17899,1,2,0:2:0:0:
104,213,18106,1,10,0:2:0:0:
256,192,18313,1,2,0:2:0:0:
386,19,18520,5,2,3:2:0:0:
427,321,18727,1,2,0:2:0:0:
125,364,18934,1,10,0:2:0:0:
84,62,19141,1,2,0:2:0:0:
256,192,19348,5,0,3:2:0:0:
256,192,19555,1,2,0:2:0:0:
235,40,19762,1,8,0:2:0:0:
276,343,19968,1,0,3:2:0:0:
276,343,20072,1,0,3:2:0:0:
276,343,20176,5,6,3:2:0:0:
235,40,20486,1,2,0:2:0:0:
235,40,20589,1,8,0:2:0:0:
407,170,20796,1,2,0:2:0:0:
104,213,21003,1,2,3:2:0:0:
256,192,21210,1,0,0:2:0:0:
407,170,21417,1,8,0:2:0:0:
407,170,21624,1,0,0:2:0:0:
234,358,21831,5,2,3:2:0:0:
279,24,22141,1,2,0:2:0:0:
279,24,22244,1,8,0:2:0:0:
89,167,22451,1,2,0:2:0:0:
423,215,22658,1,2,3:2:0:0:
423,215,22865,1,8,0:1:0:0:
89,167,23072,1,10,0:1:0:0:
234,358,23279,1,2,0:2:0:0:
423,25,23486,5,4,3:2:0:0:
163,25,23693,1,10,0:2:0:0:
126,25,23796,1,8,0:2:0:0:
89,25,23899,1,2,3:2:0:0:
89,359,24107,5,6,3:2:0:0:
349,359,24314,1,8,0:2:0:0:
386,359,24417,1,8,0:2:0:0:
423,359,24520,1,2,3:2:0:0:
423,25,24727,5,8,0:2:0:0:
109,192,24934,5,6,3:2:0:0:
109,192,25348,1,2,0:2:0:0:
402,192,25555,1,2,0:2:0:0:
77,192,25762,1,2,0:2:0:0:
434,192,25969,5,10,0:2:0:0:
434,192,26072,1,8,0:2:0:0:
434,192,26176,1,2,3:2:0:0:
256,369,26382,1,0,3:2:0:0:
137,73,26589,5,6,3:2:0:0:
137,73,27003,1,2,0:2:0:0:
373,309,27210,1,2,0:2:0:0:
111,47,27417,1,2,0:2:0:0:
399,335,27624,5,10,0:2:0:0:
399,335,27727,1,8,0:2:0:0:
399,335,27831,1,10,0:2:0:0:
399,335,27934,1,8,0:2:0:0:
399,335,28037,1,0,3:2:0:0:
399,335,28141,1,0,3:2:0:0:
399,335,28245,1,0,3:2:0:0:
399,47,28451,5,6,3:2:0:0:
399,47,28762,1,2,0:2:0:0:
399,47,29072,1,2,0:2:0:0:
256,192,29279,2,0,B|199:248|199:248|256:305|256:305|369:192|369:192|256:78|256:78|144:189,1,638.999967823793,2|0,0:2|0:2,0:2:0:0:
72,260,31348,1,2,0:2:0:0:
72,260,31555,1,2,0:2:0:0:
207,345,31762,5,0,3:2:0:0:
256,192,31969,1,8,0:2:0:0:
306,345,32176,1,0,3:2:0:0:
306,345,32279,1,0,3:2:0:0:
306,345,32382,1,0,3:2:0:0:
176,250,32589,1,8,0:2:0:0:
337,250,32796,1,8,0:2:0:0:
165,151,33003,5,10,0:2:0:0:
169,120,33106,1,8,0:2:0:0:
174,89,33209,1,8,0:2:0:0:
177,59,33313,1,8,0:2:0:0:
181,29,33417,6,0,P|238:17|291:44,1,119.999996337891,6|0,3:2|0:2,0:2:0:0:
268,211,33831,2,0,P|210:222|157:195,1,119.999996337891,8|0,0:2|0:2,0:2:0:0:
81,6,34245,1,0,3:2:0:0:
223,118,34451,1,2,0:2:0:0:
55,184,34658,1,10,0:2:0:0:
81,6,34865,1,2,0:2:0:0:
157,195,35072,6,0,L|140:313,1,119.999996337891,2|0,3:2|0:2,0:2:0:0:
307,336,35486,2,0,L|323:217,1,119.999996337891,8|0,0:2|0:2,0:2:0:0:
115,0,35900,6,0,P|88:52|99:110,1,119.999996337891,2|0,3:2|0:2,0:2:0:0:
401,151,36314,2,0,P|428:98|417:41,1,119.999996337891,8|0,0:2|0:2,0:2:0:0:
266,21,36727,5,2,3:2:0:0:
266,21,36934,1,0,0:2:0:0:
218,353,37141,1,8,0:2:0:0:
218,353,37245,1,8,0:2:0:0:
218,353,37348,1,0,3:2:0:0:
172,138,37555,5,12,0:2:0:0:
208,112,37658,1,8,0:2:0:0:
252,107,37761,1,2,3:2:0:0:
293,124,37865,1,0,3:2:0:0:
321,159,37968,1,10,0:2:0:0:
441,309,38176,6,0,L|407:71,1,239.999992675781,6|2,3:2|3:2,0:2:0:0:
407,71,38796,1,10,0:2:0:0:
344,322,39003,2,0,L|327:203,1,119.999996337891,2|12,3:2|0:2,0:2:0:0:
245,71,39417,5,0,3:2:0:0:
239,114,39520,1,0,3:2:0:0:
233,159,39624,1,2,3:2:0:0:
227,204,39727,1,0,3:2:0:0:
220,249,39830,1,0,3:2:0:0:
39,157,40038,6,0,P|88:147|132:169,1,100,6|0,3:2|3:2,0:2:0:0:
132,169,40348,1,2,0:2:0:0:
132,169,40451,1,10,0:2:0:0:
218,281,40658,1,8,0:2:0:0:
218,281,40762,1,8,0:2:0:0:
218,281,40865,1,2,3:2:0:0:
119,268,41072,1,2,3:2:0:0:
231,182,41279,1,10,0:2:0:0:
156,357,41486,6,0,P|199:380|248:373,1,100,2|0,0:2|3:2,0:2:0:0:
414,286,41900,2,0,L|315:300,1,100,2|8,3:2|0:2,0:2:0:0:
289,102,42313,1,10,0:2:0:0:
289,102,42417,1,8,0:2:0:0:
289,102,42520,1,2,3:2:0:0:
401,188,42727,1,2,3:2:0:0:
388,89,42934,1,10,0:2:0:0:
302,201,43141,1,2,0:2:0:0:
190,115,43348,6,0,P|168:70|177:22,1,100,2|0,3:2|3:2,0:2:0:0:
270,58,43762,1,8,0:2:0:0:
200,213,43969,1,10,0:2:0:0:
200,213,44072,1,10,0:2:0:0:
200,213,44176,1,2,3:2:0:0:
100,74,44382,2,0,L|0:60,1,100,2|8,3:2|0:2,0:2:0:0:
0,60,44796,1,2,0:2:0:0:
41,266,45003,5,2,3:2:0:0:
140,279,45210,1,2,3:2:0:0:
153,180,45417,1,10,0:2:0:0:
54,167,45624,1,10,0:2:0:0:
54,167,45727,1,8,0:2:0:0:
54,167,45831,1,2,3:2:0:0:
239,292,46038,2,0,L|253:192,1,100,10|8,3:1|0:1,0:2:0:0:
312,112,46451,1,2,0:2:0:0:
432,342,46658,6,0,P|440:292|416:249,1,100,6|2,3:2|3:2,0:2:0:0:
312,112,47072,1,10,0:2:0:0:
338,310,47279,1,10,0:2:0:0:
338,310,47382,1,8,0:2:0:0:
338,310,47486,1,2,3:2:0:0:
226,224,47693,1,2,3:2:0:0:
239,323,47900,1,10,0:2:0:0:
127,237,48107,1,2,0:2:0:0:
140,336,48314,5,2,3:2:0:0:
140,336,48520,1,2,3:2:0:0:
212,124,48727,1,10,0:2:0:0:
338,310,48934,1,10,0:2:0:0:
338,310,49037,1,8,0:2:0:0:
338,310,49141,2,0,L|352:210,1,100,2|2,3:2|3:2,0:2:0:0:
199,25,49555,2,0,L|213:125,1,100,10|2,0:2|0:2,0:2:0:0:
239,323,49969,5,2,3:2:0:0:
239,323,50176,1,0,3:2:0:0:
311,111,50382,1,8,0:2:0:0:
113,137,50589,1,8,0:2:0:0:
113,137,50693,1,8,0:2:0:0:
113,137,50796,2,0,P|89:93|98:45,1,100,2|0,3:2|3:2,0:2:0:0:
197,32,51210,1,8,0:2:0:0:
151,244,51417,6,0,L|51:230,1,100,2|0,0:2|3:2,0:2:0:0:
235,358,51831,2,0,L|334:372,1,100,2|8,3:2|0:2,0:2:0:0:
249,259,52245,1,10,0:2:0:0:
249,259,52348,1,8,0:2:0:0:
249,259,52451,1,2,3:2:0:0:
136,343,52658,1,8,3:1:0:0:
166,152,52865,6,0,L|365:180,1,199.950004362923,12|0,0:1|0:2,0:2:0:0:
414,234,53279,6,0,P|437:190|428:142,1,100,2|0,3:2|0:2,0:2:0:0:
220,71,53693,1,10,0:2:0:0:
246,269,53900,1,2,0:2:0:0:
327,108,54107,2,0,L|313:9,1,100,2|0,3:2|3:2,0:2:0:0:
220,71,54520,1,10,0:2:0:0:
345,256,54727,6,0,P|393:264|436:241,1,100,2|0,0:2|3:2,0:2:0:0:
278,180,55141,2,0,P|246:217|244:266,1,100,2|8,0:2|0:2,0:2:0:0:
376,160,55555,2,0,P|359:113|317:87,1,100,2|0,0:2|3:2,0:2:0:0:
145,282,55969,1,2,3:2:0:0:
145,282,56176,2,0,L|244:296,1,100,10|2,0:2|0:2,0:2:0:0:
318,87,56589,5,2,3:2:0:0:
442,272,56796,1,2,0:2:0:0:
231,199,57003,1,10,0:2:0:0:
416,74,57210,1,2,0:2:0:0:
343,285,57417,1,2,3:2:0:0:
218,100,57624,1,2,3:2:0:0:
429,173,57831,1,10,0:2:0:0:
244,298,58038,6,0,L|230:199,1,100,2|0,0:2|3:2,0:2:0:0:
205,1,58451,1,2,0:2:0:0:
138,154,58658,2,0,P|116:111|126:63,1,100,8|0,0:2|0:2,0:2:0:0:
218,100,59072,1,0,3:2:0:0:
218,100,59279,1,0,3:2:0:0:
149,258,59486,1,12,0:2:0:0:
46,119,59693,1,2,0:2:0:0:
162,357,59900,5,4,3:2:0:0:
350,357,60107,1,2,3:2:0:0:
149,258,60314,1,10,0:2:0:0:
363,258,60520,1,10,0:2:0:0:
136,159,60727,1,2,0:2:0:0:
376,159,60934,1,2,3:2:0:0:
123,60,61141,1,10,0:2:0:0:
389,60,61348,1,2,0:2:0:0:
256,290,61555,5,6,3:2:0:0:
256,60,61762,1,10,0:2:0:0:
256,60,61865,1,8,0:2:0:0:
256,60,61969,2,0,L|256:110,1,50,2|0,3:2|3:2,0:2:0:0:
183,311,62176,2,0,P|255:368|328:311,1,200,6|0,3:2|3:2,0:2:0:0:
389,60,62796,1,8,0:2:0:0:
123,60,63003,2,0,L|123:110,1,50,10|8,0:2|0:2,0:2:0:0:
80,280,63210,6,0,P|123:193|167:279,1,239.999992675781,6|0,3:2|3:2,0:2:0:0:
256,56,63831,6,0,L|256:176,1,119.999996337891,14|0,0:2|3:2,0:2:0:0:
256,354,64245,1,2,0:2:0:0:
345,116,64451,5,6,3:2:0:0:
434,354,64658,1,8,0:2:0:0:
434,354,64762,1,8,0:2:0:0:
434,354,64865,1,0,3:2:0:0:
124,193,65072,5,6,3:2:0:0:
227,133,65279,5,0,3:2:0:0:
227,253,65486,1,0,3:2:0:0:
124,313,65693,1,0,3:2:0:0:
20,253,65899,1,0,3:2:0:0:
20,133,66106,1,8,0:2:0:0:
124,73,66313,1,8,0:2:0:0:
124,73,66417,1,8,0:2:0:0:
124,73,66520,5,6,3:2:0:0:
227,373,66727,1,10,0:2:0:0:
266,367,66830,1,8,0:2:0:0:
306,361,66933,1,10,0:2:0:0:
345,356,67037,1,8,0:2:0:0:
385,350,67140,1,10,0:2:0:0:
425,345,67244,1,8,0:2:0:0:
464,339,67348,6,0,P|467:301|454:267,1,75.0000028610231,10|8,0:2|0:2,0:2:0:0:
463,161,67555,2,0,P|429:177|406:206,1,75.0000028610231,10|8,0:2|0:2,0:2:0:0:
311,250,67762,2,0,P|342:271|379:278,1,75.0000028610231,10|8,0:2|0:2,0:2:0:0:
454,267,67969,1,2,3:2:0:0:
427,62,68176,5,6,3:2:0:0:
276,40,68383,1,2,0:2:0:0:
125,19,68589,1,10,0:2:0:0:
104,170,68797,1,2,0:2:0:0:
84,321,69003,1,2,3:2:0:0:
235,343,69210,1,2,0:2:0:0:
386,364,69417,1,10,0:2:0:0:
407,213,69624,1,2,0:2:0:0:
427,62,69831,5,2,3:2:0:0:
386,364,70038,1,2,0:2:0:0:
84,321,70245,1,10,0:2:0:0:
125,19,70452,1,2,0:2:0:0:
256,192,70658,5,0,3:2:0:0:
256,192,70762,1,8,0:2:0:0:
256,192,70865,1,2,3:2:0:0:
276,40,71072,1,8,0:2:0:0:
235,343,71279,1,2,0:2:0:0:
85,62,71486,5,2,3:2:0:0:
236,40,71693,1,2,0:2:0:0:
387,19,71899,1,10,0:2:0:0:
408,170,72107,1,2,0:2:0:0:
428,321,72313,1,2,3:2:0:0:
277,343,72520,1,2,0:2:0:0:
126,364,72727,1,10,0:2:0:0:
105,213,72934,1,2,0:2:0:0:
85,62,73141,5,2,3:2:0:0:
126,364,73348,1,2,0:2:0:0:
428,321,73555,1,10,0:2:0:0:
387,19,73762,1,2,0:2:0:0:
256,192,73968,5,0,3:2:0:0:
256,192,74175,1,2,0:2:0:0:
236,40,74382,1,8,0:2:0:0:
277,343,74589,1,0,3:2:0:0:
277,343,74693,1,0,3:2:0:0:
277,343,74796,5,6,3:2:0:0:
236,40,75107,1,2,0:2:0:0:
236,40,75210,1,8,0:2:0:0:
407,170,75417,1,2,0:2:0:0:
104,213,75624,1,2,3:2:0:0:
256,192,75831,1,0,0:2:0:0:
407,170,76038,1,8,0:2:0:0:
407,170,76245,1,0,0:2:0:0:
234,358,76452,5,2,3:2:0:0:
279,24,76762,1,2,0:2:0:0:
279,24,76865,1,8,0:2:0:0:
89,167,77072,1,2,0:2:0:0:
423,215,77279,1,2,3:2:0:0:
423,215,77382,1,8,0:2:0:0:
423,215,77486,1,0,3:2:0:0:
89,167,77693,1,10,0:2:0:0:
234,358,77900,1,2,0:2:0:0:
423,25,78107,5,4,3:2:0:0:
256,192,78314,1,2,0:2:0:0:
89,25,78520,1,8,0:2:0:0:
89,25,78624,1,8,0:2:0:0:
89,25,78727,1,2,3:2:0:0:
89,359,78934,5,12,0:2:0:0:
256,192,79141,1,2,3:2:0:0:
423,359,79348,1,0,3:2:0:0:
109,192,79555,5,6,3:2:0:0:
109,192,79969,1,2,3:2:0:0:
402,192,80176,1,10,0:2:0:0:
77,192,80383,1,2,3:2:0:0:
434,192,80590,5,10,0:2:0:0:
256,369,80796,1,10,0:2:0:0:
256,369,80900,1,8,0:2:0:0:
256,369,81003,1,0,3:2:0:0:
256,15,81210,1,2,3:2:0:0:
256,192,81417,5,6,3:2:0:0:
104,170,81624,1,2,0:2:0:0:
84,321,81830,1,10,0:2:0:0:
235,343,82038,1,2,0:2:0:0:
256,192,82245,1,2,3:2:0:0:
276,40,82451,1,2,0:2:0:0:
427,62,82658,1,10,0:2:0:0:
407,213,82865,1,2,0:2:0:0:
386,364,83072,5,2,3:2:0:0:
427,62,83279,1,2,0:2:0:0:
125,19,83486,1,10,0:2:0:0:
84,321,83693,1,2,0:2:0:0:
256,192,83899,5,0,3:2:0:0:
256,192,84003,1,8,0:2:0:0:
256,192,84106,1,2,3:2:0:0:
235,343,84313,1,8,0:2:0:0:
276,40,84520,1,2,0:2:0:0:
256,192,84727,5,2,3:2:0:0:
104,214,84934,1,2,0:2:0:0:
84,63,85140,1,10,0:2:0:0:
235,41,85348,1,2,0:2:0:0:
256,192,85555,1,2,3:2:0:0:
276,344,85761,1,2,0:2:0:0:
427,322,85968,1,10,0:2:0:0:
407,171,86175,1,2,0:2:0:0:
386,20,86382,5,2,3:2:0:0:
427,322,86589,1,2,0:2:0:0:
125,365,86796,1,10,0:2:0:0:
84,63,87003,1,2,0:2:0:0:
256,192,87209,5,0,3:2:0:0:
256,192,87416,1,2,0:2:0:0:
235,41,87623,1,8,0:2:0:0:
276,344,87830,1,0,3:2:0:0:
276,344,87934,1,0,3:2:0:0:
276,344,88038,5,6,3:2:0:0:
236,40,88348,1,2,0:2:0:0:
236,40,88451,1,8,0:2:0:0:
407,170,88658,1,2,0:2:0:0:
104,213,88865,1,2,3:2:0:0:
256,192,89072,1,0,0:2:0:0:
407,170,89279,1,8,0:2:0:0:
407,170,89486,1,0,0:2:0:0:
234,358,89693,5,2,3:2:0:0:
279,24,90003,1,2,0:2:0:0:
279,24,90106,1,8,0:2:0:0:
89,167,90313,1,2,0:2:0:0:
423,215,90520,1,2,3:2:0:0:
423,215,90727,1,0,0:2:0:0:
89,167,90934,1,10,0:2:0:0:
234,358,91141,1,2,0:2:0:0:
423,25,91348,5,12,0:2:0:0:
423,25,91555,1,2,0:2:0:0:
89,359,91969,5,6,3:2:0:0:
89,359,92382,1,2,3:2:0:0:
423,359,92589,5,8,0:2:0:0:
256,45,92796,5,6,3:2:0:0:
256,45,93210,1,2,0:2:0:0:
256,338,93417,1,2,0:2:0:0:
256,13,93624,1,2,0:2:0:0:
256,370,93831,5,10,0:2:0:0:
256,370,93934,1,8,0:2:0:0:
256,370,94038,1,2,3:2:0:0:
79,192,94244,1,0,3:2:0:0:
375,73,94451,5,6,3:2:0:0:
375,73,94865,1,2,0:2:0:0:
139,309,95072,1,2,0:2:0:0:
401,47,95279,1,2,0:2:0:0:
113,335,95486,5,10,0:2:0:0:
113,335,95589,1,8,0:2:0:0:
113,335,95693,1,10,0:2:0:0:
113,335,95796,1,8,0:2:0:0:
113,335,95899,1,0,3:2:0:0:
113,335,96003,1,0,3:2:0:0:
113,335,96107,1,0,3:2:0:0:
111,49,96313,5,6,3:2:0:0:
111,49,96624,1,2,0:2:0:0:
111,49,96934,1,2,0:2:0:0:
256,194,97141,2,0,B|312:251|312:251|369:194|369:194|256:81|256:81|142:194|142:194|253:305,1,638.999967823793,2|0,0:2|0:2,0:2:0:0:
324,378,99210,1,2,0:2:0:0:
256,11,99624,5,0,3:2:0:0:
169,162,99831,1,8,0:2:0:0:
342,162,100038,1,0,3:2:0:0:
342,162,100142,1,0,3:2:0:0:
342,162,100245,1,0,3:2:0:0:
170,63,100451,5,8,0:2:0:0:
256,212,100658,1,8,0:2:0:0:
343,63,100865,1,10,0:2:0:0:
374,67,100969,1,8,0:2:0:0:
405,72,101072,1,8,0:2:0:0:
435,75,101176,1,8,0:2:0:0:
465,79,101279,6,0,L|482:197,1,119.999996337891,6|0,3:2|0:2,0:2:0:0:
317,220,101693,2,0,L|300:102,1,119.999996337891,8|0,0:2|0:2,0:2:0:0:
133,34,102107,1,0,3:2:0:0:
158,211,102314,1,2,0:2:0:0:
300,101,102520,1,10,0:2:0:0:
133,34,102727,1,2,0:2:0:0:
116,301,102934,6,0,P|173:312|226:285,1,119.999996337891,2|0,3:2|0:2,0:2:0:0:
203,119,103348,2,0,P|145:107|92:134,1,119.999996337891,8|0,0:2|0:2,0:2:0:0:
306,357,103762,6,0,L|323:239,1,119.999996337891,2|0,3:2|0:2,0:2:0:0:
185,0,104176,2,0,L|202:118,1,119.999996337891,8|0,0:2|0:2,0:2:0:0:
226,285,104589,5,2,3:2:0:0:
226,285,104796,1,0,0:2:0:0:
358,47,105003,1,8,0:2:0:0:
358,47,105107,1,8,0:2:0:0:
358,47,105210,1,0,3:2:0:0:
315,271,105417,5,12,0:2:0:0:
309,230,105520,1,8,0:2:0:0:
303,189,105623,1,2,3:2:0:0:
298,149,105727,1,0,3:2:0:0:
293,109,105830,1,2,3:2:0:0:
447,331,106038,6,0,P|396:230|473:148,1,239.999992675781,6|2,3:2|3:2,0:2:0:0:
473,148,106658,1,10,0:2:0:0:
198,196,106865,2,0,L|80:179,1,119.999996337891,2|12,3:2|0:2,0:2:0:0:
79,9,107279,5,8,0:2:0:0:
120,15,107382,1,8,0:2:0:0:
161,21,107485,1,2,3:2:0:0:
201,26,107589,1,0,3:2:0:0:
241,31,107692,1,0,3:2:0:0:
116,343,107900,5,6,3:2:0:0:
256,192,108003,12,0,111210,0:2:0:0:
