osu file format v14

[General]
AudioFilename: audio.mp3
AudioLeadIn: 0
PreviewTime: 206089
Countdown: 0
SampleSet: Soft
StackLeniency: 0.3
Mode: 0
LetterboxInBreaks: 0
WidescreenStoryboard: 0

[Editor]
DistanceSpacing: 1
BeatDivisor: 4
GridSize: 4
TimelineZoom: 1.8

[Metadata]
Title:Analog Heart
TitleUnicode:アナログハート
Artist:Tennoji Rina (CV: Tanaka Chiemi)
ArtistUnicode:天王寺璃奈 (CV: 田中ちえ美)
Creator:Sekai
Version:Connected <3
Source:ラブライブ!虹ヶ咲学園スクールアイドル同好会
Tags:all stars J-pop Jpop Sekaii Sekai-nyan Love Live! Nijigasaki High School Idol Club Just Believe!!! 3rd album tennouji analogue japanese pop electronic NOVECHIKA 米澤森人Yonezawa Morito 藤原彩豊 Fujiwara Ayato JOE
BeatmapID:2684118
BeatmapSetID:1293413

[Difficulty]
HPDrainRate:6
CircleSize:5
OverallDifficulty:7
ApproachRate:8
SliderMultiplier:1.6
SliderTickRate:1

[Events]
//Background and Video events
0,0,"rinacute.jpg",0,0
//Break Periods
//Storyboard Layer 0 (Background)
//Storyboard Layer 1 (Fail)
//Storyboard Layer 2 (Pass)
//Storyboard Layer 3 (Foreground)
//Storyboard Layer 4 (Overlay)
//Storyboard Sound Samples

[TimingPoints]
710,571.428571428571,4,2,1,40,1,0
710,-100,4,2,1,40,0,0
2995,-100,4,2,1,20,0,0
6138,-100,4,2,1,5,0,0
6424,-100,4,2,1,50,0,0
6638,-125,4,2,2,40,0,0
6988,-125,4,2,1,5,0,0
7090,444.444444444444,4,2,1,60,1,0
7090,-100,4,2,1,60,0,0
13756,-125,4,2,2,40,0,0
14089,-125,4,2,1,5,0,0
14201,-100,4,2,1,60,0,0
19312,-125,4,2,1,60,0,0
20534,-125,4,2,1,5,0,0
20645,-100,4,2,1,60,0,0
49756,-111.111111111111,4,2,1,50,0,0
56867,-100,4,2,1,60,0,0
63978,-90.9090909090909,4,2,1,70,0,1
95978,-100,4,2,1,60,0,0
117312,-111.111111111111,4,2,1,50,0,0
124423,-100,4,2,1,60,0,0
131534,-90.9090909090909,4,2,1,70,0,1
163534,-100,4,2,1,60,0,0
177756,-111.111111111111,4,2,1,50,0,0
191978,-100,4,2,1,60,0,0
203534,-100,4,2,1,50,0,0
204423,-100,4,2,1,60,0,0
205756,-100,4,2,2,40,0,0
206201,-125,4,2,1,60,0,0
216867,-111.111111111111,4,2,1,60,0,0
218645,-100,4,2,1,60,0,0
220423,-90.9090909090909,4,2,1,70,0,1
231089,-111.111111111111,4,2,1,60,0,0
233312,-111.111111111111,4,2,2,40,0,0
233756,444.444444444444,4,2,1,70,1,1
233756,-90.9090909090909,4,2,1,70,0,1
265755,-100,4,2,1,60,0,0
272867,-100,4,2,1,40,0,0
273311,-100,4,2,1,30,0,0
273755,-100,4,2,1,20,0,0
274200,-100,4,2,1,10,0,0
274644,-100,4,2,1,5,0,0

[Colours]
Combo1 : 165,213,225
Combo2 : 238,116,170
SliderBorder : 238,116,170
SliderTrackOverride : 165,213,225

[HitObjects]
188,124,710,6,0,L|220:156,1,40,2|0,0:0|0:0,0:0:0:0:
324,124,995,2,0,L|292:156,1,40,0|0,0:0|0:0,0:0:0:0:
324,260,1281,2,0,L|292:228,1,40,0|0,0:0|0:0,0:0:0:0:
188,260,1567,2,0,L|220:228,1,40,0|0,0:0|0:0,0:0:0:0:
140,192,1852,1,2,0:0:0:0:
256,76,2138,1,0,0:0:0:0:
372,192,2424,1,0,0:0:0:0:
256,308,2709,1,0,0:0:0:0:
256,192,2995,12,0,6138,0:0:0:0:
256,192,6424,5,0,1:0:0:0:
256,192,6638,2,0,P|300:192|336:216,1,80,8|0,0:0|0:0,0:0:0:0:
370,231,7090,6,0,L|438:79,1,160,4|8,1:2|0:0,0:0:0:0:
492,212,7756,1,0,1:0:0:0:
492,212,7978,2,0,L|424:364,1,160,2|8,1:0|0:0,0:0:0:0:
292,296,8645,1,0,1:0:0:0:
292,296,8867,2,0,B|232:304|200:272|200:272|136:272,1,160,2|8,1:0|0:0,0:0:0:0:
48,192,9534,1,0,1:0:0:0:
48,192,9756,2,0,P|32:156|48:120,1,80,2|0,1:0|1:0,0:0:0:0:
160,28,10201,2,0,P|175:63|159:99,1,80,8|0,1:2|1:0,0:0:0:0:
80,24,10645,6,0,L|240:24,1,160,2|8,1:0|0:0,0:0:0:0:
400,80,11312,1,0,1:0:0:0:
400,80,11534,2,0,P|436:148|400:216,1,160,2|8,1:0|0:0,0:0:0:0:
256,308,12201,1,4,1:2:0:0:
112,215,12423,5,0,1:0:0:0:
112,199,12534,1,0,1:0:0:0:
112,183,12645,1,0,1:0:0:0:
112,167,12756,1,0,1:0:0:0:
112,151,12867,1,0,1:0:0:0:
112,135,12978,1,0,1:0:0:0:
112,119,13089,1,0,1:0:0:0:
112,103,13201,1,0,1:0:0:0:
112,87,13312,1,0,1:0:0:0:
112,71,13423,1,0,1:0:0:0:
112,55,13534,1,0,1:0:0:0:
112,40,13645,1,0,1:0:0:0:
112,24,13756,6,0,P|152:24|200:56,1,96,8|0,1:2|0:0,0:0:0:0:
232,88,14201,6,0,B|272:88|304:58|304:58|336:88|376:88,1,160,4|8,1:2|0:0,0:0:0:0:
440,192,14867,1,0,1:0:0:0:
376,296,15089,2,0,B|336:296|304:326|304:326|272:296|232:296,1,160,2|8,1:0|0:0,0:0:0:0:
124,348,15756,1,0,1:0:0:0:
124,348,15978,2,0,B|88:365|88:365|52:348,1,80,2|0,1:0|0:0,0:0:0:0:
8,228,16423,2,0,B|-9:192|-9:192|8:156,1,80,8|0,0:0|1:0,0:0:0:0:
52,36,16867,2,0,B|88:19|88:19|124:36,1,80,2|0,1:0|1:0,0:0:0:0:
172,148,17312,1,8,1:2:0:0:
256,64,17534,1,0,1:0:0:0:
340,148,17756,6,0,P|420:148|480:208,1,160,2|8,1:0|0:0,0:0:0:0:
356,296,18423,1,0,1:0:0:0:
356,296,18645,2,0,L|392:220,1,80,2|0,1:0|1:0,0:0:0:0:
448,72,19089,1,8,1:2:0:0:
300,12,19312,6,0,B|246:65|192:51|192:51|113:130|113:130|127:184|73:238,1,352,4|0,1:2|0:0,0:0:0:0:
74,237,20645,1,0,1:0:0:0:
152,364,20867,1,8,0:0:0:0:
152,364,21312,6,0,L|339:328,1,160,0|8,1:0|0:0,0:0:0:0:
433,308,21978,1,0,1:0:0:0:
433,236,22201,2,0,P|448:271|433:307,1,80,2|0,0:0|0:0,0:0:0:0:
324,228,22645,2,0,P|308:192|324:156,1,80,8|0,0:0|0:0,0:0:0:0:
184,72,23089,6,0,B|224:72|256:42|256:42|288:72|328:72,1,160,2|8,1:0|0:0,0:0:0:0:
256,144,23756,1,0,1:0:0:0:
184,72,23978,2,0,B|167:36|167:36|184:0,1,80,2|0,0:0|1:0,0:0:0:0:
328,0,24423,2,0,B|345:36|345:36|328:72,1,80,8|0,0:0|0:0,0:0:0:0:
256,300,24867,6,0,B|228:224|276:224|256:144,1,160,2|8,1:0|0:0,0:0:0:0:
99,143,25534,1,0,1:0:0:0:
99,143,25756,2,0,B|175:115|175:163|255:143,1,160,2|8,0:0|0:0,0:0:0:0:
364,100,26423,1,0,0:0:0:0:
436,192,26645,6,0,P|451:227|435:263,1,80,2|0,1:0|0:0,0:0:0:0:
332,344,27089,2,0,P|316:308|331:272,1,80,8|0,0:0|1:0,0:0:0:0:
436,192,27534,1,2,0:0:0:0:
331,272,27756,1,0,1:0:0:0:
256,164,27978,1,8,0:0:0:0:
372,92,28201,1,0,0:0:0:0:
256,164,28423,6,0,L|80:140,1,160,2|8,1:0|0:0,0:0:0:0:
192,72,29089,1,0,1:0:0:0:
84,216,29312,2,0,L|172:228,1,80,2|0,0:0|0:0,0:0:0:0:
192,72,29756,2,0,L|112:61,1,80,8|0,0:0|0:0,0:0:0:0:
97,142,30201,6,0,L|256:164,1,160,2|8,1:0|0:0,0:0:0:0:
392,184,30867,1,0,1:0:0:0:
256,164,31089,2,0,B|239:200|239:200|256:236,1,80,2|0,0:0|1:0,0:0:0:0:
392,184,31534,2,0,B|409:148|409:148|392:112,1,80,8|0,0:0|0:0,0:0:0:0:
164,120,31978,6,0,B|128:192|128:192|164:264,1,160,2|8,1:0|0:0,0:0:0:0:
52,152,32645,1,0,1:0:0:0:
52,152,32867,2,0,L|88:76,1,80,2|0,1:0|0:0,0:0:0:0:
52,232,33312,2,0,L|88:308,1,80,8|0,0:0|1:0,0:0:0:0:
176,192,33756,6,0,B|256:172|256:220|332:192,1,160,2|8,1:0|0:0,0:0:0:0:
475,191,34423,1,0,1:0:0:0:
360,107,34645,1,2,1:0:0:0:
404,243,34867,1,0,1:0:0:0:
448,107,35089,1,8,1:2:0:0:
332,191,35312,1,0,0:0:0:0:
475,191,35534,6,0,P|490:226|474:262,1,80,4|0,1:2|0:0,0:0:0:0:
333,341,35978,2,0,P|317:305|332:269,1,80,8|0,0:0|0:0,0:0:0:0:
492,191,36423,2,0,P|507:226|491:262,1,80,2|0,1:0|0:0,0:0:0:0:
314,341,36867,2,0,P|298:305|313:269,1,80,8|0,0:0|0:0,0:0:0:0:
184,148,37312,6,0,B|224:148|256:118|256:118|288:148|328:148,1,160,2|8,1:0|0:0,0:0:0:0:
256,36,37978,1,0,0:0:0:0:
184,148,38201,2,0,B|167:184|167:184|184:220,1,80,2|0,1:0|0:0,0:0:0:0:
328,220,38645,2,0,B|345:184|345:184|328:148,1,80,8|0,0:0|0:0,0:0:0:0:
184,316,39089,6,0,B|256:280|256:280|328:316,1,160,2|8,1:0|0:0,0:0:0:0:
184,232,39756,1,0,0:0:0:0:
184,232,39978,2,0,B|256:196|256:196|328:232,1,160,2|8,1:0|0:0,0:0:0:0:
180,132,40645,1,0,0:0:0:0:
180,132,40867,6,0,B|163:96|163:96|180:60,1,80,2|0,1:0|0:0,0:0:0:0:
332,60,41312,2,0,B|349:96|349:96|332:132,1,80,8|0,0:0|0:0,0:0:0:0:
256,348,41756,2,0,B|228:272|276:272|256:192,1,160,2|8,1:0|0:0,0:0:0:0:
328,300,42423,1,0,0:0:0:0:
328,300,42645,6,0,L|388:240,1,80,2|0,1:0|0:0,0:0:0:0:
168,212,43089,2,0,L|111:268,1,80,8|0,0:0|0:0,0:0:0:0:
220,124,43534,2,0,P|256:108|292:124,1,80,2|0,1:0|0:0,0:0:0:0:
291,260,43978,2,0,P|255:275|220:260,1,80,8|0,0:0|0:0,0:0:0:0:
188,56,44423,6,0,P|256:20|324:56,1,160,2|8,1:0|0:0,0:0:0:0:
256,152,45089,1,0,0:0:0:0:
188,56,45312,1,2,1:0:0:0:
324,56,45534,1,0,0:0:0:0:
256,152,45756,2,0,L|340:168,1,80,8|0,0:0|0:0,0:0:0:0:
376,296,46201,6,0,L|204:260,1,160,2|8,1:0|0:0,0:0:0:0:
100,240,46867,1,0,0:0:0:0:
100,240,47089,2,0,P|84:275|100:311,1,80,2|0,1:0|0:0,0:0:0:0:
219,263,47534,2,0,P|234:227|219:191,1,80,8|0,0:0|0:0,0:0:0:0:
184,68,47978,6,0,B|224:68|256:38|256:38|288:68|328:68,1,160,2|8,1:0|0:0,0:0:0:0:
256,152,48645,1,0,0:0:0:0:
256,152,48867,1,2,1:0:0:0:
212,287,49089,1,0,1:0:0:0:
327,203,49312,1,8,1:2:0:0:
184,203,49534,1,0,1:0:0:0:
300,287,49756,6,0,P|364:315|428:287,1,143.999995605469,4|0,1:2|0:0,0:0:0:0:
480,192,50423,1,2,1:0:0:0:
480,192,50645,2,0,P|447:177|415:191,1,71.9999978027344,0|0,0:0|0:0,0:0:0:0:
300,287,51089,2,0,P|333:302|365:288,1,71.9999978027344,2|0,0:0|1:0,0:0:0:0:
368,124,51534,6,0,L|328:228,2,107.999996704102,0|0|0,1:0|1:0|1:0,0:0:0:0:
260,180,52423,2,0,L|286:112,1,71.9999978027344,8|0,0:0|0:0,0:0:0:0:
192,124,52867,2,0,L|165:191,1,71.9999978027344,2|0,0:0|1:0,0:0:0:0:
192,304,53312,6,0,P|256:332|320:304,1,143.999995605469,0|2,1:0|0:0,0:0:0:0:
256,220,53978,1,0,1:0:0:0:
192,304,54201,2,0,P|177:337|191:369,1,71.9999978027344,0|2,0:0|0:0,0:0:0:0:
322,367,54645,2,0,P|335:334|320:302,1,71.9999978027344,0|0,0:0|1:0,0:0:0:0:
256,220,55089,6,0,B|256:180|256:180|240:156|240:156|240:112,2,107.999996704102,0|0|0,1:0|1:0|1:0,0:0:0:0:
324,140,55978,2,0,B|356:124|356:124|388:140,1,71.9999978027344,8|0,0:0|1:0,0:0:0:0:
388,244,56423,2,0,B|356:260|356:260|324:244,1,71.9999978027344,0|0,1:0|0:0,0:0:0:0:
100,192,56867,6,0,B|180:172|180:220|256:192,1,160,4|2,1:2|1:0,0:0:0:0:
148,264,57534,1,0,0:0:0:0:
148,264,57756,2,0,B|128:184|176:184|148:108,1,160,8|2,0:0|1:0,0:0:0:0:
92,24,58423,1,0,0:0:0:0:
210,57,58645,6,0,L|134:117,1,80,0|0,1:0|0:0,0:0:0:0:
302,57,59089,2,0,L|378:117,1,80,2|0,1:0|0:0,0:0:0:0:
376,236,59534,2,0,L|313:285,1,80,8|0,0:0|0:0,0:0:0:0:
198,285,59978,2,0,L|136:236,1,80,2|0,1:0|0:0,0:0:0:0:
312,152,60423,5,0,1:0:0:0:
297,128,60534,1,0,1:0:0:0:
274,113,60645,1,0,1:0:0:0:
246,111,60756,1,0,1:0:0:0:
221,122,60867,1,2,1:0:0:0:
203,144,60978,1,0,1:0:0:0:
197,171,61089,1,0,1:0:0:0:
205,197,61201,1,0,1:0:0:0:
224,218,61312,1,8,1:2:0:0:
250,227,61423,1,0,1:0:0:0:
278,223,61534,1,0,1:0:0:0:
300,206,61645,1,0,1:0:0:0:
312,180,61756,1,0,1:0:0:0:
188,60,61978,6,0,P|256:24|324:60,2,160,4|0|0,1:2|1:0|1:0,0:0:0:0:
260,164,63089,1,0,1:0:0:0:
323,59,63312,1,0,1:0:0:0:
323,59,63978,6,0,L|360:240,1,176.000005371094,4|8,1:2|0:0,0:0:0:0:
380,340,64645,1,0,0:0:0:0:
436,224,64867,2,0,L|416:132,1,88.000002685547,2|0,1:0|0:0,0:0:0:0:
248,104,65312,2,0,L|266:189,1,88.000002685547,8|0,0:0|0:0,0:0:0:0:
176,340,65756,6,0,B|256:304|256:304|336:340,1,176.000005371094,2|8,1:0|0:0,0:0:0:0:
180,232,66423,1,0,0:0:0:0:
180,232,66645,2,0,P|165:191|180:151,1,88.000002685547,2|0,1:0|0:0,0:0:0:0:
331,151,67089,2,0,P|346:191|332:232,1,88.000002685547,8|0,0:0|0:0,0:0:0:0:
112,268,67534,6,0,P|74:192|112:116,1,176.000005371094,2|8,1:0|0:0,0:0:0:0:
204,40,68201,1,0,0:0:0:0:
111,116,68423,1,2,1:0:0:0:
224,156,68645,1,0,0:0:0:0:
204,40,68867,2,0,P|163:24|123:39,1,88.000002685547,8|0,0:0|0:0,0:0:0:0:
300,100,69312,6,0,P|340:114|380:99,1,88.000002685547,2|0,1:0|0:0,0:0:0:0:
204,20,69756,2,0,P|163:4|123:19,1,88.000002685547,8|0,0:0|0:0,0:0:0:0:
300,120,70201,2,0,P|340:134|380:119,1,88.000002685547,2|0,1:0|0:0,0:0:0:0:
332,44,70645,1,8,0:0:0:0:
264,196,70867,1,0,0:0:0:0:
332,44,71089,6,0,L|508:32,1,176.000005371094,4|8,1:2|0:0,0:0:0:0:
380,136,71756,1,0,0:0:0:0:
467,132,71978,2,0,L|380:136,1,88.000002685547,2|0,1:0|0:0,0:0:0:0:
336,236,72423,2,0,L|423:228,1,88.000002685547,8|0,0:0|0:0,0:0:0:0:
180,368,72867,6,0,P|256:330|332:368,1,176.000005371094,2|8,1:0|0:0,0:0:0:0:
296,235,73534,1,0,0:0:0:0:
216,236,73756,2,0,P|256:250|296:235,1,88.000002685547,2|0,1:0|0:0,0:0:0:0:
296,148,74201,2,0,P|256:133|216:148,1,88.000002685547,8|0,0:0|0:0,0:0:0:0:
180,16,74645,6,0,P|256:54|332:16,1,176.000005371094,2|8,1:0|0:0,0:0:0:0:
448,16,75312,1,0,0:0:0:0:
332,36,75534,2,0,P|256:73|180:35,1,176.000005371094,2|8,1:0|0:0,0:0:0:0:
60,32,76201,1,0,0:0:0:0:
56,152,76423,6,0,P|40:192|55:232,1,88.000002685547,2|0,1:0|0:0,0:0:0:0:
156,328,76867,2,0,P|170:287|155:247,1,88.000002685547,8|0,0:0|0:0,0:0:0:0:
256,204,77312,1,2,1:0:0:0:
207,55,77534,1,0,0:0:0:0:
334,147,77756,1,8,0:0:0:0:
177,147,77978,1,0,1:0:0:0:
304,55,78201,6,0,L|484:72,1,176.000005371094,4|8,1:2|0:0,0:0:0:0:
320,136,78867,1,0,0:0:0:0:
479,71,79089,2,0,L|391:63,1,88.000002685547,2|0,1:0|0:0,0:0:0:0:
232,128,79534,2,0,L|320:136,1,88.000002685547,8|0,0:0|0:0,0:0:0:0:
176,312,79978,6,0,B|232:312|256:284|256:284|276:312|336:312,1,176.000005371094,2|8,1:0|0:0,0:0:0:0:
196,152,80645,1,0,0:0:0:0:
196,152,80867,2,0,P|180:192|195:232,1,88.000002685547,2|0,1:0|0:0,0:0:0:0:
316,232,81312,2,0,P|331:192|316:152,1,88.000002685547,8|0,0:0|0:0,0:0:0:0:
135,116,81756,6,0,P|98:192|136:268,1,176.000005371094,2|8,1:0|0:0,0:0:0:0:
256,192,82423,1,0,0:0:0:0:
135,116,82645,2,0,P|95:100|55:115,1,88.000002685547,2|0,1:0|0:0,0:0:0:0:
56,269,83089,2,0,P|96:284|136:268,1,88.000002685547,8|0,0:0|0:0,0:0:0:0:
340,192,83534,6,0,B|256:220|256:168|168:192,1,176.000005371094,2|8,1:0|0:0,0:0:0:0:
256,280,84201,1,0,0:0:0:0:
256,108,84423,2,0,B|284:192|232:192|256:280,1,176.000005371094,2|8,1:0|0:0,0:0:0:0:
340,192,85089,1,0,0:0:0:0:
256,108,85312,6,0,B|296:90|296:90|336:108,1,88.000002685547,4|0,1:2|0:0,0:0:0:0:
444,28,85756,2,0,B|404:46|404:46|364:28,1,88.000002685547,8|0,0:0|0:0,0:0:0:0:
482,88,86201,2,0,L|338:192,1,176.000005371094,2|8,1:0|0:0,0:0:0:0:
244,252,86867,1,0,0:0:0:0:
339,191,87089,6,0,L|420:132,1,88.000002685547,2|0,1:0|0:0,0:0:0:0:
384,264,87534,2,0,L|312:315,1,88.000002685547,8|0,0:0|0:0,0:0:0:0:
199,315,87978,2,0,L|128:264,1,88.000002685547,2|0,1:0|0:0,0:0:0:0:
101,139,88423,2,0,L|173:191,1,88.000002685547,8|0,0:0|0:0,0:0:0:0:
336,72,88867,6,0,B|256:108|256:108|176:72,1,176.000005371094,2|8,1:0|0:0,0:0:0:0:
256,8,89534,1,0,0:0:0:0:
176,88,89756,2,0,B|256:124|256:124|336:88,1,176.000005371094,2|8,1:0|0:0,0:0:0:0:
256,8,90423,1,0,0:0:0:0:
296,184,90645,6,0,B|256:202|256:202|216:184,1,88.000002685547,2|0,1:0|0:0,0:0:0:0:
212,328,91089,2,0,B|252:310|252:310|292:328,1,88.000002685547,8|0,0:0|0:0,0:0:0:0:
184,252,91534,1,2,1:0:0:0:
328,252,91756,1,0,0:0:0:0:
256,124,91978,1,8,0:0:0:0:
184,252,92201,1,0,0:0:0:0:
96,128,92423,5,2,1:0:0:0:
110,100,92534,1,0,1:0:0:0:
129,76,92645,1,0,1:0:0:0:
152,56,92756,1,0,1:0:0:0:
178,40,92867,1,8,1:2:0:0:
207,29,92978,1,0,1:0:0:0:
237,24,93089,1,0,1:0:0:0:
268,24,93201,1,0,1:0:0:0:
298,30,93312,1,2,1:0:0:0:
327,42,93423,1,0,1:0:0:0:
353,58,93534,1,0,1:0:0:0:
375,79,93645,1,0,1:0:0:0:
394,104,93756,1,8,1:2:0:0:
180,184,93978,6,0,P|255:147|331:184,1,176.000005371094,2|2,1:0|1:0,0:0:0:0:
332,185,94867,1,0,1:0:0:0:
481,234,95089,1,2,1:0:0:0:
389,107,95312,1,0,1:0:0:0:
389,264,95534,1,8,0:0:0:0:
481,137,95756,1,0,0:0:0:0:
315,192,95978,6,0,B|276:228|276:228|227:241|227:241|186:279,1,160,4|8,1:2|0:0,0:0:0:0:
100,356,96645,1,0,1:0:0:0:
185,279,96867,2,0,B|149:262|149:262|113:279,1,80,2|0,1:0|0:0,0:0:0:0:
220,356,97312,2,0,B|256:373|256:373|292:356,1,80,8|0,0:0|1:0,0:0:0:0:
220,216,97756,6,0,B|148:180|148:180|76:216,1,160,2|8,1:0|0:0,0:0:0:0:
188,112,98423,1,0,1:0:0:0:
258,150,98645,2,0,L|178:106,1,80,2|0,1:0|1:0,0:0:0:0:
32,148,99089,2,0,L|112:104,1,80,8|0,1:2|1:0,0:0:0:0:
216,32,99534,6,0,L|364:120,1,160,2|8,1:0|0:0,0:0:0:0:
464,192,100201,1,0,1:0:0:0:
456,60,100423,1,2,1:0:0:0:
353,113,100645,1,0,1:0:0:0:
464,192,100867,1,8,1:2:0:0:
353,113,101089,6,0,B|277:141|277:93|197:113,1,160,4|2,1:2|0:0,0:0:0:0:
96,168,101756,1,0,0:0:0:0:
192,224,101978,2,0,B|272:244|272:196|348:224,1,160,2|0,0:0|1:0,0:0:0:0:
428,88,102645,1,8,0:0:0:0:
428,88,103089,6,0,P|443:123|428:159,1,80,2|0,1:0|0:0,0:0:0:0:
375,283,103534,2,0,P|359:247|375:211,1,80,8|0,0:0|1:0,0:0:0:0:
512,232,103978,2,0,P|476:247|440:232,1,80,2|0,0:0|0:0,0:0:0:0:
288,140,104423,2,0,P|323:124|359:140,1,80,8|0,0:0|0:0,0:0:0:0:
256,232,104867,5,2,1:0:0:0:
256,232,105089,1,0,0:0:0:0:
196,128,105312,1,8,0:0:0:0:
196,128,105534,1,0,1:0:0:0:
136,232,105756,1,2,0:0:0:0:
136,232,105978,1,0,1:0:0:0:
72,128,106201,1,8,0:0:0:0:
72,128,106423,1,0,0:0:0:0:
20,304,106645,6,0,B|100:284|100:332|176:304,1,160,2|8,1:0|0:0,0:0:0:0:
333,304,107312,1,0,1:0:0:0:
333,304,107534,2,0,B|253:284|253:332|177:304,1,160,2|8,0:0|0:0,0:0:0:0:
296,372,108201,1,0,0:0:0:0:
184,216,108423,6,0,B|224:216|256:186|256:186|288:216|328:216,2,160,2|8|2,1:0|0:0|0:0,0:0:0:0:
90,270,109534,1,0,1:0:0:0:
36,176,109756,1,8,0:0:0:0:
130,122,109978,1,0,0:0:0:0:
184,216,110201,6,0,L|228:292,1,80,2|0,1:0|0:0,0:0:0:0:
344,168,110645,2,0,L|300:92,1,80,8|0,0:0|0:0,0:0:0:0:
168,144,111089,2,0,L|237:103,1,80,2|0,1:0|0:0,0:0:0:0:
365,231,111534,2,0,L|296:272,1,80,8|0,0:0|0:0,0:0:0:0:
188,312,111978,6,0,L|108:171,1,160,2|8,1:0|0:0,0:0:0:0:
48,64,112645,1,0,0:0:0:0:
109,172,112867,2,0,P|73:188|37:172,1,80,2|0,1:0|0:0,0:0:0:0:
152,76,113312,2,0,P|188:60|224:76,1,80,8|0,0:0|0:0,0:0:0:0:
140,240,113756,6,0,P|72:275|4:239,1,160,2|8,1:0|0:0,0:0:0:0:
184,144,114423,1,0,0:0:0:0:
184,144,114645,2,0,B|240:144|240:144|284:168|284:168|340:168,1,160,2|8,1:0|0:0,0:0:0:0:
444,168,115312,1,0,0:0:0:0:
300,96,115534,6,0,L|380:96,1,80,2|0,1:0|0:0,0:0:0:0:
212,220,115978,2,0,L|132:220,1,80,8|0,0:0|0:0,0:0:0:0:
300,220,116423,1,2,1:0:0:0:
256,356,116645,1,0,1:0:0:0:
212,220,116867,1,8,1:2:0:0:
327,304,117089,1,0,1:0:0:0:
184,304,117312,6,0,P|119:332|55:304,1,143.999995605469,4|0,1:2|0:0,0:0:0:0:
84,192,117978,1,2,1:0:0:0:
84,192,118201,2,0,L|124:256,1,71.9999978027344,0|0,0:0|0:0,0:0:0:0:
55,304,118645,2,0,L|16:242,1,71.9999978027344,0|2,0:0|1:0,0:0:0:0:
132,128,119089,6,0,L|194:227,2,107.999996704102,0|0|0,1:0|1:0|1:0,0:0:0:0:
221,57,119978,2,0,P|253:43|285:57,1,71.9999978027344,8|0,0:0|0:0,0:0:0:0:
288,144,120423,2,0,P|256:158|224:144,1,71.9999978027344,2|0,0:0|1:0,0:0:0:0:
352,104,120867,6,0,B|424:80|424:128|492:104,1,143.999995605469,0|2,1:0|0:0,0:0:0:0:
388,172,121534,1,0,1:0:0:0:
388,172,121756,2,0,B|404:204|404:204|388:236,1,71.9999978027344,2|0,0:0|0:0,0:0:0:0:
304,316,122201,2,0,B|288:284|288:284|304:252,1,71.9999978027344,0|2,0:0|1:0,0:0:0:0:
468,244,122645,6,0,B|492:196|492:196|468:148,2,107.999996704102,0|0|0,1:0|1:0|1:0,0:0:0:0:
403,147,123534,2,0,P|435:133|467:147,1,71.9999978027344,0|8,1:0|0:0,0:0:0:0:
468,244,123978,2,0,P|435:258|403:244,1,71.9999978027344,0|0,1:0|0:0,0:0:0:0:
176,192,124423,6,0,B|256:172|256:220|332:192,1,160,4|8,1:2|0:0,0:0:0:0:
256,268,125089,1,0,0:0:0:0:
256,268,125312,2,0,B|228:192|276:192|256:112,1,160,2|8,1:0|0:0,0:0:0:0:
256,12,125978,1,0,0:0:0:0:
128,152,126201,6,0,P|112:188|128:224,1,80,2|0,1:0|0:0,0:0:0:0:
216,319,126645,2,0,P|252:335|288:320,1,80,8|0,0:0|0:0,0:0:0:0:
384,224,127089,2,0,P|399:188|383:152,1,80,2|0,1:0|0:0,0:0:0:0:
288,64,127534,2,0,P|252:48|216:64,1,80,8|0,0:0|0:0,0:0:0:0:
192,184,127978,5,2,1:0:0:0:
207,160,128089,1,0,1:0:0:0:
230,145,128201,1,0,1:0:0:0:
258,143,128312,1,0,1:0:0:0:
283,154,128423,1,8,1:2:0:0:
301,176,128534,1,0,1:0:0:0:
307,203,128645,1,0,1:0:0:0:
299,229,128756,1,0,1:0:0:0:
280,250,128867,1,2,1:0:0:0:
254,259,128978,1,0,1:0:0:0:
226,255,129089,1,0,1:0:0:0:
204,238,129201,1,0,1:0:0:0:
192,212,129312,1,8,1:2:0:0:
323,59,129534,6,0,P|255:24|188:60,2,160,4|0|0,1:2|1:0|1:0,0:0:0:0:
252,164,130645,1,0,1:0:0:0:
187,61,130867,1,0,1:0:0:0:
187,61,131534,6,0,B|167:113|167:113|125:157|125:157|104:217,1,176.000005371094,4|8,1:2|0:0,0:0:0:0:
72,328,132201,1,0,0:0:0:0:
105,213,132423,2,0,B|145:195|145:195|185:213,1,88.000002685547,2|0,1:0|0:0,0:0:0:0:
296,312,132867,2,0,B|256:330|256:330|216:312,1,88.000002685547,8|0,0:0|0:0,0:0:0:0:
64,148,133312,6,0,B|144:112|144:112|224:148,1,176.000005371094,2|8,1:0|0:0,0:0:0:0:
144,0,133978,1,0,0:0:0:0:
8,88,134201,2,0,L|87:50,1,88.000002685547,2|0,1:0|0:0,0:0:0:0:
199,50,134645,2,0,L|278:87,1,88.000002685547,8|0,0:0|0:0,0:0:0:0:
336,264,135089,6,0,B|276:264|256:236|256:236|232:264|176:264,1,176.000005371094,2|8,1:0|0:0,0:0:0:0:
256,332,135756,1,0,0:0:0:0:
188,192,135978,1,2,1:0:0:0:
324,192,136201,1,0,0:0:0:0:
188,192,136423,2,0,P|173:152|189:112,1,88.000002685547,8|0,0:0|0:0,0:0:0:0:
324,111,136867,6,0,P|339:151|324:191,1,88.000002685547,2|0,1:0|0:0,0:0:0:0:
168,192,137312,2,0,P|153:151|168:111,1,88.000002685547,8|0,0:0|0:0,0:0:0:0:
343,111,137756,2,0,P|358:151|344:192,1,88.000002685547,2|0,1:0|0:0,0:0:0:0:
252,312,138201,1,8,0:0:0:0:
168,192,138423,1,0,0:0:0:0:
252,312,138645,6,0,P|176:349|100:311,1,176.000005371094,4|8,1:2|0:0,0:0:0:0:
168,192,139312,1,0,0:0:0:0:
166,111,139534,2,0,P|152:151|167:191,1,88.000002685547,2|0,1:0|0:0,0:0:0:0:
253,111,139978,2,0,P|268:71|253:31,1,88.000002685547,8|0,0:0|0:0,0:0:0:0:
176,272,140423,6,0,B|232:272|256:244|256:244|276:272|336:272,1,176.000005371094,2|8,1:0|0:0,0:0:0:0:
216,180,141089,1,0,0:0:0:0:
296,180,141312,2,0,B|256:162|256:162|216:180,1,88.000002685547,2|0,1:0|0:0,0:0:0:0:
216,76,141756,2,0,B|256:58|256:58|296:76,1,88.000002685547,8|0,0:0|0:0,0:0:0:0:
176,200,142201,6,0,B|256:164|256:164|336:200,1,176.000005371094,2|8,1:0|0:0,0:0:0:0:
432,256,142867,1,0,0:0:0:0:
336,184,143089,2,0,B|256:148|256:148|176:184,1,176.000005371094,2|8,1:0|0:0,0:0:0:0:
80,256,143756,1,0,0:0:0:0:
216,260,143978,6,0,B|256:242|256:242|296:260,1,88.000002685547,2|0,1:0|0:0,0:0:0:0:
296,356,144423,2,0,B|256:374|256:374|216:356,1,88.000002685547,8|0,0:0|0:0,0:0:0:0:
80,256,144867,1,2,1:0:0:0:
31,107,145089,1,0,0:0:0:0:
158,199,145312,1,8,0:0:0:0:
1,199,145534,1,0,1:0:0:0:
128,107,145756,6,0,P|203:69|279:106,1,176.000005371094,4|8,1:2|0:0,0:0:0:0:
332,208,146423,1,0,0:0:0:0:
360,107,146645,2,0,P|319:91|279:106,1,88.000002685547,2|0,1:0|0:0,0:0:0:0:
332,208,147089,2,0,P|372:223|412:208,1,88.000002685547,8|0,0:0|0:0,0:0:0:0:
336,352,147534,6,0,B|276:352|256:324|256:324|232:352|176:352,1,176.000005371094,2|8,1:0|0:0,0:0:0:0:
256,244,148201,1,0,0:0:0:0:
175,352,148423,2,0,B|157:312|157:312|175:272,1,88.000002685547,2|0,1:0|0:0,0:0:0:0:
336,272,148867,2,0,B|354:312|354:312|336:352,1,88.000002685547,8|0,0:0|0:0,0:0:0:0:
255,71,149312,6,0,B|279:159|227:159|255:243,1,176.000005371094,2|8,1:0|0:0,0:0:0:0:
216,348,149978,1,0,0:0:0:0:
216,348,150201,2,0,B|256:366|256:366|296:348,1,88.000002685547,2|0,1:0|0:0,0:0:0:0:
416,271,150645,2,0,B|376:253|376:253|336:271,1,88.000002685547,8|0,0:0|0:0,0:0:0:0:
255,71,151089,6,0,B|279:159|227:159|255:243,1,176.000005371094,2|8,1:0|0:0,0:0:0:0:
171,192,151756,1,0,0:0:0:0:
344,192,151978,2,0,B|256:216|256:164|172:192,1,176.000005371094,2|8,1:0|0:0,0:0:0:0:
56,232,152645,1,0,0:0:0:0:
176,272,152867,6,0,P|216:257|256:272,1,88.000002685547,4|0,1:2|0:0,0:0:0:0:
336,111,153312,2,0,P|296:126|256:112,1,88.000002685547,8|0,0:0|0:0,0:0:0:0:
176,296,153756,2,0,P|216:281|256:296,1,88.000002685547,2|0,1:0|0:0,0:0:0:0:
336,88,154201,2,0,P|295:103|255:88,1,88.000002685547,8|0,0:0|0:0,0:0:0:0:
256,192,154645,6,0,B|312:192|312:192|368:216|368:216|432:216,1,176.000005371094,2|8,1:0|0:0,0:0:0:0:
296,264,155312,1,0,0:0:0:0:
208,264,155534,2,0,L|296:264,1,88.000002685547,2|0,1:0|0:0,0:0:0:0:
364,124,155978,2,0,L|276:124,1,88.000002685547,8|0,0:0|0:0,0:0:0:0:
132,116,156423,6,0,P|94:191|132:267,1,176.000005371094,2|8,1:0|0:0,0:0:0:0:
212,191,157089,1,0,0:0:0:0:
112,263,157312,2,0,P|74:187|111:111,1,176.000005371094,2|8,1:0|0:0,0:0:0:0:
212,191,157978,1,0,0:0:0:0:
12,150,158201,6,0,P|-2:190|12:231,1,88.000002685547,2|0,1:0|0:0,0:0:0:0:
112,343,158645,2,0,P|126:302|111:262,1,88.000002685547,8|0,0:0|0:0,0:0:0:0:
212,191,159089,1,2,1:0:0:0:
176,77,159312,1,0,0:0:0:0:
290,43,159534,1,8,0:0:0:0:
324,155,159756,1,0,0:0:0:0:
176,77,159978,5,2,1:0:0:0:
146,68,160089,1,0,1:0:0:0:
116,70,160201,1,0,1:0:0:0:
88,83,160312,1,0,1:0:0:0:
67,105,160423,1,8,1:2:0:0:
55,133,160534,1,0,1:0:0:0:
54,164,160645,1,0,1:0:0:0:
64,193,160756,1,0,1:0:0:0:
83,216,160867,1,2,1:0:0:0:
110,231,160978,1,0,1:0:0:0:
140,236,161089,1,0,1:0:0:0:
170,229,161201,1,0,1:0:0:0:
196,212,161312,1,8,1:2:0:0:
290,43,161534,6,0,B|339:68|339:68|378:115|378:115|435:144,1,176.000005371094,2|2,1:0|1:0,0:0:0:0:
431,142,162423,1,0,1:0:0:0:
382,291,162645,1,2,1:0:0:0:
509,199,162867,1,0,1:0:0:0:
352,199,163089,1,8,0:0:0:0:
479,291,163312,1,0,0:0:0:0:
431,142,163534,6,0,B|431:114|431:114|435:110|435:110|427:110|427:110|431:106|431:106|431:74,2,80,4|2|8,1:2|0:0|0:0,0:0:0:0:
332,32,164201,1,0,0:0:0:0:
332,32,164312,1,0,0:0:0:0:
332,32,164423,2,0,B|332:64|332:64|328:68|328:68|336:68|336:68|332:72|332:72|332:100,2,80,2|2|8,1:0|0:0|0:0,0:0:0:0:
255,139,165089,1,0,0:0:0:0:
399,140,165312,6,0,B|327:104|327:104|255:140,1,160,2|8,1:0|0:0,0:0:0:0:
152,192,165978,1,0,0:0:0:0:
255,139,166201,2,0,B|255:171|255:171|251:175|251:175|259:175|259:175|255:179|255:179|255:207,2,80,2|2|8,1:0|0:0|0:0,0:0:0:0:
152,300,166867,1,0,0:0:0:0:
152,300,166978,1,0,0:0:0:0:
152,300,167089,6,0,B|152:248|152:248|156:244|156:244|148:244|148:244|152:240|152:240|152:184,2,120,2|2|2,1:0|0:0|0:0,0:0:0:0:
256,344,167978,2,0,B|312:344|312:344|356:368|356:368|412:368,1,160,2|8,1:0|0:0,0:0:0:0:
476,272,168645,1,0,0:0:0:0:
476,123,168867,6,0,B|476:188|476:188|480:192|480:192|472:192|472:192|476:196|476:196|476:272,1,160,2|8,1:0|0:0,0:0:0:0:
400,95,169534,1,0,0:0:0:0:
400,244,169756,2,0,B|400:168|400:168|396:164|396:164|404:164|404:164|400:160|400:160|400:95,1,160,2|8,1:0|0:0,0:0:0:0:
400,0,170423,1,0,0:0:0:0:
292,84,170645,6,0,B|260:84|260:84|256:80|256:80|256:88|256:88|252:84|252:84|224:84,2,80,4|2|8,1:2|0:0|0:0,0:0:0:0:
152,160,171312,1,0,0:0:0:0:
152,160,171423,1,0,0:0:0:0:
152,160,171534,2,0,B|184:160|184:160|188:156|188:156|188:164|188:164|192:160|192:160|220:160,2,80,2|2|8,1:0|0:0|0:0,0:0:0:0:
40,164,172201,1,0,0:0:0:0:
176,256,172423,6,0,B|252:256|252:256|256:252|256:252|256:260|256:260|260:256|260:256|324:256,1,160,2|8,1:0|0:0,0:0:0:0:
256,348,173089,1,0,0:0:0:0:
324,256,173312,2,0,B|334:229|334:229|331:224|331:224|339:227|339:227|336:222|336:222|348:192,2,80,2|0|8,1:0|0:0|0:0,0:0:0:0:
256,348,173978,1,0,0:0:0:0:
176,256,174201,6,0,B|149:211|149:211|150:205|150:205|143:210|143:210|145:204|145:204|116:156,2,120,2|2|2,1:0|0:0|0:0,0:0:0:0:
220,72,175089,2,0,P|256:56|292:72,1,80,2|0,1:0|0:0,0:0:0:0:
292,180,175534,2,0,P|256:196|220:180,1,80,8|0,0:0|0:0,0:0:0:0:
133,257,175978,5,2,1:0:0:0:
102,248,176089,1,0,1:0:0:0:
77,228,176201,1,0,1:0:0:0:
61,201,176312,1,0,1:0:0:0:
57,169,176423,1,8,1:2:0:0:
65,139,176534,1,0,1:0:0:0:
85,113,176645,1,0,1:0:0:0:
113,98,176756,1,0,1:0:0:0:
144,94,176867,5,2,1:0:0:0:
175,102,176978,1,0,1:0:0:0:
200,121,177089,1,0,1:0:0:0:
216,149,177201,1,0,1:0:0:0:
220,180,177312,1,8,1:2:0:0:
212,211,177423,1,0,1:0:0:0:
193,236,177534,1,0,1:0:0:0:
165,252,177645,1,0,1:0:0:0:
133,257,177756,6,0,L|240:372,1,143.999995605469,4|2,1:2|0:0,0:0:0:0:
220,180,178423,1,0,1:0:0:0:
133,257,178645,2,0,P|100:272|68:258,1,71.9999978027344,8|0,0:0|0:0,0:0:0:0:
0,144,179089,2,0,P|33:129|65:143,1,71.9999978027344,2|0,0:0|0:0,0:0:0:0:
220,180,179534,6,0,B|220:140|220:140|204:116|204:116|204:72,2,107.999996704102,0|2|0,1:0|1:0|1:0,0:0:0:0:
288,100,180423,2,0,L|288:28,1,71.9999978027344,8|0,0:0|0:0,0:0:0:0:
376,96,180867,2,0,L|376:168,1,71.9999978027344,2|0,0:0|0:0,0:0:0:0:
320,260,181312,6,0,P|255:288|191:260,1,143.999995605469,0|2,1:0|0:0,0:0:0:0:
256,176,181978,1,0,1:0:0:0:
191,260,182201,1,8,0:0:0:0:
320,260,182423,1,0,1:0:0:0:
188,164,182645,1,2,0:0:0:0:
324,164,182867,1,0,1:0:0:0:
324,164,182978,1,0,1:0:0:0:
324,164,183089,6,0,B|324:120|324:120|312:100|312:100|312:60,2,107.999996704102,0|2|0,1:0|1:0|1:0,0:0:0:0:
320,260,183978,1,8,0:0:0:0:
420,192,184201,1,2,1:0:0:0:
420,192,184645,6,0,B|420:252|420:252|432:280|432:280|432:336,1,143.999995605469,4|0,1:2|0:0,0:0:0:0:
492,232,185312,2,0,L|492:160,1,71.9999978027344,2|0,0:0|1:0,0:0:0:0:
344,176,185756,2,0,L|344:248,1,71.9999978027344,8|0,0:0|0:0,0:0:0:0:
256,308,186201,1,2,0:0:0:0:
344,248,186423,1,0,0:0:0:0:
256,308,186645,6,0,P|200:316|160:288,2,107.999996704102,0|2|0,1:0|1:0|1:0,0:0:0:0:
240,176,187534,2,0,L|224:248,1,71.9999978027344,8|0,0:0|0:0,0:0:0:0:
152,176,187978,2,0,L|168:104,1,71.9999978027344,2|0,0:0|0:0,0:0:0:0:
64,148,188423,6,0,L|33:291,1,143.999995605469,0|2,1:0|0:0,0:0:0:0:
108,368,189089,1,0,1:0:0:0:
192,280,189312,2,0,P|159:265|127:279,1,71.9999978027344,8|0,0:0|1:0,0:0:0:0:
228,360,189756,1,2,0:0:0:0:
268,240,189978,1,0,1:0:0:0:
268,240,190089,1,0,1:0:0:0:
268,240,190201,6,0,P|232:208|172:192,2,107.999996704102,0|2|0,1:0|1:0|1:0,0:0:0:0:
175,192,191089,1,8,0:0:0:0:
131,59,191312,1,0,1:0:0:0:
244,141,191534,1,2,0:0:0:0:
105,141,191756,1,0,1:0:0:0:
218,59,191978,6,0,P|285:23|353:59,1,160,4|8,1:2|0:0,0:0:0:0:
379,156,192645,1,0,0:0:0:0:
353,59,192867,1,2,1:0:0:0:
449,33,193089,1,0,0:0:0:0:
475,130,193312,1,8,0:0:0:0:
353,59,193534,1,0,0:0:0:0:
475,130,193756,6,0,B|511:202|511:202|475:274,1,160,2|8,1:0|0:0,0:0:0:0:
360,300,194423,1,0,0:0:0:0:
360,300,194645,2,0,L|412:228,1,80,2|0,1:0|0:0,0:0:0:0:
360,84,195089,2,0,L|412:156,1,80,8|0,0:0|0:0,0:0:0:0:
256,192,195534,6,0,B|180:220|180:172|100:192,1,160,2|8,1:0|0:0,0:0:0:0:
220,112,196201,1,0,0:0:0:0:
220,112,196423,2,0,P|256:96|292:112,1,80,2|0,1:0|0:0,0:0:0:0:
292,272,196867,2,0,P|256:287|220:271,1,80,8|0,0:0|0:0,0:0:0:0:
368,124,197312,6,0,P|404:192|368:260,1,160,2|8,1:0|0:0,0:0:0:0:
252,192,197978,1,0,0:0:0:0:
368,124,198201,1,2,1:0:0:0:
368,259,198423,1,0,0:0:0:0:
232,192,198645,1,8,0:0:0:0:
368,104,198867,1,0,0:0:0:0:
184,40,199089,6,0,B|224:40|256:10|256:10|288:40|328:40,1,160,2|8,1:0|0:0,0:0:0:0:
256,128,199756,1,0,0:0:0:0:
184,40,199978,2,0,P|168:76|184:112,1,80,2|0,1:0|0:0,0:0:0:0:
329,111,200423,2,0,P|344:76|328:40,1,80,8|0,0:0|0:0,0:0:0:0:
184,184,200867,2,0,P|168:220|184:256,1,80,2|0,1:0|0:0,0:0:0:0:
328,256,201312,2,0,P|343:220|327:184,1,80,8|0,0:0|0:0,0:0:0:0:
212,16,201756,5,2,1:0:0:0:
256,152,201978,1,0,0:0:0:0:
300,16,202201,1,8,0:0:0:0:
185,100,202423,1,0,0:0:0:0:
328,100,202645,5,2,1:0:0:0:
343,63,202756,1,0,1:0:0:0:
378,46,202867,1,0,1:0:0:0:
416,57,202978,1,0,1:0:0:0:
437,89,203089,1,8,1:2:0:0:
432,128,203201,1,0,1:0:0:0:
403,154,203312,1,0,1:0:0:0:
364,154,203423,1,0,1:0:0:0:
324,144,203534,6,0,L|288:136,15,20,2|0|0|0|0|0|0|0|8|0|0|0|0|0|0|0,1:0|1:0|1:0|1:0|1:0|1:0|1:0|1:0|1:2|1:0|1:0|1:0|1:0|1:0|1:0|1:0,0:0:0:0:
284,136,204423,6,0,P|228:120|176:152,2,120,2|2|2,1:0|1:0|1:0,0:0:0:0:
136,76,205312,1,8,1:2:0:0:
240,200,205534,1,0,1:0:0:0:
324,64,205756,1,8,0:0:0:0:
324,64,206201,6,0,P|384:45|444:64,2,128,4|2|0,1:2|0:0|0:0,0:0:0:0:
256,124,207312,1,0,0:0:0:0:
188,64,207534,2,0,P|160:50|132:63,1,64,2|0,0:0|0:0,0:0:0:0:
40,128,207978,2,0,L|144:204,1,128,0|2,0:0|0:0,0:0:0:0:
216,252,208645,1,0,0:0:0:0:
132,284,208867,2,0,L|77:245,1,64,0|0,0:0|0:0,0:0:0:0:
68,336,209312,2,0,L|120:373,1,64,2|0,0:0|0:0,0:0:0:0:
312,360,209756,6,0,B|272:360|256:336|256:336|240:360|200:360,1,128,0|2,1:0|0:0,0:0:0:0:
256,264,210423,1,0,0:0:0:0:
312,360,210645,2,0,B|327:332|327:332|312:304,1,64,0|0,0:0|0:0,0:0:0:0:
200,304,211089,2,0,B|185:332|185:332|200:360,1,64,2|0,0:0|0:0,0:0:0:0:
256,264,211534,2,0,B|236:200|280:200|256:140,1,128,0|2,0:0|0:0,0:0:0:0:
284,52,212201,1,0,0:0:0:0:
284,52,212423,2,0,B|256:37|256:37|228:52,1,64,0|0,0:0|0:0,0:0:0:0:
228,140,212867,2,0,B|256:125|256:125|284:140,1,64,2|0,0:0|1:0,0:0:0:0:
316,244,213312,6,0,B|257:220|257:220|197:244,1,128,0|2,1:0|0:0,0:0:0:0:
256,312,213978,1,0,0:0:0:0:
316,244,214201,2,0,L|352:192,1,64,0|0,0:0|0:0,0:0:0:0:
392,272,214645,2,0,L|356:324,1,64,2|0,0:0|0:0,0:0:0:0:
240,228,215089,2,0,L|316:116,1,128,0|2,0:0|0:0,0:0:0:0:
200,104,215756,5,0,0:0:0:0:
200,104,215978,1,0,0:0:0:0:
71,146,216201,1,0,0:0:0:0:
151,37,216423,1,2,0:0:0:0:
151,172,216645,1,0,0:0:0:0:
71,63,216867,6,0,P|12:88|-12:168,1,143.999995605469,4|2,1:2|0:0,0:0:0:0:
60,256,217534,1,0,1:0:0:0:
60,256,217756,2,0,L|208:244,1,143.999995605469,0|2,1:0|0:0,0:0:0:0:
328,236,218423,1,0,0:0:0:0:
216,144,218645,5,0,1:0:0:0:
207,105,218756,1,0,1:0:0:0:
223,69,218867,1,0,1:0:0:0:
257,49,218978,1,0,1:0:0:0:
296,53,219089,1,2,1:0:0:0:
326,79,219201,1,0,1:0:0:0:
335,117,219312,1,0,1:0:0:0:
310,148,219423,1,0,1:0:0:0:
277,170,219534,5,2,1:2:0:0:
258,211,219645,1,0,1:0:0:0:
261,249,219756,1,0,1:0:0:0:
274,287,219867,1,0,1:0:0:0:
306,309,219978,1,2,1:2:0:0:
346,310,220089,1,0,1:0:0:0:
378,287,220201,1,0,1:0:0:0:
392,251,220312,1,0,1:0:0:0:
380,208,220423,6,0,P|304:170|228:208,1,176.000005371094,4|8,1:2|0:0,0:0:0:0:
160,304,221089,1,0,0:0:0:0:
228,208,221312,2,0,P|187:192|147:207,1,88.000002685547,2|0,1:0|0:0,0:0:0:0:
16,84,221756,2,0,P|56:99|96:84,1,88.000002685547,8|0,0:0|0:0,0:0:0:0:
0,220,222201,6,0,L|156:128,1,176.000005371094,2|8,1:0|0:0,0:0:0:0:
280,88,222867,1,0,0:0:0:0:
192,192,223089,2,0,L|112:244,1,88.000002685547,2|0,1:0|0:0,0:0:0:0:
320,192,223534,2,0,L|400:244,1,88.000002685547,8|0,0:0|0:0,0:0:0:0:
256,384,223978,5,2,1:0:0:0:
181,309,224201,1,0,0:0:0:0:
256,234,224423,1,8,0:0:0:0:
330,309,224645,1,0,0:0:0:0:
181,309,224867,2,0,B|163:269|163:269|181:229,1,88.000002685547,2|0,1:0|0:0,0:0:0:0:
330,228,225312,2,0,B|348:268|348:268|330:308,1,88.000002685547,8|0,0:0|0:0,0:0:0:0:
116,348,225756,6,0,B|80:268|80:268|116:188,1,176.000005371094,2|8,1:0|0:0,0:0:0:0:
128,84,226423,1,0,0:0:0:0:
128,84,226645,2,0,P|87:68|47:83,1,88.000002685547,2|0,1:0|0:0,0:0:0:0:
196,148,227089,2,0,P|236:163|276:148,1,88.000002685547,8|0,0:0|0:0,0:0:0:0:
436,140,227534,6,0,L|292:248,1,176.000005371094,4|8,1:2|0:0,0:0:0:0:
196,324,228201,1,0,0:0:0:0:
332,320,228423,2,0,L|404:264,1,88.000002685547,2|0,1:0|0:0,0:0:0:0:
392,72,228867,2,0,L|322:126,1,88.000002685547,8|0,0:0|0:0,0:0:0:0:
295,245,229312,6,0,L|436:140,1,176.000005371094,2|8,1:0|0:0,0:0:0:0:
436,140,229978,1,0,0:0:0:0:
295,245,230201,1,2,1:0:0:0:
163,149,230423,1,0,1:0:0:0:
214,305,230645,1,8,1:2:0:0:
264,149,230867,1,0,1:0:0:0:
132,245,231089,6,0,B|100:248|68:268|68:268|72:228|72:228|32:232|32:232|56:208|80:164|24:164|60:100,1,287.999991210938,2|2,0:0|0:0,0:0:0:0:
140,24,232201,1,0,0:0:0:0:
212,108,232423,2,0,L|292:132,1,71.9999978027344,2|2,0:0|0:0,0:0:0:0:
316,140,232756,1,2,0:0:0:0:
348,152,232867,1,2,0:0:0:0:
380,164,232978,1,2,0:0:0:0:
416,176,233089,1,0,1:0:0:0:
296,339,233312,1,8,0:0:0:0:
296,339,233756,6,0,P|256:354|216:339,1,88.000002685547,4|0,1:2|0:0,0:0:0:0:
108,232,234200,2,0,P|93:192|108:152,1,88.000002685547,8|0,0:0|0:0,0:0:0:0:
216,44,234644,2,0,P|256:29|296:44,1,88.000002685547,2|0,1:0|0:0,0:0:0:0:
403,151,235089,2,0,P|418:191|404:232,1,88.000002685547,8|0,0:0|0:0,0:0:0:0:
180,152,235533,6,0,P|255:114|331:152,1,176.000005371094,2|8,1:0|0:0,0:0:0:0:
256,264,236200,1,0,0:0:0:0:
180,152,236422,1,2,1:0:0:0:
331,152,236644,1,0,0:0:0:0:
180,232,236867,1,8,0:0:0:0:
332,232,237089,1,0,0:0:0:0:
180,152,237311,6,0,B|162:192|162:192|180:232,1,88.000002685547,2|0,1:0|0:0,0:0:0:0:
332,232,237756,2,0,B|350:192|350:192|332:152,1,88.000002685547,8|0,0:0|0:0,0:0:0:0:
216,88,238200,2,0,B|256:70|256:70|296:88,1,88.000002685547,2|0,1:0|0:0,0:0:0:0:
296,296,238644,2,0,B|256:314|256:314|216:296,1,88.000002685547,8|0,0:0|0:0,0:0:0:0:
104,272,239089,6,0,B|68:192|68:192|104:112,1,176.000005371094,2|8,1:0|0:0,0:0:0:0:
256,160,239756,1,0,0:0:0:0:
205,4,239978,1,2,1:0:0:0:
337,100,240200,1,0,0:0:0:0:
174,100,240422,1,8,0:0:0:0:
306,4,240644,1,0,0:0:0:0:
256,160,240867,6,0,B|280:248|228:248|256:332,1,176.000005371094,4|8,1:2|0:0,0:0:0:0:
180,196,241533,1,0,0:0:0:0:
99,196,241756,2,0,P|139:180|179:195,1,88.000002685547,2|0,1:0|0:0,0:0:0:0:
181,308,242200,2,0,P|140:323|100:308,1,88.000002685547,8|0,0:0|0:0,0:0:0:0:
64,128,242644,6,0,P|140:90|216:128,1,176.000005371094,2|8,1:0|0:0,0:0:0:0:
258,234,243311,1,0,0:0:0:0:
215,127,243533,1,2,1:0:0:0:
321,85,243756,1,0,0:0:0:0:
364,191,243978,2,0,P|379:231|364:271,1,88.000002685547,8|0,0:0|0:0,0:0:0:0:
180,364,244422,6,0,P|256:326|332:364,1,176.000005371094,2|8,1:0|0:0,0:0:0:0:
256,212,245089,1,0,0:0:0:0:
331,351,245311,2,0,P|255:314|180:352,1,176.000005371094,2|8,1:0|0:0,0:0:0:0:
256,212,245978,1,0,0:0:0:0:
184,60,246200,6,0,P|168:100|183:140,1,88.000002685547,2|0,1:0|0:0,0:0:0:0:
328,140,246644,2,0,P|343:99|328:60,1,88.000002685547,8|0,0:0|0:0,0:0:0:0:
256,212,247089,1,2,1:0:0:0:
308,374,247311,1,0,0:0:0:0:
170,274,247533,1,8,0:0:0:0:
341,274,247756,1,0,1:0:0:0:
203,374,247978,6,0,B|146:355|146:355|100:315|100:315|47:298,1,176.000005371094,4|8,1:2|0:0,0:0:0:0:
170,274,248644,1,0,0:0:0:0:
170,274,248867,2,0,L|260:312,1,88.000002685547,2|0,1:0|0:0,0:0:0:0:
422,308,249311,2,0,L|332:270,1,88.000002685547,8|0,0:0|0:0,0:0:0:0:
176,152,249755,6,0,B|232:152|256:124|256:124|276:152|336:152,1,176.000005371094,2|8,1:0|0:0,0:0:0:0:
256,20,250422,1,0,0:0:0:0:
176,152,250644,2,0,P|160:192|175:232,1,88.000002685547,2|0,1:0|0:0,0:0:0:0:
336,232,251089,2,0,P|350:191|335:151,1,88.000002685547,8|0,0:0|0:0,0:0:0:0:
356,312,251533,6,0,L|424:256,1,88.000002685547,2|0,1:0|0:0,0:0:0:0:
256,152,251978,2,0,B|256:188|256:188|252:192|252:192|260:192|260:192|256:196|256:196|256:232,1,88.000002685547,8|0,0:0|0:0,0:0:0:0:
156,312,252422,2,0,L|88:256,1,88.000002685547,2|0,1:0|0:0,0:0:0:0:
88,128,252867,2,0,L|156:72,1,88.000002685547,8|0,0:0|0:0,0:0:0:0:
336,76,253311,6,0,L|197:185,1,176.000005371094,2|8,1:0|0:0,0:0:0:0:
336,76,253978,1,0,0:0:0:0:
197,185,254200,2,0,P|182:225|197:265,1,88.000002685547,2|0,1:0|0:0,0:0:0:0:
335,156,254644,2,0,P|350:115|335:75,1,88.000002685547,8|0,0:0|0:0,0:0:0:0:
468,268,255089,6,0,P|392:230|316:268,1,176.000005371094,4|8,1:2|0:0,0:0:0:0:
216,352,255755,1,0,0:0:0:0:
216,352,255978,2,0,L|128:328,1,88.000002685547,2|0,1:0|0:0,0:0:0:0:
231,244,256422,2,0,L|319:268,1,88.000002685547,8|0,0:0|0:0,0:0:0:0:
312,140,256867,6,0,L|132:92,1,176.000005371094,2|8,1:0|0:0,0:0:0:0:
256,36,257533,1,0,0:0:0:0:
141,94,257755,2,0,P|126:53|141:13,1,88.000002685547,2|0,1:0|0:0,0:0:0:0:
312,140,258200,2,0,P|327:180|312:220,1,88.000002685547,8|0,0:0|0:0,0:0:0:0:
180,356,258644,6,0,P|256:318|332:356,1,176.000005371094,2|8,1:0|0:0,0:0:0:0:
452,356,259311,1,0,0:0:0:0:
332,332,259533,2,0,P|256:294|180:332,1,176.000005371094,2|8,1:0|0:0,0:0:0:0:
64,336,260200,1,0,0:0:0:0:
192,232,260422,6,0,B|174:192|174:192|192:152,1,88.000002685547,2|0,1:0|0:0,0:0:0:0:
320,152,260867,2,0,B|338:192|338:192|320:232,1,88.000002685547,8|0,0:0|0:0,0:0:0:0:
192,232,261311,1,2,1:0:0:0:
71,178,261533,1,0,0:0:0:0:
246,109,261755,1,8,0:0:0:0:
125,54,261978,1,0,0:0:0:0:
246,109,262200,5,2,1:0:0:0:
263,78,262311,1,0,1:0:0:0:
291,58,262422,1,0,1:0:0:0:
326,52,262533,1,0,1:0:0:0:
359,61,262644,1,8,1:2:0:0:
386,84,262756,1,0,1:0:0:0:
400,116,262867,1,0,1:0:0:0:
400,151,262978,1,0,1:0:0:0:
384,182,263089,1,2,1:0:0:0:
357,204,263200,1,0,1:0:0:0:
323,212,263311,1,0,1:0:0:0:
289,204,263422,1,0,1:0:0:0:
264,188,263533,1,8,1:2:0:0:
112,188,263756,6,0,P|188:149|264:188,1,176.000005371094,2|2,1:0|1:0,0:0:0:0:
263,187,264644,1,0,1:0:0:0:
363,325,264867,1,2,1:0:0:0:
363,154,265089,1,0,1:0:0:0:
263,292,265311,1,8,0:0:0:0:
426,240,265533,1,0,0:0:0:0:
263,187,265755,6,0,L|248:24,1,160,4|8,1:2|0:0,0:0:0:0:
160,80,266422,1,0,1:0:0:0:
160,80,266644,2,0,L|168:164,1,80,2|0,1:0|0:0,0:0:0:0:
348,184,267089,2,0,L|340:104,1,80,8|0,0:0|1:0,0:0:0:0:
288,264,267533,6,0,P|356:228|424:264,1,160,2|8,1:0|0:0,0:0:0:0:
320,336,268200,1,0,1:0:0:0:
392,336,268422,2,0,P|356:320|320:336,1,80,2|0,1:0|1:0,0:0:0:0:
144,332,268867,2,0,P|179:347|215:332,1,80,8|0,0:0|1:0,0:0:0:0:
328,192,269311,6,0,B|288:192|256:222|256:222|224:192|184:192,1,160,2|8,1:0|0:0,0:0:0:0:
256,88,269978,1,0,1:0:0:0:
183,191,270200,1,2,1:0:0:0:
112,84,270422,1,0,0:0:0:0:
40,192,270644,1,8,0:0:0:0:
183,191,270867,1,2,1:0:0:0:
183,191,271311,5,0,1:0:0:0:
233,104,271533,1,2,0:0:0:0:
333,104,271755,1,0,1:0:0:0:
383,191,271978,1,2,1:0:0:0:
333,278,272200,1,0,1:0:0:0:
233,278,272422,1,2,0:0:0:0:
183,191,272644,1,0,0:0:0:0:
233,104,272867,1,2,0:0:0:0:
256,192,272978,12,2,274644,0:0:0:0:
