osu file format v14

[General]
AudioFilename: audio.mp3
AudioLeadIn: 0
PreviewTime: 328
Countdown: 0
SampleSet: Normal
StackLeniency: 0.7
Mode: 1
LetterboxInBreaks: 0
WidescreenStoryboard: 1

[Editor]
DistanceSpacing: 1.6
BeatDivisor: 4
GridSize: 8
TimelineZoom: 1.4

[Metadata]
Title:Philadelphia Elysium
TitleUnicode:Philadelphia Elysium
Artist:Tennenouji
ArtistUnicode:Tennenouji
Creator:Prophecy
Version:Inner Elysium
Source:ラッキードッグ1
Tags:Lucky dog 1 OST 16 Gian Ivan Giulio Bernardo Luchino CR5 CR:5 Capo Regime:cinque R18 BL
BeatmapID:1197661
BeatmapSetID:565828

[Difficulty]
HPDrainRate:5
CircleSize:4
OverallDifficulty:5
ApproachRate:5
SliderMultiplier:1.4
SliderTickRate:1

[Events]
//Background and Video events
0,0,"luckydog1blast.png",0,120
//Break Periods
//Storyboard Layer 0 (Background)
//Storyboard Layer 1 (Fail)
//Storyboard Layer 2 (Pass)
//Storyboard Layer 3 (Foreground)
//Storyboard Sound Samples

[TimingPoints]
328.92822265625,375,4,1,0,100,1,0
34828,422.535211267606,4,1,0,100,1,0
34828,-105.263153076172,4,1,0,100,0,0
35673,458.015267175573,4,1,0,100,1,0
35673,-95.2380981445313,4,1,0,100,0,0
36589,-111.111106872559,4,1,0,100,0,0
37505,402.684563758389,4,1,0,100,1,0
37907,389.61038961039,4,1,0,100,1,0
38296,365.853658536585,4,1,0,100,1,0
39027,389.61038961039,4,1,0,100,1,0
39416,384.615384615385,4,1,0,100,1,0
39800,370.37037037037,4,1,0,100,1,0
40355,384.615384615385,4,1,0,100,1,0
40547,375,4,1,0,100,1,0
40922,377.358490566038,4,1,0,100,1,0
42054,368.098159509202,4,1,0,100,1,0
42794,384.615384615385,4,1,0,100,1,0
43178,372.670807453416,4,1,0,100,1,0
45786,400,4,1,0,100,1,0
46186,370.37037037037,4,1,0,100,1,0
46556,377.358490566038,4,1,0,100,1,0
46933,363.636363636364,4,1,0,100,1,0
47296,375,4,1,0,100,1,0
50296,368.098159509202,4,1,0,100,1,0
50858,340.909090909091,4,1,0,100,1,0
51369,333.333333333333,4,1,0,100,1,0
51702,483.870967741935,4,1,0,100,1,0
52185,372.670807453416,4,1,0,100,1,0
54421,-90.9090881347656,4,1,0,100,0,0
54607,-86.9565200805664,4,1,0,100,0,0
54793,-83.3333358764648,4,1,0,100,0,1
59265,-83.3333358764648,4,1,0,100,0,0

[HitObjects]
255,191,328,5,0,0:0:0:0:
255,191,703,1,2,0:0:0:0:
255,191,1078,1,0,0:0:0:0:
255,191,1453,1,0,0:0:0:0:
255,191,1828,1,2,0:0:0:0:
255,191,2953,1,2,0:0:0:0:
255,191,3047,1,2,0:0:0:0:
255,191,3141,1,0,0:0:0:0:
255,191,3328,1,2,0:0:0:0:
255,191,3703,1,0,0:0:0:0:
255,191,3891,1,2,0:0:0:0:
255,191,4266,1,0,0:0:0:0:
255,191,4453,1,2,0:0:0:0:
255,191,6328,1,0,0:0:0:0:
255,191,6703,1,2,0:0:0:0:
255,191,7078,1,0,0:0:0:0:
255,191,7453,1,0,0:0:0:0:
255,191,7828,1,2,0:0:0:0:
255,191,8578,1,0,0:0:0:0:
255,191,9328,1,2,0:0:0:0:
255,191,10453,1,0,0:0:0:0:
255,191,10547,1,0,0:0:0:0:
255,191,10641,1,0,0:0:0:0:
255,191,10828,1,2,0:0:0:0:
255,191,12328,1,0,0:0:0:0:
255,191,12703,1,2,0:0:0:0:
255,191,12891,1,0,0:0:0:0:
255,191,13453,1,0,0:0:0:0:
255,191,13828,1,2,0:0:0:0:
255,191,14016,1,0,0:0:0:0:
255,191,15328,1,2,0:0:0:0:
255,191,15703,1,0,0:0:0:0:
255,191,16078,1,0,0:0:0:0:
255,191,16453,1,0,0:0:0:0:
255,191,16828,1,2,0:0:0:0:
255,191,17203,1,0,0:0:0:0:
255,191,17578,1,0,0:0:0:0:
255,191,17953,1,0,0:0:0:0:
255,191,18328,1,2,0:0:0:0:
255,191,18703,1,0,0:0:0:0:
255,191,19078,1,0,0:0:0:0:
255,191,19453,1,2,0:0:0:0:
255,191,19828,1,2,0:0:0:0:
255,191,20203,1,0,0:0:0:0:
255,191,20578,1,2,0:0:0:0:
255,191,20953,1,2,0:0:0:0:
255,191,21328,1,0,0:0:0:0:
255,191,22078,1,0,0:0:0:0:
255,191,22828,1,2,0:0:0:0:
255,191,23203,1,0,0:0:0:0:
255,191,23578,1,0,0:0:0:0:
255,191,24328,1,2,0:0:0:0:
255,191,24703,1,0,0:0:0:0:
255,191,25078,1,0,0:0:0:0:
255,191,25828,1,2,0:0:0:0:
255,191,26203,1,0,0:0:0:0:
255,191,26578,1,2,0:0:0:0:
255,191,26953,1,2,0:0:0:0:
255,191,27328,1,0,0:0:0:0:
255,191,28453,1,2,0:0:0:0:
255,191,28641,1,0,0:0:0:0:
255,191,30328,1,2,0:0:0:0:
255,191,31078,1,0,0:0:0:0:
255,191,31453,1,0,0:0:0:0:
255,191,31828,1,2,0:0:0:0:
255,191,32203,1,2,0:0:0:0:
255,191,32578,1,0,0:0:0:0:
255,191,33328,1,0,0:0:0:0:
255,191,33703,1,0,0:0:0:0:
255,191,33891,1,0,0:0:0:0:
255,191,34078,1,2,0:0:0:0:
255,191,34453,1,2,0:0:0:0:
255,191,34828,1,0,0:0:0:0:
255,191,35673,1,2,0:0:0:0:
255,191,36589,1,0,0:0:0:0:
255,191,37047,1,2,0:0:0:0:
255,191,37505,1,0,0:0:0:0:
255,191,37907,1,0,0:0:0:0:
255,191,38296,1,2,0:0:0:0:
255,191,39027,1,0,0:0:0:0:
255,191,39416,1,0,0:0:0:0:
255,191,39608,1,0,0:0:0:0:
255,191,39800,1,2,0:0:0:0:
255,191,40355,1,0,0:0:0:0:
255,191,40547,1,0,0:0:0:0:
255,191,40922,1,2,0:0:0:0:
255,191,41299,1,0,0:0:0:0:
255,191,42054,1,2,0:0:0:0:
255,191,42790,1,0,0:0:0:0:
255,191,43178,1,2,0:0:0:0:
255,191,43550,1,0,0:0:0:0:
255,191,43923,1,0,0:0:0:0:
255,191,44296,1,2,0:0:0:0:
255,191,45041,1,0,0:0:0:0:
255,191,45786,1,0,0:0:0:0:
255,191,46933,1,2,0:0:0:0:
255,191,47023,1,2,0:0:0:0:
255,191,47114,1,0,0:0:0:0:
255,191,47296,1,0,0:0:0:0:
255,191,48796,1,0,0:0:0:0:
255,191,49171,1,2,0:0:0:0:
255,191,49546,1,0,0:0:0:0:
255,191,49921,1,0,0:0:0:0:
255,191,50296,1,2,0:0:0:0:
255,191,50858,1,2,0:0:0:0:
255,191,51369,1,2,0:0:0:0:
255,191,51702,1,0,0:0:0:0:
255,191,52930,1,2,0:0:0:0:
255,191,53116,1,0,0:0:0:0:
255,191,54421,1,0,0:0:0:0:
255,191,54607,1,0,0:0:0:0:
255,191,54793,1,2,0:0:0:0:
255,191,55166,1,0,0:0:0:0:
255,191,55259,1,0,0:0:0:0:
255,191,55352,1,0,0:0:0:0:
255,191,55539,1,2,0:0:0:0:
255,191,55725,1,0,0:0:0:0:
255,191,55911,1,2,0:0:0:0:
255,191,56004,1,0,0:0:0:0:
255,191,56098,1,0,0:0:0:0:
255,191,56284,1,2,0:0:0:0:
255,191,56657,1,0,0:0:0:0:
255,191,56843,1,2,0:0:0:0:
255,191,57029,1,2,0:0:0:0:
255,191,57122,1,0,0:0:0:0:
255,191,57216,1,0,0:0:0:0:
255,191,57402,1,2,0:0:0:0:
255,191,57495,1,0,0:0:0:0:
255,191,57588,1,2,0:0:0:0:
255,191,57775,1,0,0:0:0:0:
255,191,58147,1,0,0:0:0:0:
255,191,58334,1,0,0:0:0:0:
255,191,58427,1,0,0:0:0:0:
255,191,58520,1,2,0:0:0:0:
255,191,58706,1,0,0:0:0:0:
255,191,58893,1,2,0:0:0:0:
255,191,58986,1,2,0:0:0:0:
255,191,59079,1,0,0:0:0:0:
255,191,59172,1,0,0:0:0:0:
255,191,59265,1,2,0:0:0:0:
256,192,59452,12,0,60756,0:0:0:0:
