osu file format v14

[General]
AudioFilename: audio.ogg
AudioLeadIn: 0
PreviewTime: 46892
Countdown: 0
SampleSet: Normal
StackLeniency: 0.7
Mode: 1
LetterboxInBreaks: 0
WidescreenStoryboard: 1

[Editor]
DistanceSpacing: 1.1
BeatDivisor: 8
GridSize: 32
TimelineZoom: 1.568

[Metadata]
Title:From Tokyo
TitleUnicode:フロムトーキョー
Artist:Tenma Saki (CV: Isobe Karin)
ArtistUnicode:天馬咲希 (CV: 礒部花凜)
Creator:MTNTWarz
Version:Futsuu
Source:プロジェクトセカイ カラフルステージ! feat. 初音ミク
Tags:taikoseania project sekai featuring hatsune miku proseka プロセカ leo/need 夏代孝明 natsushiro takaaki 渡辺拓也 takuya watanabe japanese rock jrock j-rock cover vocaloid video game
BeatmapID:3214450
BeatmapSetID:1574263

[Difficulty]
HPDrainRate:8
CircleSize:5
OverallDifficulty:4
ApproachRate:5
SliderMultiplier:1.4
SliderTickRate:1

[Events]
//Background and Video events
0,0,"rain saky.jpeg",0,80
//Break Periods
//Storyboard Layer 0 (Background)
//Storyboard Layer 1 (Fail)
//Storyboard Layer 2 (Pass)
//Storyboard Layer 3 (Foreground)
//Storyboard Layer 4 (Overlay)
//Storyboard Sound Samples

[TimingPoints]
-6191,461.538461538462,4,1,0,70,1,0
30732,-100,4,1,0,65,0,0
47232,-100,4,1,0,80,0,1
47347,461.538461538462,4,1,0,80,1,1
76770,-100,4,1,0,70,0,0

[HitObjects]
256,192,1078,5,4,0:0:0:0:
256,192,1424,1,4,0:0:0:0:
256,192,2001,1,4,0:0:0:0:
256,192,2347,1,4,0:0:0:0:
256,192,2924,1,4,0:0:0:0:
256,192,3270,1,4,0:0:0:0:
256,192,3847,1,0,0:0:0:0:
256,192,4309,1,8,0:0:0:0:
256,192,4539,1,8,0:0:0:0:
256,192,4770,1,4,0:0:0:0:
256,192,5116,1,4,0:0:0:0:
256,192,5693,1,4,0:0:0:0:
256,192,6039,1,4,0:0:0:0:
256,192,6616,1,4,0:0:0:0:
256,192,6962,1,4,0:0:0:0:
256,192,7539,1,12,0:0:0:0:
256,192,8462,1,12,0:0:0:0:
256,192,9039,1,0,0:0:0:0:
256,192,9385,1,8,0:0:0:0:
256,192,9616,1,0,0:0:0:0:
256,192,9847,1,8,0:0:0:0:
256,192,10078,1,0,0:0:0:0:
256,192,10424,1,0,0:0:0:0:
256,192,11116,1,0,0:0:0:0:
256,192,11347,1,8,0:0:0:0:
256,192,11693,1,0,0:0:0:0:
256,192,11924,1,0,0:0:0:0:
256,192,12155,1,12,0:0:0:0:
256,192,12616,1,8,0:0:0:0:
256,192,12847,1,8,0:0:0:0:
256,192,13078,1,0,0:0:0:0:
256,192,13424,1,8,0:0:0:0:
256,192,13655,1,0,0:0:0:0:
256,192,14001,1,8,0:0:0:0:
256,192,14347,1,0,0:0:0:0:
256,192,14578,1,8,0:0:0:0:
256,192,14924,1,0,0:0:0:0:
256,192,15847,1,12,0:0:0:0:
256,192,16193,1,12,0:0:0:0:
256,192,16770,1,12,0:0:0:0:
256,192,17116,1,12,0:0:0:0:
256,192,17693,1,12,0:0:0:0:
256,192,18039,1,12,0:0:0:0:
256,192,18616,1,0,0:0:0:0:
256,192,18962,1,8,0:0:0:0:
256,192,19193,1,0,0:0:0:0:
256,192,19539,1,12,0:0:0:0:
256,192,19885,1,12,0:0:0:0:
256,192,20462,1,12,0:0:0:0:
256,192,20809,1,12,0:0:0:0:
256,192,21385,1,12,0:0:0:0:
256,192,21732,1,12,0:0:0:0:
256,192,22309,1,8,0:0:0:0:
256,192,22655,1,8,0:0:0:0:
256,192,22885,1,0,0:0:0:0:
256,192,23232,1,12,0:0:0:0:
256,192,23809,1,0,0:0:0:0:
256,192,24155,1,0,0:0:0:0:
256,192,24501,1,8,0:0:0:0:
256,192,25078,1,8,0:0:0:0:
256,192,25424,1,0,0:0:0:0:
256,192,25655,1,8,0:0:0:0:
256,192,26001,1,0,0:0:0:0:
256,192,26578,1,0,0:0:0:0:
256,192,26924,1,12,0:0:0:0:
256,192,27270,1,8,0:0:0:0:
256,192,27501,1,0,0:0:0:0:
256,192,27847,1,0,0:0:0:0:
256,192,28424,1,0,0:0:0:0:
256,192,28770,1,8,0:0:0:0:
256,192,29116,1,0,0:0:0:0:
256,192,29347,1,8,0:0:0:0:
256,192,29693,1,0,0:0:0:0:
256,192,30732,1,12,0:0:0:0:
256,192,31655,1,0,0:0:0:0:
256,192,32578,1,8,0:0:0:0:
256,192,33501,1,0,0:0:0:0:
256,192,34424,1,8,0:0:0:0:
256,192,34770,1,0,0:0:0:0:
256,192,35347,1,8,0:0:0:0:
256,192,35693,1,8,0:0:0:0:
256,192,36270,1,0,0:0:0:0:
256,192,36616,1,0,0:0:0:0:
256,192,37193,1,8,0:0:0:0:
256,192,38116,1,12,0:0:0:0:
256,192,39039,1,0,0:0:0:0:
256,192,39962,1,4,0:0:0:0:
256,192,40424,1,4,0:0:0:0:
256,192,40885,1,8,0:0:0:0:
256,192,41809,1,0,0:0:0:0:
256,192,42155,1,8,0:0:0:0:
256,192,42732,1,8,0:0:0:0:
256,192,43078,1,0,0:0:0:0:
256,192,43655,1,8,0:0:0:0:
256,192,45501,1,0,0:0:0:0:
256,192,45732,1,0,0:0:0:0:
256,192,45962,1,0,0:0:0:0:
256,192,46193,1,8,0:0:0:0:
256,192,47232,1,12,0:0:0:0:
256,192,47808,1,0,0:0:0:0:
256,192,48500,1,8,0:0:0:0:
256,192,48731,1,0,0:0:0:0:
256,192,48962,1,0,0:0:0:0:
256,192,49193,1,8,0:0:0:0:
256,192,49539,1,0,0:0:0:0:
256,192,49885,1,8,0:0:0:0:
256,192,50116,1,0,0:0:0:0:
256,192,50577,1,0,0:0:0:0:
256,192,50923,1,12,0:0:0:0:
256,192,51270,1,8,0:0:0:0:
256,192,51500,1,0,0:0:0:0:
256,192,51847,1,8,0:0:0:0:
256,192,52193,1,0,0:0:0:0:
256,192,52423,1,0,0:0:0:0:
256,192,52770,1,8,0:0:0:0:
256,192,53116,1,8,0:0:0:0:
256,192,53347,1,0,0:0:0:0:
256,192,53693,1,0,0:0:0:0:
256,192,54270,1,0,0:0:0:0:
256,192,54616,1,12,0:0:0:0:
256,192,55193,1,0,0:0:0:0:
256,192,55885,1,8,0:0:0:0:
256,192,56116,1,8,0:0:0:0:
256,192,56347,1,0,0:0:0:0:
256,192,56577,1,8,0:0:0:0:
256,192,56923,1,0,0:0:0:0:
256,192,57270,1,8,0:0:0:0:
256,192,57500,1,0,0:0:0:0:
256,192,57962,1,0,0:0:0:0:
256,192,58308,1,12,0:0:0:0:
256,192,58654,1,0,0:0:0:0:
256,192,58885,1,8,0:0:0:0:
256,192,59231,1,0,0:0:0:0:
256,192,59577,1,8,0:0:0:0:
256,192,59808,1,0,0:0:0:0:
256,192,60270,1,0,0:0:0:0:
256,192,60500,1,8,0:0:0:0:
256,192,60731,1,8,0:0:0:0:
256,192,60962,1,0,0:0:0:0:
256,192,61193,1,8,0:0:0:0:
256,192,62000,1,12,0:0:0:0:
256,192,62577,1,0,0:0:0:0:
256,192,63270,1,8,0:0:0:0:
256,192,63500,1,0,0:0:0:0:
256,192,63731,1,0,0:0:0:0:
256,192,63962,1,8,0:0:0:0:
256,192,64308,1,0,0:0:0:0:
256,192,64654,1,8,0:0:0:0:
256,192,64885,1,0,0:0:0:0:
256,192,65347,1,0,0:0:0:0:
256,192,65693,1,12,0:0:0:0:
256,192,66039,1,8,0:0:0:0:
256,192,66270,1,0,0:0:0:0:
256,192,66616,1,8,0:0:0:0:
256,192,66962,1,0,0:0:0:0:
256,192,67193,1,0,0:0:0:0:
256,192,67539,1,8,0:0:0:0:
256,192,67885,1,8,0:0:0:0:
256,192,68116,1,0,0:0:0:0:
256,192,68462,1,0,0:0:0:0:
256,192,69039,1,0,0:0:0:0:
256,192,69385,1,12,0:0:0:0:
256,192,69962,1,4,0:0:0:0:
256,192,70654,1,8,0:0:0:0:
256,192,70885,1,8,0:0:0:0:
256,192,71116,1,0,0:0:0:0:
256,192,71347,1,8,0:0:0:0:
256,192,71693,1,0,0:0:0:0:
256,192,72039,1,8,0:0:0:0:
256,192,72270,1,0,0:0:0:0:
256,192,72731,1,0,0:0:0:0:
256,192,73077,1,12,0:0:0:0:
256,192,73423,1,0,0:0:0:0:
256,192,73654,1,8,0:0:0:0:
256,192,74000,1,0,0:0:0:0:
256,192,74347,1,8,0:0:0:0:
256,192,74577,1,0,0:0:0:0:
256,192,75039,1,8,0:0:0:0:
256,192,75270,1,0,0:0:0:0:
256,192,75500,1,8,0:0:0:0:
256,192,75731,1,8,0:0:0:0:
256,192,75962,1,0,0:0:0:0:
256,192,76770,1,4,0:0:0:0:
256,192,77116,1,4,0:0:0:0:
256,192,77693,1,4,0:0:0:0:
256,192,78039,1,4,0:0:0:0:
256,192,78616,1,4,0:0:0:0:
256,192,78962,1,4,0:0:0:0:
256,192,79539,1,0,0:0:0:0:
256,192,80000,1,8,0:0:0:0:
256,192,80231,1,8,0:0:0:0:
256,192,80462,1,4,0:0:0:0:
256,192,80808,1,4,0:0:0:0:
256,192,81385,1,4,0:0:0:0:
256,192,81731,1,4,0:0:0:0:
256,192,82308,1,4,0:0:0:0:
256,192,82654,1,4,0:0:0:0:
256,192,83231,1,12,0:0:0:0:
256,192,83693,1,0,0:0:0:0:
256,192,83923,1,0,0:0:0:0:
256,192,84154,1,12,0:0:0:0:
256,192,84731,1,0,0:0:0:0:
256,192,85077,1,8,0:0:0:0:
256,192,85308,1,0,0:0:0:0:
256,192,85539,1,8,0:0:0:0:
256,192,85770,1,0,0:0:0:0:
256,192,86116,1,0,0:0:0:0:
256,192,86808,1,0,0:0:0:0:
256,192,87039,1,8,0:0:0:0:
256,192,87385,1,0,0:0:0:0:
256,192,87616,1,0,0:0:0:0:
256,192,87847,1,12,0:0:0:0:
256,192,88423,1,8,0:0:0:0:
256,192,88770,1,0,0:0:0:0:
256,192,89116,1,8,0:0:0:0:
256,192,89347,1,8,0:0:0:0:
256,192,89693,1,0,0:0:0:0:
256,192,90039,1,0,0:0:0:0:
256,192,90270,1,8,0:0:0:0:
256,192,90616,1,4,0:0:0:0:
256,192,90962,1,4,0:0:0:0:
