osu file format v14

[General]
AudioFilename: Start Dash Dash!.mp3
AudioLeadIn: 0
PreviewTime: 60749
Countdown: 0
SampleSet: Soft
StackLeniency: 0.2
Mode: 0
LetterboxInBreaks: 0
WidescreenStoryboard: 1

[Editor]
Bookmarks: 207596
DistanceSpacing: 0.6
BeatDivisor: 4
GridSize: 32
TimelineZoom: 3.3

[Metadata]
Title:Start Dash Dash! (Cut Ver.)
TitleUnicode:スタート♪ダッシュダッシュ! (Cut Ver.)
Artist:Tenma Mitsuru (CV: Ikeda Junya)
ArtistUnicode:天満光 (CV: 池田純矢)
Creator:Kyouren
Version:Insane!
Source:あんさんぶるスターズ!
Tags:ensemble stars! enstars! es! enstars es 松井洋平 Yohei Matsui 原田雄一 Yuichi Harada KoTa Jun'ya solo character song uta ALBUM SERIES あんさんぶるスターズ アルバムシリーズ PRESENT -Ra*bits- Rabits rabbits rabbit rabit Ra*bits Stars star first 1st 1 one studio Frontier Works FRONTIERWORKS Happy Elements cacalia studio jpop j-pop jrock j-rock rock japanese japan pop male vocals vocal vocalist gacha mobile phone video game videogame games idol seiyuu voice actor va あんさんぶるスターズ!! stars!! basic music rhythm bgm background gokugohan12468 kittyadventure version ver
BeatmapID:4241275
BeatmapSetID:2031858

[Difficulty]
HPDrainRate:5.5
CircleSize:3.8
OverallDifficulty:8
ApproachRate:9
SliderMultiplier:1.5
SliderTickRate:1

[Events]
//Background and Video events
0,0,"insane.jpg",0,0
//Break Periods
//Storyboard Layer 0 (Background)
//Storyboard Layer 1 (Fail)
//Storyboard Layer 2 (Pass)
//Storyboard Layer 3 (Foreground)
//Storyboard Layer 4 (Overlay)
//Storyboard Sound Samples

[TimingPoints]
500,338.983050847458,4,2,1,60,1,0
838,-133.333333333333,4,2,1,60,0,0
1516,368.098159509202,4,2,1,60,1,0
1516,-133.333333333333,4,2,1,60,0,0
1700,344.827586206897,4,2,1,60,1,0
1700,-105.263157894737,4,2,1,60,0,0
2044,342.857142857143,4,2,1,60,1,0
2044,-133.333333333333,4,2,1,60,0,0
2215,375,4,2,1,60,1,0
2215,-133.333333333333,4,2,1,60,0,0
2402,342.857142857143,4,2,1,60,1,0
2402,-133.333333333333,4,2,1,60,0,0
2916,327.868852459016,4,2,1,60,1,0
2916,-133.333333333333,4,2,1,60,0,0
3244,342.857142857143,4,2,1,60,1,0
3244,-133.333333333333,4,2,1,60,0,0
4272,324.324324324324,4,2,1,60,1,0
4272,-133.333333333333,4,2,1,60,0,0
4434,342.857142857143,4,2,1,60,1,0
4434,-117.647058823529,4,2,1,60,0,0
4691,-117.647058823529,4,2,1,5,0,0
4776,-98.5221674876847,4,2,1,60,0,0
4862,333.333333333333,4,2,1,5,1,0
4862,-100,4,2,1,5,0,0
5112,355.029585798817,4,2,1,60,1,0
5112,-117.647058823529,4,2,1,60,0,0
5378,352.941176470588,4,2,1,5,1,0
5378,-117.647058823529,4,2,1,5,0,0
5466,327.868852459016,4,2,1,60,1,0
5466,-133.333333333333,4,2,1,60,0,0
5957,370.37037037037,4,2,1,70,1,0
5985,-100,4,2,1,70,0,0
6327,342.857142857143,4,2,1,70,1,0
7355,344.827586206897,4,2,1,70,1,0
8734,342.857142857143,4,2,1,70,1,0
14219,338.983050847458,4,2,1,70,1,0
14727,-83.3333333333333,4,2,1,70,0,0
15405,-100,4,2,1,70,0,0
15574,342.857142857143,4,2,1,70,1,0
15659,-100,4,2,1,5,0,0
15745,-100,4,2,1,70,0,0
16602,344.827586206897,4,2,1,70,1,0
16946,346.820809248555,4,2,1,50,1,0
16946,-117.647058823529,4,2,1,50,0,0
17639,-133.333333333333,4,2,1,50,0,0
17986,348.837209302326,4,2,1,50,1,0
17986,-133.333333333333,4,2,1,50,0,0
18160,-130.718954248366,4,2,1,50,0,0
18334,338.983050847458,4,2,1,50,1,0
18672,342.857142857143,4,2,1,50,1,0
18672,-133.333333333333,4,2,1,50,0,0
19700,342.857142857143,4,2,1,50,1,0
19700,-133.333333333333,4,2,1,50,0,0
20985,-133.333333333333,4,2,1,5,0,0
21071,338.983050847458,4,2,1,50,1,0
21071,-133.333333333333,4,2,1,50,0,0
21242,-133.333333333333,4,2,1,50,0,0
22342,-133.333333333333,4,2,1,5,0,0
22426,340.909090909091,4,2,1,60,1,0
22426,-100,4,2,1,60,0,0
22766,357.142857142857,4,2,1,60,1,0
23123,346.820809248555,4,2,1,60,1,0
23469,348.837209302326,4,2,1,60,1,0
23817,340.909090909091,4,2,1,60,1,0
23817,-105.263157894737,4,2,1,60,0,0
24157,-100,4,2,1,60,0,0
25180,342.857142857143,4,2,1,60,1,0
26808,-100,4,2,1,5,0,0
26894,-100,4,2,1,60,0,0
27751,335.195530726257,4,2,1,60,1,0
27918,344.827586206897,4,2,1,60,1,0
28607,346.820809248555,4,2,1,60,1,0
28953,338.983050847458,4,2,1,60,1,0
29291,342.857142857143,4,2,1,60,1,0
31351,350.877192982457,4,2,1,60,1,0
31701,344.827586206897,4,2,1,60,1,0
31959,-100,4,2,1,5,0,0
32045,342.857142857143,4,2,1,60,1,0
32130,-100,4,2,1,5,0,0
32216,-100,4,2,1,60,0,0
32302,-100,4,2,1,5,0,0
32387,-100,4,2,1,60,0,0
32559,-100,4,2,1,60,0,0
32902,-100,4,2,1,60,0,0
35816,333.333333333334,4,2,1,60,1,0
36149,340.909090909091,4,2,1,60,1,0
36489,350.877192982456,4,2,1,60,1,0
36839,342.857142857143,4,2,1,60,1,0
37524,342.857142857143,4,2,1,60,1,0
41295,338.983050847458,4,2,1,60,1,0
41633,355.029585798817,4,2,1,60,1,0
41988,344.827586206897,4,2,1,60,1,0
42677,340.909090909091,4,2,1,60,1,0
42847,-100,4,2,1,60,0,0
42932,-100,4,2,1,60,0,0
43017,326.086956521739,4,2,1,60,1,0
43017,-100,4,2,1,60,0,0
43180,-100,4,2,1,60,0,0
43343,352.941176470588,4,2,1,60,1,0
43695,342.857142857143,4,2,1,60,1,0
44380,344.827586206897,4,2,1,70,1,0
44380,-133.333333333333,4,2,1,70,0,0
45414,342.857142857143,4,2,1,70,1,0
45756,342.857142857143,4,2,1,70,1,0
45756,-133.333333333333,4,2,1,70,0,0
52613,344.827586206897,4,2,1,60,1,0
52613,-100,4,2,1,60,0,0
52871,-100,4,2,1,5,0,0
52957,-100,4,2,1,60,0,0
53130,-117.647058823529,4,2,1,60,0,0
53992,340.909090909091,4,2,1,60,1,0
53992,-117.647058823529,4,2,1,60,0,0
55014,342.857142857143,4,2,1,60,1,0
55014,-117.647058823529,4,2,1,60,0,0
55356,-100,4,2,1,70,0,0
55612,-100,4,2,1,5,0,0
55699,346.820809248555,4,2,1,70,1,0
56045,338.983050847458,4,2,1,70,1,0
56214,348.837209302326,4,2,1,70,1,0
56388,331.491712707182,4,2,1,70,1,0
56553,342.857142857143,4,2,1,70,1,0
57400,346.820809248555,4,2,1,70,1,0
58093,342.857142857143,4,2,1,70,1,0
58093,-117.647058823529,4,2,1,70,0,0
58264,357.142857142857,4,2,1,70,1,0
58264,-117.647058823529,4,2,1,70,0,0
58621,342.857142857143,4,2,1,70,1,0
58621,-117.647058823529,4,2,1,70,0,0
58792,329.67032967033,4,2,1,70,1,0
58792,-117.647058823529,4,2,1,70,0,0
59121,342.857142857143,4,2,1,70,1,0
59121,-117.647058823529,4,2,1,70,0,0
59298,-117.647058823529,4,2,1,60,0,0
59463,342.857142857142,4,2,1,60,1,0
59463,-117.647058823529,4,2,1,60,0,0
59977,-117.647058823529,4,2,1,60,0,0
60320,-100,4,2,1,50,0,0
60663,346.820809248555,4,2,1,50,1,0
60836,342.857142857143,4,2,1,80,1,1
60836,-100,4,2,1,80,0,1
61350,338.983050847458,4,2,1,80,1,1
61688,342.857142857143,4,2,1,80,1,1
62030,342.857142857143,4,2,1,80,1,1
62030,-99.502487562189,4,2,1,80,0,1
62201,338.983050847458,4,2,1,80,1,1
62878,361.44578313253,4,2,1,80,1,1
63239,335.195530726257,4,2,1,80,1,1
63574,342.857142857143,4,2,1,80,1,1
63574,-102.30179028133,4,2,1,80,0,1
63745,359.281437125748,4,2,1,80,1,1
64104,311.688311688312,4,2,1,80,1,1
64259,359.281437125748,4,2,1,80,1,1
64618,344.827586206897,4,2,1,80,1,1
64962,335.195530726257,4,2,1,80,1,1
65297,342.857142857143,4,2,1,80,1,1
66325,342.857142857143,4,2,1,80,1,1
66582,-100,4,2,1,5,0,1
66667,-100,4,2,1,80,0,1
70267,344.827586206897,4,2,1,80,1,1
70267,-100,4,2,1,80,0,1
70956,338.983050847458,4,2,1,80,1,1
71125,342.857142857143,4,2,1,80,1,1
71126,-100,4,2,1,80,0,1
71725,-100,4,2,1,80,0,0
71810,-100,4,2,1,80,0,1
72153,338.983050847458,4,2,1,80,1,1
72322,361.44578313253,4,2,1,80,1,1
72502,337.078651685393,4,2,1,80,1,1
72839,340.909090909091,4,2,1,80,1,1
73009,338.983050847458,4,2,1,80,1,1
73009,-102.040816326531,4,2,1,80,0,1
73178,350.877192982457,4,2,1,80,1,1
73528,337.078651685394,4,2,1,80,1,1
73865,352.941176470588,4,2,1,80,1,1
74217,342.857142857143,4,2,1,80,1,1
74559,342.857142857143,4,2,1,80,1,1
75930,-90.9090909090909,4,2,1,80,0,1
76444,-100,4,2,1,80,0,1
82701,-100,4,2,1,80,0,0
82787,-100,4,2,1,90,0,1
84159,337.078651685393,4,2,1,90,1,1
84496,337.078651685393,4,2,1,80,1,0
84496,-100,4,2,1,80,0,0
84833,331.491712707183,4,2,1,80,1,0
85164,359.281437125749,4,2,1,80,1,0
85164,-100,4,2,1,80,0,0
85433,-100,4,2,1,80,0,0
85523,340.909090909091,4,2,1,60,1,1
85523,-100,4,2,1,60,0,1
85608,-100,4,2,1,60,0,0
86204,342.857142857143,4,2,1,60,1,0
86204,-117.647058823529,4,2,1,60,0,0
86546,359.281437125748,4,2,1,60,1,0
86546,-117.647058823529,4,2,1,60,0,0
86905,342.857142857143,4,2,1,60,1,0
86905,-117.647058823529,4,2,1,60,0,0
89133,-115.942028985507,4,2,1,60,0,0
89305,335.195530726257,4,2,1,60,1,0
89305,-100,4,2,1,60,0,0
89640,342.857142857143,4,2,1,60,1,0
89640,-117.647058823529,4,2,1,60,0,0
90668,326.086956521739,4,2,1,60,1,0
90668,-117.647058823529,4,2,1,60,0,0
90831,346.820809248555,4,2,1,60,1,0
90831,-117.647058823529,4,2,1,60,0,0
91004,355.029585798817,4,2,1,70,1,1
91004,-100,4,2,1,70,0,1
91359,342.857142857143,4,2,1,50,1,1
91359,-100,4,2,1,50,0,1
91701,-100,4,2,1,60,0,1
92044,363.636363636364,4,2,1,70,1,1
92044,-100,4,2,1,70,0,1
92225,338.983050847458,4,2,1,70,1,1
92394,335.195530726257,4,2,1,80,1,1
92394,-100,4,2,1,80,0,1
92729,331.491712707182,4,2,1,80,1,1
92894,348.837209302326,4,2,1,80,1,1
93242,342.857142857143,4,2,1,80,1,1
93584,370.37037037037,4,2,1,80,1,1
93676,-100,4,2,1,80,0,0
93769,363.636363636364,4,2,1,90,1,1
93769,-100,4,2,1,90,0,1
93950,363.636363636364,4,2,1,90,1,1
94131,303.030303030303,4,2,1,90,1,1
94282,338.983050847458,4,2,1,90,1,1
94620,331.491712707182,4,2,1,90,1,1
95282,365.853658536585,4,2,1,90,1,1
95464,333.333333333334,4,2,1,90,1,1
96214,-100,4,2,1,90,0,0
96297,350.877192982456,4,2,1,80,1,1
96297,-197.044334975369,4,2,1,80,0,1
97700,320.855614973262,4,2,1,45,1,1
97700,-197.044334975369,4,2,1,45,0,1
97940,-197.044334975369,4,2,1,45,0,0

[Colours]
Combo1 : 255,255,125
Combo2 : 195,135,135
Combo3 : 145,255,145

[HitObjects]
130,240,500,6,0,P|104:213|104:177,1,75,4|0,1:0|0:0,0:0:0:0:
205,120,838,6,0,P|194:146|186:173,1,56.2500021457673,2|0,0:0|0:0,0:0:0:0:
20,150,1177,2,0,P|40:97|54:43,1,112.500004291535,2|0,0:0|1:0,0:0:0:0:
130,240,1700,6,0,P|191:207|258:225,1,142.49999619484,4|2,3:0|0:0,2:0:0:0:
380,180,2215,2,0,L|370:124,1,56.2500021457673,2|0,0:0|1:0,0:0:0:0:
445,65,2573,2,0,L|455:120,1,56.2500021457673,2|6,0:0|3:0,0:0:0:0:
290,140,2916,2,0,L|281:84,1,56.2500021457673,2|0,0:0|1:0,0:0:0:0:
215,30,3161,1,0,1:0:0:0:
200,25,3244,6,0,P|171:26|145:35,1,56.2500021457673,4|2,1:0|0:0,0:0:0:0:
30,110,3586,2,0,P|85:105|134:131,1,112.500004291535,0|4,0:0|3:0,0:0:0:0:
130,240,4101,1,0,1:0:0:0:
114,236,4186,1,0,1:0:0:0:
98,232,4272,1,0,1:0:0:0:
305,105,4434,6,0,P|293:151|285:198,1,95.6250018239022,4|0,3:0|0:0,0:0:0:0:
203,187,4776,6,0,P|215:132|224:76,1,112.5,4|0,3:0|0:0,0:0:0:0:
305,105,5112,6,0,P|293:151|285:198,1,95.6250018239022,4|0,3:0|0:0,0:0:0:0:
203,187,5466,5,4,3:0:0:0:
192,166,5547,1,4,3:0:0:0:
177,148,5629,1,0,1:0:0:0:
157,135,5711,1,0,1:0:0:0:
134,128,5793,1,0,1:0:0:0:
111,127,5875,1,0,1:0:0:0:
89,131,5957,6,0,P|38:183|45:256,1,150,4|0,1:0|1:0,0:0:0:0:
235,315,6498,1,0,0:0:0:0:
155,365,6669,2,0,P|131:335|125:299,1,75,4|2,3:0|0:0,0:0:0:0:
280,160,7012,2,0,P|262:192|257:229,1,75,0|2,1:0|0:0,0:0:0:0:
305,370,7355,6,0,B|383:359|361:330|443:316,2,150,4|0|4,3:0|1:0|3:0,0:0:0:0:
305,370,8130,1,2,0:0:0:0:
305,370,8217,1,2,0:0:0:0:
160,340,8389,1,0,1:0:0:0:
257,229,8561,1,2,0:0:0:0:
120,140,8734,6,0,P|84:151|47:158,1,75,4|0,3:0|0:0,0:0:0:0:
165,215,9076,1,0,1:0:0:0:
250,5,9248,2,0,P|218:72|221:146,1,150,2|0,0:0|0:0,0:0:0:0:
380,30,9762,1,0,1:0:0:0:
250,5,9934,1,2,0:0:0:0:
356,114,10105,6,0,P|393:112|428:100,1,75,4|0,3:0|0:0,0:0:0:0:
221,146,10448,2,0,P|200:114|172:90,1,75,0|0,1:0|0:0,0:0:0:0:
310,240,10791,2,0,P|292:273|285:309,1,75,4|0,3:0|0:0,0:0:0:0:
430,350,11134,2,0,P|448:317|455:281,1,75,0|0,1:0|0:0,0:0:0:0:
510,215,11391,5,0,1:0:0:0:
512,208,11476,2,0,P|507:170|505:133,1,75,4|0,1:0|0:0,0:0:0:0:
325,20,11819,1,0,1:0:0:0:
445,75,11991,2,0,B|364:88|386:98|300:115,1,150,2|0,0:0|0:0,0:0:0:0:
110,20,12505,2,0,P|125:54|131:91,1,75,0|2,1:0|0:0,0:0:0:0:
205,165,12762,1,2,0:0:0:0:
210,160,12848,6,0,L|226:10,1,150,4|0,3:0|1:0,0:0:0:0:
45,85,13362,2,0,P|41:122|36:159,1,75,2|4,0:0|3:0,0:0:0:0:
115,265,13705,1,2,0:0:0:0:
284,169,13876,2,0,P|247:165|210:160,1,75,0|0,1:0|0:0,0:0:0:0:
25,315,14219,5,4,1:0:0:0:
210,380,14388,1,0,1:0:0:0:
212,368,14473,1,0,1:0:0:0:
214,356,14557,1,0,1:0:0:0:
115,265,14727,6,0,L|120:309,1,44.999998626709,4|0,3:0|0:0,0:0:0:0:
284,169,15066,6,0,L|278:213,2,44.999998626709,4|0|0,3:0|0:0|1:0,0:0:0:0:
45,85,15405,6,0,B|75:69|105:73|105:73|125:87|151:90,1,112.5,4|0,1:0|0:0,0:0:0:0:
151,90,15745,5,6,3:0:0:0:
215,30,15916,1,6,3:0:0:0:
284,169,16088,5,0,1:0:0:0:
298,174,16174,1,0,1:0:0:0:
311,178,16259,1,0,1:0:0:0:
419,66,16431,5,4,3:0:0:0:
407,75,16516,1,4,3:0:0:0:
397,84,16602,1,4,3:0:0:0:
445,230,16774,6,0,L|435:193,1,37.5,4|4,3:0|3:0,0:0:0:0:
435,194,16946,6,0,P|406:250|410:313,2,127.50000243187,4|4|4,1:0|3:0|3:0,0:0:0:0:
397,84,17813,1,2,0:0:0:0:
311,178,17986,1,4,3:0:0:0:
240,125,18160,6,0,B|174:135|201:141|131:153,1,112.500004291535,2|2,0:0|0:0,0:0:0:0:
75,220,18672,1,4,3:0:0:0:
10,160,18843,2,0,P|-5:107|18:58,1,112.500004291535,2|2,0:0|0:0,0:0:0:0:
112,18,19357,2,0,L|105:73,1,56.2500021457673,4|2,3:0|0:0,0:0:0:0:
230,210,19700,6,0,B|280:201|280:201|292:189|292:189|336:180,2,112.500004291535,4|4|4,3:0|3:0|3:0,0:0:0:0:
395,115,20557,1,0,1:0:0:0:
400,95,20642,1,0,1:0:0:0:
405,75,20728,1,0,1:0:0:0:
490,220,20900,1,4,1:0:0:0:
490,220,21240,5,4,3:0:0:0:
336,180,21409,1,4,3:0:0:0:
280,340,21579,5,0,1:0:0:0:
295,345,21664,1,0,1:0:0:0:
307,348,21748,1,0,1:0:0:0:
445,305,21918,1,4,3:0:0:0:
360,275,22087,6,0,P|352:233|342:192,1,84.3750032186509,4|0,1:0|0:0,0:0:0:0:
336,180,22426,6,0,P|278:225|204:220,1,150,4|0,1:0|1:0,0:0:0:0:
136,164,22944,1,2,0:0:0:0:
285,35,23123,2,0,P|281:72|275:109,1,75,4|0,3:0|0:0,0:0:0:0:
205,220,23469,1,0,1:0:0:0:
125,250,23643,1,2,0:0:0:0:
2,117,23817,6,0,B|81:130|62:151|136:164,1,142.49999619484,4|0,3:0|1:0,0:0:0:0:
205,220,24328,1,2,0:0:0:0:
336,180,24498,2,0,P|325:216|319:253,1,75,4|4,3:0|3:0,0:0:0:0:
370,320,24754,1,2,0:0:0:0:
375,325,24839,2,0,P|412:330|448:341,1,75,0|2,1:0|0:0,0:0:0:0:
255,365,25180,5,4,3:0:0:0:
205,220,25351,1,2,0:0:0:0:
105,325,25522,2,0,P|68:320|32:309,1,75,0|0,1:0|0:0,0:0:0:0:
190,305,25865,5,4,3:0:0:0:
205,220,26037,1,4,3:0:0:0:
125,245,26208,1,0,1:0:0:0:
270,275,26380,1,2,0:0:0:0:
470,215,26551,6,0,B|409:198|417:219|358:217,1,112.5,4|0,3:0|0:0,0:0:0:0:
345,220,26894,2,0,B|335:186|335:186|345:147,1,75,0|0,1:0|0:0,0:0:0:0:
240,85,27237,1,4,3:0:0:0:
185,155,27408,1,4,3:0:0:0:
115,100,27580,2,0,L|126:25,1,75,0|2,1:0|0:0,0:0:0:0:
40,200,27918,5,4,3:0:0:0:
170,280,28090,1,2,0:0:0:0:
35,205,28262,2,0,L|46:280,1,75,0|2,1:0|0:0,0:0:0:0:
240,365,28607,6,0,P|295:317|291:245,1,150,4|0,3:0|1:0,0:0:0:0:
235,175,29122,1,2,0:0:0:0:
215,145,29207,1,2,0:0:0:0:
235,115,29291,1,4,3:0:0:0:
366,58,29462,2,0,P|402:65|439:70,1,75,0|0,0:0|1:0,0:0:0:0:
335,150,29805,1,2,0:0:0:0:
423,189,29976,5,4,3:0:0:0:
366,58,30148,1,4,3:0:0:0:
235,115,30319,1,0,1:0:0:0:
291,245,30491,1,2,0:0:0:0:
423,189,30662,6,0,P|404:261|395:336,1,150,4|0,3:0|1:0,0:0:0:0:
275,365,31176,1,2,0:0:0:0:
205,315,31351,2,0,L|131:301,1,75,4|4,3:0|3:0,0:0:0:0:
275,365,31701,1,0,1:0:0:0:
235,115,31873,6,0,B|190:123|190:123|178:130|178:130|126:140,1,112.5,4|0,1:0|0:0,0:0:0:0:
126,140,32216,5,0,1:0:0:0:
230,5,32387,1,0,1:0:0:0:
379,51,32559,2,0,B|463:72|437:98|512:116,1,150,4|4,3:0|3:0,0:0:0:0:
235,115,33073,5,0,1:0:0:0:
232,128,33159,1,0,1:0:0:0:
229,141,33245,1,0,1:0:0:0:
270,270,33416,6,0,B|224:258|208:231|208:231|180:252|136:249,1,150,4|0,1:0|1:0,0:0:0:0:
270,370,33930,1,2,0:0:0:0:
270,370,34102,2,0,P|306:360|343:353,1,75,4|4,3:0|3:0,0:0:0:0:
192,328,34445,1,0,1:0:0:0:
300,190,34616,1,2,0:0:0:0:
229,141,34787,6,0,B|151:132|173:102|88:92,1,150,4|0,3:0|1:0,0:0:0:0:
220,55,35302,1,2,0:0:0:0:
102,188,35473,2,0,P|91:224|85:261,1,75,4|4,3:0|3:0,0:0:0:0:
90,345,35730,1,2,0:0:0:0:
85,350,35816,2,0,P|49:339|12:333,1,75,0|2,1:0|0:0,0:0:0:0:
220,245,36149,5,4,3:0:0:0:
297,273,36319,1,2,0:0:0:0:
229,141,36489,1,0,1:0:0:0:
102,188,36664,1,2,0:0:0:0:
25,90,36839,6,0,P|20:52|13:15,1,75,4|4,3:0|3:0,0:0:0:0:
240,55,37181,1,0,1:0:0:0:
229,141,37353,1,2,0:0:0:0:
102,188,37524,6,0,B|135:103|97:128|127:41,1,150,4|0,3:0|1:0,0:0:0:0:
220,245,38209,1,4,3:0:0:0:
258,342,38381,1,4,3:0:0:0:
297,273,38552,1,0,1:0:0:0:
180,320,38724,1,2,0:0:0:0:
297,273,38895,6,0,P|334:277|371:282,1,75,4|2,1:0|0:0,0:0:0:0:
510,190,39238,2,0,P|472:194|435:198,1,75,0|2,1:0|0:0,0:0:0:0:
320,70,39581,2,0,B|413:82|377:95|465:105,1,150,4|0,3:0|1:0,0:0:0:0:
345,160,40095,1,2,0:0:0:0:
235,20,40266,6,0,P|229:57|223:94,1,75,4|0,3:0|0:0,0:0:0:0:
110,225,40609,2,0,P|115:187|121:150,1,75,0|2,1:0|0:0,0:0:0:0:
264,304,40952,1,4,3:0:0:0:
120,360,41124,1,4,3:0:0:0:
215,225,41295,1,0,1:0:0:0:
215,225,41464,1,0,0:0:0:0:
340,360,41633,6,0,P|376:351|413:345,1,75,4|2,1:0|0:0,0:0:0:0:
215,225,41988,1,0,1:0:0:0:
415,120,42160,2,0,P|356:164|283:157,1,150,4|4,3:0|3:0,0:0:0:0:
150,60,42677,1,0,1:0:0:0:
255,5,42847,6,0,P|248:41|242:78,1,75,4|0,1:0|0:0,0:0:0:0:
365,245,43180,1,4,3:0:0:0:
415,120,43343,1,0,1:0:0:0:
283,157,43519,2,0,B|264:160|264:160|262:161|262:161|246:163,2,37.5,2|2|2,0:0|0:0|0:0,0:0:0:0:
505,220,43866,1,6,3:0:0:0:
365,245,44037,2,0,P|355:281|351:318,1,75,4|0,3:0|0:0,0:0:0:0:
190,370,44380,5,4,1:0:0:0:
190,370,44552,1,0,1:0:0:0:
120,190,45069,1,0,1:0:0:0:
120,190,45242,1,0,1:0:0:0:
365,245,45756,1,0,1:0:0:0:
365,245,45927,1,0,1:0:0:0:
280,50,46270,6,0,B|267:109|281:104|271:162,1,112.500004291535,4|4,1:0|3:0,0:0:0:0:
271,161,46698,1,4,3:0:0:0:
271,161,46784,1,4,1:0:0:0:
190,370,47127,5,0,1:0:0:0:
190,370,47298,1,0,1:0:0:0:
365,245,47813,1,0,1:0:0:0:
365,245,47984,1,0,1:0:0:0:
280,50,48498,1,0,1:0:0:0:
280,50,48670,1,0,1:0:0:0:
50,170,49013,6,0,B|78:175|91:175|91:175|110:187|110:187|131:185|158:192,1,112.500004291535,4|4,1:0|3:0,0:0:0:0:
220,250,49441,1,4,3:0:0:0:
220,260,49527,2,0,L|216:287,1,28.1250010728836,4|4,3:0|3:0,0:0:0:0:
150,340,49698,2,0,L|122:336,1,28.1250010728836,4|4,3:0|3:0,0:0:0:0:
45,370,49870,5,4,1:0:0:0:
45,370,50041,1,0,1:0:0:0:
50,170,50556,1,0,1:0:0:0:
50,170,50727,1,0,1:0:0:0:
220,260,51241,1,0,1:0:0:0:
220,260,51413,1,0,1:0:0:0:
255,65,51756,6,0,B|244:132|265:118|256:176,1,112.500004291535,4|4,1:0|3:0,0:0:0:0:
315,235,52270,1,4,3:0:0:0:
487,87,52441,1,0,1:0:0:0:
487,87,52527,1,0,1:0:0:0:
487,87,52613,6,0,B|450:96|450:96|433:114|433:114|385:127,1,112.5,4|0,1:0|0:0,0:0:0:0:
385,126,52957,1,0,1:0:0:0:
265,75,53130,1,2,0:0:0:0:
260,70,53216,1,2,0:0:0:0:
255,65,53302,2,0,P|224:73|193:80,1,63.7500012159348,6|0,3:0|0:0,0:0:0:0:
389,130,53647,1,0,1:0:0:0:
315,235,53819,1,2,0:0:0:0:
385,300,53992,6,0,B|456:295|446:305|512:301,1,127.50000243187,4|0,3:0|1:0,0:0:0:0:
472,217,54503,1,4,3:0:0:0:
472,217,54588,1,4,3:0:0:0:
472,217,54673,1,4,3:0:0:0:
389,130,54844,1,4,3:0:0:0:
480,25,55014,2,0,P|471:55|466:87,1,63.7500012159348,0|2,1:0|0:0,0:0:0:0:
255,15,55356,6,0,B|326:25|293:32|363:43,1,112.5,4|0,1:0|0:0,0:0:0:0:
363,43,55699,2,0,P|326:49|290:60,1,75,0|4,1:0|3:0,0:0:0:0:
245,205,56045,2,0,P|237:168|230:131,1,75,0|4,1:0|3:0,0:0:0:0:
389,130,56388,1,0,1:0:0:0:
340,350,56553,6,0,P|317:279|343:210,1,150,4|4,1:0|3:0,0:0:0:0:
245,205,57067,2,0,L|167:225,1,75,0|2,1:0|0:0,0:0:0:0:
389,130,57400,2,0,L|395:55,1,75,4|0,3:0|1:0,0:0:0:0:
326,14,57660,1,0,1:0:0:0:
315,20,57746,2,0,L|277:25,2,37.5,0|0|0,1:0|1:0|1:0,0:0:0:0:
195,5,58093,5,0,1:0:0:0:
175,90,58264,1,0,1:0:0:0:
405,212,58621,5,0,1:0:0:0:
385,127,58792,1,0,1:0:0:0:
130,250,59121,5,0,1:0:0:0:
110,335,59292,2,0,B|188:320|160:343|236:329,1,127.50000243187,4|4,1:0|3:0,0:0:0:0:
237,329,59805,1,4,3:0:0:0:
405,212,59977,2,0,L|409:243,2,31.8750006079674,0|0|0,1:0|1:0|1:0,0:0:0:0:
500,330,60320,6,0,B|470:326|450:318|450:318|427:329|427:329|391:325|354:337,1,150,4|0,1:0|0:0,0:0:0:0:
510,65,60836,6,0,P|455:113|381:112,1,150,4|0,1:0|1:0,0:0:0:0:
315,55,61350,1,0,0:0:0:0:
160,100,61519,2,0,P|174:134|180:171,1,75,4|4,3:0|3:0,0:0:0:0:
296,244,61859,1,0,1:0:0:0:
125,365,62030,6,0,P|70:316|74:244,1,150,4|4,3:0|3:0,0:0:0:0:
296,244,62539,2,0,P|281:278|275:315,1,75,0|2,1:0|0:0,0:0:0:0:
180,171,62878,1,4,3:0:0:0:
315,55,63058,1,4,3:0:0:0:
180,171,63239,1,0,1:0:0:0:
89,139,63406,1,0,0:0:0:0:
25,5,63574,6,0,B|43:80|70:59|89:138,1,150,4|0,1:0|1:0,0:0:0:0:
296,244,64104,2,0,B|310:211|310:211|299:173,1,75,4|4,3:0|3:0,0:0:0:0:
245,105,64438,1,4,3:0:0:0:
110,270,64618,2,0,P|146:277|181:290,1,75,0|4,1:0|3:0,0:0:0:0:
345,365,64962,6,0,P|409:333|423:262,1,150,2|0,0:0|1:0,0:0:0:0:
296,244,65468,1,2,0:0:0:0:
459,179,65639,1,4,3:0:0:0:
325,75,65811,1,4,3:0:0:0:
360,165,65982,1,0,1:0:0:0:
512,12,66154,5,2,0:0:0:0:
512,12,66239,1,2,0:0:0:0:
512,12,66325,2,0,B|472:20|472:20|456:35|456:35|407:47,1,112.5,4|0,1:0|0:0,0:0:0:0:
407,47,66667,1,0,1:0:0:0:
360,165,66839,1,0,0:0:0:0:
445,252,67010,2,0,P|452:215|459:179,1,75,4|4,3:0|3:0,0:0:0:0:
325,75,67353,1,0,1:0:0:0:
165,203,67525,6,0,P|223:248|297:244,1,150,4|4,1:0|3:0,0:0:0:0:
325,75,68039,2,0,P|288:84|251:90,1,75,0|0,1:0|0:0,0:0:0:0:
445,252,68382,2,0,L|456:178,1,75,4|4,3:0|3:0,0:0:0:0:
365,325,68725,1,0,1:0:0:0:
490,100,69067,6,0,P|436:150|362:151,1,150,4|0,1:0|1:0,0:0:0:0:
244,15,69582,2,0,P|248:52|252:89,1,75,2|0,0:0|0:0,0:0:0:0:
100,170,69925,1,4,3:0:0:0:
180,322,70096,1,0,1:0:0:0:
332,242,70267,1,0,1:0:0:0:
332,242,70612,5,4,3:0:0:0:
385,375,70783,2,0,P|390:337|397:301,1,75,0|4,1:0|3:0,0:0:0:0:
270,380,71126,5,2,0:0:0:0:
457,237,71296,1,0,1:0:0:0:
457,237,71382,1,0,1:0:0:0:
457,237,71467,1,0,1:0:0:0:
225,115,71639,1,0,1:0:0:0:
225,115,71725,1,0,1:0:0:0:
225,115,71810,6,0,B|282:126|282:126|296:139|296:139|366:155,1,150,4|0,1:0|1:0,0:0:0:0:
367,155,72322,1,2,0:0:0:0:
200,25,72502,2,0,B|174:32|174:32|162:41|162:41|130:49,1,75,4|4,3:0|3:0,0:0:0:0:
45,185,72839,1,0,1:0:0:0:
250,210,73009,6,0,B|193:221|193:221|179:234|179:234|109:250,1,150,4|4,3:0|3:0,0:0:0:0:
367,155,73528,2,0,L|379:81,1,75,0|2,1:0|0:0,0:0:0:0:
280,15,73865,2,0,B|266:50|266:50|276:85,1,75,4|4,3:0|3:0,0:0:0:0:
450,210,74217,1,0,1:0:0:0:
276,86,74559,6,0,P|212:47|138:45,1,150,4|0,1:0|1:0,0:0:0:0:
185,135,75073,1,2,0:0:0:0:
65,5,75244,2,0,P|33:25|-3:32,1,75,4|4,3:0|3:0,0:0:0:0:
74,204,75587,2,0,B|85:168|85:168|74:132,1,75,0|4,1:0|3:0,0:0:0:0:
15,360,75930,6,0,P|74:305|154:308,1,165.000005035401,2|0,0:0|1:0,0:0:0:0:
320,260,76444,1,2,0:0:0:0:
255,320,76616,2,0,P|236:287|230:250,1,75,4|4,3:0|3:0,0:0:0:0:
385,195,76959,2,0,P|403:227|409:264,1,75,0|2,1:0|0:0,0:0:0:0:
220,90,77301,6,0,B|131:103|170:115|76:132,2,150,4|0|4,1:0|1:0|3:0,0:0:0:0:
385,195,78159,1,4,3:0:0:0:
255,320,78330,1,0,1:0:0:0:
455,375,78501,6,0,P|511:329|512:257,1,150,4|4,1:0|3:0,0:0:0:0:
385,195,79016,2,0,L|396:270,1,75,0|0,1:0|0:0,0:0:0:0:
220,90,79359,2,0,L|209:164,1,75,4|4,3:0|3:0,0:0:0:0:
405,30,79701,1,0,1:0:0:0:
209,164,80044,6,0,B|199:249|179:225|169:307,1,150,4|0,1:0|1:0,0:0:0:0:
145,95,80559,2,0,L|73:118,1,75,2|4,0:0|3:0,0:0:0:0:
300,85,80901,2,0,P|290:49|267:19,1,75,4|0,3:0|1:0,0:0:0:0:
209,164,81244,1,4,1:0:0:0:
480,205,81587,6,0,P|498:172|503:135,1,75,4|0,3:0|1:0,0:0:0:0:
440,75,81930,1,2,0:0:0:0:
490,310,82101,5,4,3:0:0:0:
322,362,82273,1,4,3:0:0:0:
322,362,82359,1,4,3:0:0:0:
322,362,82444,2,0,L|285:353,3,37.5,4|4|4|4,3:0|3:0|3:0|3:0,0:0:0:0:
225,295,82787,6,0,B|177:306|177:306|161:317|161:317|81:336,1,150,4|0,1:0|1:0,0:0:0:0:
0,250,83301,1,4,3:0:0:0:
180,155,83473,1,0,1:0:0:0:
45,115,83644,1,4,3:0:0:0:
265,210,83816,6,0,P|269:172|275:135,1,75,0|4,1:0|3:0,0:0:0:0:
225,295,84159,5,0,1:0:0:0:
350,90,84327,1,0,1:0:0:0:
225,295,84496,1,0,1:0:0:0:
425,290,84833,6,0,L|461:297,2,37.5,0|0|0,1:0|1:0|1:0,0:0:0:0:
225,295,85164,2,0,B|234:316|234:316|248:331|244:365,1,75,4|2,1:0|0:0,0:0:0:0:
335,325,85523,6,0,B|343:257|343:257|345:253|345:253|353:176,1,150,4|2,1:0|0:0,0:0:0:0:
353,176,86034,1,4,3:0:0:0:
255,65,86204,2,0,B|232:70|232:70|225:77|225:77|196:84,1,63.7500012159348,0|0,1:0|0:0,0:0:0:0:
340,10,86546,2,0,L|402:23,1,63.7500012159348,2|0,0:0|0:0,0:0:0:0:
353,176,86905,5,4,3:0:0:0:
430,135,87076,2,0,B|458:127|458:127|465:120|465:120|488:114,1,63.7500012159348,0|2,1:0|0:0,0:0:0:0:
255,65,87419,1,4,3:0:0:0:
353,176,87590,2,0,B|322:155|286:165|286:165|269:186|236:193,1,127.50000243187,0|0,1:0|1:0,0:0:0:0:
105,260,88276,6,0,B|135:239|171:249|171:249|189:270|221:277,1,127.50000243187,4|2,1:0|0:0,0:0:0:0:
300,250,88790,1,0,0:0:0:0:
160,160,88962,1,0,1:0:0:0:
255,65,89133,2,0,B|328:76|303:96|373:105,1,127.50000243187,2|2,0:0|0:0,0:0:0:0:
450,60,89640,5,4,3:0:0:0:
510,185,89811,2,0,P|498:214|491:245,1,63.7500012159348,0|2,1:0|0:0,0:0:0:0:
415,200,90154,1,4,3:0:0:0:
370,370,90325,2,0,L|358:306,1,63.7500012159348,0|0,1:0|1:0,0:0:0:0:
300,250,90582,1,0,1:0:0:0:
295,245,90668,2,0,L|231:256,1,63.7500012159348,0|0,1:0|1:0,0:0:0:0:
15,135,91004,6,0,P|71:181|144:176,1,150,4|4,1:0|3:0,0:0:0:0:
250,125,91530,1,4,3:0:0:0:
170,90,91701,1,4,3:0:0:0:
380,15,91873,1,4,3:0:0:0:
295,40,92044,1,4,3:0:0:0:
485,125,92225,5,4,3:0:0:0:
355,165,92394,2,0,B|382:172|382:172|391:179|391:179|425:188,1,75,4|4,1:0|3:0,0:0:0:0:
255,300,92729,1,0,1:0:0:0:
460,320,92894,2,0,B|399:333|399:333|386:347|386:347|320:362,1,150,4|4,3:0|3:0,0:0:0:0:
425,188,93413,1,0,1:0:0:0:
255,300,93584,1,4,3:0:0:0:
195,165,93769,6,0,P|190:203|188:240,1,75,4|4,1:0|3:0,0:0:0:0:
255,300,94131,1,4,3:0:0:0:
340,115,94282,2,0,P|302:110|265:108,1,75,4|4,1:0|3:0,0:0:0:0:
195,165,94620,1,4,3:0:0:0:
255,300,94785,1,0,1:0:0:0:
425,188,94951,1,0,1:0:0:0:
425,188,95282,5,4,3:0:0:0:
255,15,95464,1,4,3:0:0:0:
340,115,95630,2,0,L|346:78,2,37.5,0|0|0,1:0|1:0|1:0,0:0:0:0:
255,300,95964,1,0,1:0:0:0:
195,165,96130,1,4,3:0:0:0:
450,330,96297,6,0,P|464:211|431:326,1,356.25,4|4,1:0|1:3,0:0:0:0:
