osu file format v14

[General]
AudioFilename: Start Dash Dash!.mp3
AudioLeadIn: 0
PreviewTime: 60749
Countdown: 0
SampleSet: Soft
StackLeniency: 0.5
Mode: 0
LetterboxInBreaks: 0
WidescreenStoryboard: 1

[Editor]
Bookmarks: 207596
DistanceSpacing: 1.4
BeatDivisor: 4
GridSize: 32
TimelineZoom: 3.299999

[Metadata]
Title:Start Dash Dash! (Cut Ver.)
TitleUnicode:スタート♪ダッシュダッシュ! (Cut Ver.)
Artist:Tenma Mitsuru (CV: Ikeda Junya)
ArtistUnicode:天満光 (CV: 池田純矢)
Creator:Kyouren
Version:Hard!
Source:あんさんぶるスターズ!
Tags:ensemble stars! enstars! es! enstars es 松井洋平 Yohei Matsui 原田雄一 Yuichi Harada KoTa Jun'ya solo character song uta ALBUM SERIES あんさんぶるスターズ アルバムシリーズ PRESENT -Ra*bits- Rabits rabbits rabbit rabit Ra*bits Stars star first 1st 1 one studio Frontier Works FRONTIERWORKS Happy Elements cacalia studio jpop j-pop jrock j-rock rock japanese japan pop male vocals vocal vocalist gacha mobile phone video game videogame games idol seiyuu voice actor va あんさんぶるスターズ!! stars!! basic music rhythm bgm background gokugohan12468 kittyadventure version ver
BeatmapID:4241274
BeatmapSetID:2031858

[Difficulty]
HPDrainRate:5
CircleSize:3.5
OverallDifficulty:6
ApproachRate:7.5
SliderMultiplier:1.3
SliderTickRate:1

[Events]
//Background and Video events
0,0,"hard.jpg",0,0
//Break Periods
//Storyboard Layer 0 (Background)
//Storyboard Layer 1 (Fail)
//Storyboard Layer 2 (Pass)
//Storyboard Layer 3 (Foreground)
//Storyboard Layer 4 (Overlay)
//Storyboard Sound Samples

[TimingPoints]
500,338.983050847458,4,2,1,60,1,0
838,-133.333333333333,4,2,1,60,0,0
1516,368.098159509202,4,2,1,60,1,0
1516,-133.333333333333,4,2,1,60,0,0
1700,344.827586206897,4,2,1,60,1,0
1700,-133.333333333333,4,2,1,60,0,0
2044,342.857142857143,4,2,1,60,1,0
2044,-133.333333333333,4,2,1,60,0,0
2215,375,4,2,1,60,1,0
2215,-133.333333333333,4,2,1,60,0,0
2402,342.857142857143,4,2,1,60,1,0
2402,-133.333333333333,4,2,1,60,0,0
2916,327.868852459016,4,2,1,60,1,0
2916,-133.333333333333,4,2,1,60,0,0
3244,342.857142857143,4,2,1,60,1,0
3244,-133.333333333333,4,2,1,60,0,0
4272,324.324324324324,4,2,1,60,1,0
4272,-133.333333333333,4,2,1,60,0,0
4434,342.857142857143,4,2,1,60,1,0
4434,-133.333333333333,4,2,1,60,0,0
4519,-133.333333333333,4,2,1,5,0,0
4778,-133.333333333333,4,2,1,60,0,0
4862,333.333333333333,4,2,1,5,1,0
4862,-133.333333333333,4,2,1,5,0,0
5112,355.029585798817,4,2,1,60,1,0
5112,-133.333333333333,4,2,1,60,0,0
5378,352.941176470588,4,2,1,5,1,0
5378,-133.333333333333,4,2,1,5,0,0
5466,327.868852459016,4,2,1,60,1,0
5466,-133.333333333333,4,2,1,60,0,0
5629,-90.9090909090909,4,2,1,60,0,0
5957,370.37037037037,4,2,1,70,1,0
5957,-100,4,2,1,70,0,0
6327,342.857142857143,4,2,1,70,1,0
7355,344.827586206897,4,2,1,70,1,0
8734,342.857142857143,4,2,1,70,1,0
14219,338.983050847458,4,2,1,70,1,0
15405,-100.502512562814,4,2,1,70,0,0
15574,342.857142857143,4,2,1,70,1,0
16602,344.827586206897,4,2,1,70,1,0
16946,346.820809248555,4,2,1,50,1,0
16946,-133.333333333333,4,2,1,50,0,0
17986,348.837209302326,4,2,1,50,1,0
17986,-133.333333333333,4,2,1,50,0,0
18160,-131.147540983607,4,2,1,50,0,0
18334,338.983050847458,4,2,1,50,1,0
18334,-133.333333333333,4,2,1,50,0,0
18672,342.857142857143,4,2,1,50,1,0
18672,-133.333333333333,4,2,1,50,0,0
19700,342.857142857143,4,2,1,50,1,0
19700,-133.333333333333,4,2,1,50,0,0
20986,-133.333333333333,4,2,1,5,0,0
21071,338.983050847458,4,2,1,50,1,0
21071,-133.333333333333,4,2,1,50,0,0
21240,-133.333333333333,4,2,1,50,0,0
22426,340.909090909091,4,2,1,60,1,0
22426,-100,4,2,1,60,0,0
22766,357.142857142857,4,2,1,60,1,0
23123,346.820809248555,4,2,1,60,1,0
23469,348.837209302326,4,2,1,60,1,0
23817,340.909090909091,4,2,1,60,1,0
25180,342.857142857143,4,2,1,60,1,0
27751,335.195530726257,4,2,1,60,1,0
27918,344.827586206897,4,2,1,60,1,0
28607,346.820809248555,4,2,1,60,1,0
28953,338.983050847458,4,2,1,60,1,0
29291,342.857142857143,4,2,1,60,1,0
31351,350.877192982457,4,2,1,60,1,0
31701,344.827586206897,4,2,1,60,1,0
31873,-99.403578528827,4,2,1,60,0,0
31959,-100,4,2,1,5,0,0
32045,342.857142857143,4,2,1,60,1,0
32216,-100,4,2,1,60,0,0
32302,-100,4,2,1,5,0,0
32387,-100,4,2,1,60,0,0
32559,-100,4,2,1,60,0,0
32902,-100,4,2,1,60,0,0
35816,333.333333333334,4,2,1,60,1,0
36149,340.909090909091,4,2,1,60,1,0
36489,350.877192982456,4,2,1,60,1,0
36839,342.857142857143,4,2,1,60,1,0
37524,342.857142857143,4,2,1,60,1,0
41295,338.983050847458,4,2,1,60,1,0
41633,355.029585798817,4,2,1,60,1,0
41988,344.827586206897,4,2,1,60,1,0
42677,340.909090909091,4,2,1,60,1,0
42847,-97.4184120798831,4,2,1,60,0,0
43017,326.086956521739,4,2,1,60,1,0
43343,352.941176470588,4,2,1,60,1,0
43695,342.857142857143,4,2,1,60,1,0
44380,344.827586206897,4,2,1,70,1,0
44380,-133.333333333333,4,2,1,70,0,0
45414,342.857142857143,4,2,1,70,1,0
45414,-133.333333333333,4,2,1,70,0,0
45756,342.857142857143,4,2,1,70,1,0
45756,-133.333333333333,4,2,1,70,0,0
52613,344.827586206897,4,2,1,60,1,0
52613,-117.647058823529,4,2,1,60,0,0
53992,340.909090909091,4,2,1,60,1,0
53992,-117.647058823529,4,2,1,60,0,0
55014,342.857142857143,4,2,1,60,1,0
55014,-117.647058823529,4,2,1,60,0,0
55356,-100,4,2,1,70,0,0
55699,346.820809248555,4,2,1,70,1,0
56045,338.983050847458,4,2,1,70,1,0
56214,348.837209302326,4,2,1,70,1,0
56388,331.491712707182,4,2,1,70,1,0
56553,342.857142857143,4,2,1,70,1,0
57400,346.820809248555,4,2,1,70,1,0
58093,342.857142857143,4,2,1,70,1,0
58093,-117.647058823529,4,2,1,70,0,0
58264,357.142857142857,4,2,1,70,1,0
58264,-117.647058823529,4,2,1,70,0,0
58621,342.857142857143,4,2,1,70,1,0
58621,-117.647058823529,4,2,1,70,0,0
58792,329.67032967033,4,2,1,70,1,0
58792,-117.647058823529,4,2,1,70,0,0
59121,342.857142857143,4,2,1,70,1,0
59121,-117.647058823529,4,2,1,70,0,0
59292,-117.647058823529,4,2,1,60,0,0
59463,342.857142857142,4,2,1,60,1,0
59463,-117.647058823529,4,2,1,60,0,0
60320,-133.333333333333,4,2,1,50,0,0
60663,346.820809248555,4,2,1,50,1,0
60663,-133.333333333333,4,2,1,50,0,0
60836,342.857142857143,4,2,1,80,1,1
60836,-100,4,2,1,80,0,1
61350,338.983050847458,4,2,1,80,1,1
61688,342.857142857143,4,2,1,80,1,1
62030,342.857142857143,4,2,1,80,1,1
62030,-99.009900990099,4,2,1,80,0,1
62201,338.983050847458,4,2,1,80,1,1
62878,361.44578313253,4,2,1,80,1,1
63239,335.195530726257,4,2,1,80,1,1
63574,342.857142857143,4,2,1,80,1,1
63745,359.281437125748,4,2,1,80,1,1
64104,311.688311688312,4,2,1,80,1,1
64104,-106.666666666667,4,2,1,80,0,1
64259,359.281437125748,4,2,1,80,1,1
64618,344.827586206897,4,2,1,80,1,1
64962,335.195530726257,4,2,1,80,1,1
65297,342.857142857143,4,2,1,80,1,1
66325,342.857142857143,4,2,1,80,1,1
70267,344.827586206897,4,2,1,80,1,1
70267,-100,4,2,1,80,0,1
70956,338.983050847458,4,2,1,80,1,1
71125,342.857142857143,4,2,1,80,1,1
71125,-100,4,2,1,80,0,1
71725,-100,4,2,1,80,0,0
71810,-100,4,2,1,80,0,1
72153,338.983050847458,4,2,1,80,1,1
72322,361.44578313253,4,2,1,80,1,1
72502,337.078651685393,4,2,1,80,1,1
72839,340.909090909091,4,2,1,80,1,1
73009,338.983050847458,4,2,1,80,1,1
73009,-101.26582278481,4,2,1,80,0,1
73178,350.877192982457,4,2,1,80,1,1
73528,337.078651685394,4,2,1,80,1,1
73865,352.941176470588,4,2,1,80,1,1
74217,342.857142857143,4,2,1,80,1,1
74559,342.857142857143,4,2,1,80,1,1
82701,-100,4,2,1,80,0,0
82787,-100,4,2,1,90,0,1
84159,337.078651685393,4,2,1,90,1,1
84496,337.078651685393,4,2,1,80,1,0
84496,-100,4,2,1,80,0,0
84833,331.491712707183,4,2,1,80,1,0
85164,359.281437125749,4,2,1,80,1,0
85164,-100,4,2,1,80,0,0
85433,-100,4,2,1,80,0,0
85523,340.909090909091,4,2,1,60,1,1
85523,-117.647058823529,4,2,1,60,0,1
85608,-117.647058823529,4,2,1,60,0,0
86204,342.857142857143,4,2,1,60,1,0
86204,-117.647058823529,4,2,1,60,0,0
86546,359.281437125748,4,2,1,60,1,0
86546,-117.647058823529,4,2,1,60,0,0
86905,342.857142857143,4,2,1,60,1,0
86905,-117.647058823529,4,2,1,60,0,0
89305,335.195530726257,4,2,1,60,1,0
89305,-117.647058823529,4,2,1,60,0,0
89640,342.857142857143,4,2,1,60,1,0
89640,-117.647058823529,4,2,1,60,0,0
90668,326.086956521739,4,2,1,60,1,0
90668,-117.647058823529,4,2,1,60,0,0
90831,346.820809248555,4,2,1,60,1,0
90831,-117.647058823529,4,2,1,60,0,0
91004,355.029585798817,4,2,1,70,1,1
91004,-100,4,2,1,70,0,1
91359,342.857142857143,4,2,1,50,1,1
91359,-100,4,2,1,50,0,1
91701,-100,4,2,1,60,0,1
92044,363.636363636364,4,2,1,70,1,1
92044,-100,4,2,1,70,0,1
92225,338.983050847458,4,2,1,70,1,1
92394,335.195530726257,4,2,1,80,1,1
92394,-100,4,2,1,80,0,1
92729,331.491712707182,4,2,1,80,1,1
92894,348.837209302326,4,2,1,80,1,1
93242,342.857142857143,4,2,1,80,1,1
93584,370.37037037037,4,2,1,80,1,1
93676,-100,4,2,1,80,0,0
93769,363.636363636364,4,2,1,90,1,1
93769,-100,4,2,1,90,0,1
93950,363.636363636364,4,2,1,90,1,1
94131,303.030303030303,4,2,1,90,1,1
94282,338.983050847458,4,2,1,90,1,1
94620,331.491712707182,4,2,1,90,1,1
95282,365.853658536585,4,2,1,90,1,1
95464,333.333333333334,4,2,1,90,1,1
96214,-100,4,2,1,90,0,0
96297,350.877192982456,4,2,1,80,1,1
96297,-100,4,2,1,80,0,1
97700,320.855614973262,4,2,1,45,1,1
97700,-100,4,2,1,45,0,1
97940,-100,4,2,1,45,0,0

[Colours]
Combo1 : 255,255,125
Combo2 : 195,135,135
Combo3 : 145,255,145

[HitObjects]
15,130,500,6,0,B|21:140|21:140|16:164|26:192,1,65,4|0,1:0|0:0,0:0:0:0:
90,250,838,2,0,P|132:226|180:228,1,97.50000371933,2|2,0:0|0:0,0:0:0:0:
309,184,1516,1,0,1:0:0:0:
309,184,1700,2,0,P|351:207|399:205,1,97.50000371933,4|2,3:0|0:0,2:0:0:0:
480,170,2215,2,0,L|487:121,1,48.750001859665,2|0,0:0|1:0,0:0:0:0:
420,70,2573,2,0,L|427:21,2,48.750001859665,2|6|2,0:0|3:0|0:0,0:0:0:0:
339,69,3079,2,0,L|335:93,1,24.3750009298325,0|0,1:0|1:0,0:0:0:0:
335,93,3244,6,0,B|286:88|293:98|237:94,1,97.50000371933,4|0,1:0|0:0,0:0:0:0:
115,45,3929,1,4,3:0:0:0:
40,90,4101,2,0,L|16:84,2,24.3750009298325,0|0|0,1:0|1:0|1:0,0:0:0:0:
90,160,4434,6,0,P|97:208|98:256,1,97.50000371933,4|4,3:0|3:0,0:0:0:0:
97,256,5112,1,4,3:0:0:0:
223,223,5466,1,4,3:0:0:0:
223,223,5547,1,4,3:0:0:0:
223,223,5629,2,0,L|215:257,3,35.7500010910034,0|0|0|0,1:0|1:0|1:0|1:0,0:0:0:0:
250,286,5957,6,0,B|321:278|309:265|376:258,1,130,4|0,1:0|1:0,0:0:0:0:
444,196,6498,1,0,0:0:0:0:
444,196,6669,2,0,P|442:163|443:131,1,65,4|2,3:0|0:0,0:0:0:0:
395,53,7012,1,0,1:0:0:0:
305,68,7184,1,2,0:0:0:0:
220,25,7355,6,0,P|155:22|107:63,1,130,4|0,3:0|1:0,0:0:0:0:
45,220,8044,2,0,L|13:210,2,32.5,4|2|2,3:0|0:0|0:0,0:0:0:0:
100,290,8389,1,0,1:0:0:0:
185,255,8561,1,2,0:0:0:0:
250,320,8734,6,0,B|322:313|310:346|377:338,1,130,4|0,3:0|1:0,0:0:0:0:
460,370,9248,2,0,P|507:330|496:269,1,130,2|0,0:0|0:0,0:0:0:0:
425,205,9762,2,0,L|433:140,1,65,0|2,1:0|0:0,0:0:0:0:
490,55,10105,6,0,B|474:65|474:65|417:42|369:81,2,130,4|0|4,3:0|1:0|3:0,0:0:0:0:
425,205,11134,2,0,P|393:197|361:193,1,65,0|0,1:0|0:0,0:0:0:0:
335,180,11391,1,0,1:0:0:0:
305,185,11476,6,0,L|290:314,1,130,4|0,1:0|1:0,0:0:0:0:
205,345,11991,1,2,0:0:0:0:
125,305,12162,2,0,P|93:313|61:319,1,65,4|0,3:0|0:0,0:0:0:0:
20,240,12505,1,0,1:0:0:0:
78,173,12676,1,2,0:0:0:0:
78,173,12762,1,2,0:0:0:0:
78,173,12848,6,0,B|52:117|52:117|78:53,1,130,4|0,3:0|1:0,0:0:0:0:
160,20,13362,2,0,B|240:29|213:36|287:45,1,130,2|2,0:0|0:0,0:0:0:0:
275,135,13876,2,0,L|264:199,1,65,0|0,1:0|0:0,0:0:0:0:
350,235,14219,5,4,1:0:0:0:
405,160,14388,2,0,L|410:127,2,32.5,0|0|0,1:0|1:0|1:0,0:0:0:0:
495,195,14727,2,0,P|497:162|505:130,1,65,4|0,3:0|0:0,0:0:0:0:
460,50,15066,2,0,P|427:47|395:41,1,65,4|0,3:0|1:0,0:0:0:0:
296,7,15405,6,0,P|291:72|275:135,1,130,4|6,1:0|3:0,0:0:0:0:
200,200,15916,1,6,3:0:0:0:
125,145,16088,2,0,L|121:112,2,32.5,0|0|0,1:0|1:0|1:0,0:0:0:0:
45,195,16431,2,0,L|41:227,2,32.5,4|4|4,3:0|3:0|3:0,0:0:0:0:
126,252,16774,2,0,L|122:284,1,32.5,4|4,3:0|3:0,0:0:0:0:
121,284,16946,6,0,P|169:285|216:298,1,97.50000371933,4|4,1:0|3:0,0:0:0:0:
320,220,17639,2,0,P|343:214|365:204,1,48.750001859665,4|2,3:0|0:0,0:0:0:0:
405,280,17986,1,4,3:0:0:0:
495,265,18160,2,0,L|482:361,1,97.50000371933,2|2,0:0|0:0,0:0:0:0:
405,280,18843,2,0,L|401:304,2,24.3750009298325,2|2|4,0:0|0:0|3:0,0:0:0:0:
495,265,19186,2,0,P|497:240|501:216,2,48.750001859665,2|4|2,0:0|3:0|0:0,0:0:0:0:
420,190,19700,6,0,B|430:133|420:154|430:93,1,97.50000371933,4|4,3:0|3:0,0:0:0:0:
320,15,20385,1,4,3:0:0:0:
240,45,20557,2,0,L|217:36,2,24.3750009298325,0|0|0,1:0|1:0|1:0,0:0:0:0:
235,130,20900,1,4,1:0:0:0:
105,90,21240,5,4,3:0:0:0:
35,140,21409,2,0,P|43:162|49:186,1,48.750001859665,4|0,3:0|1:0,0:0:0:0:
49,186,21664,1,0,1:0:0:0:
49,186,21748,1,0,1:0:0:0:
125,245,21918,1,4,3:0:0:0:
64,310,22087,2,0,P|53:332|47:355,1,48.750001859665,4|0,1:0|0:0,0:0:0:0:
135,365,22426,5,4,1:0:0:0:
290,320,22766,2,0,P|290:287|287:255,1,65,0|2,1:0|0:0,0:0:0:0:
360,200,23123,2,0,B|431:213|410:238|476:252,1,130,4|0,3:0|1:0,0:0:0:0:
510,160,23643,1,2,0:0:0:0:
460,70,23817,6,0,P|396:85|332:93,1,130,4|0,3:0|1:0,0:0:0:0:
255,40,24328,1,2,0:0:0:0:
190,115,24498,2,0,P|198:163|200:211,1,97.5,4|2,3:0|0:0,0:0:0:0:
225,225,24839,2,0,P|218:256|216:289,1,65,0|2,1:0|0:0,0:0:0:0:
139,349,25180,5,4,3:0:0:0:
139,349,25351,1,2,0:0:0:0:
50,315,25522,2,0,P|53:250|29:190,1,130,0|4,1:0|3:0,0:0:0:0:
90,125,26037,1,4,3:0:0:0:
10,80,26208,2,0,L|17:15,1,65,0|2,1:0|0:0,0:0:0:0:
110,20,26551,6,0,B|178:31|165:53|231:65,1,130,4|0,3:0|1:0,0:0:0:0:
399,24,27237,1,4,3:0:0:0:
399,24,27408,1,4,3:0:0:0:
475,75,27580,2,0,P|476:107|467:138,1,65,0|2,1:0|0:0,0:0:0:0:
390,190,27918,5,4,3:0:0:0:
390,190,28090,1,2,0:0:0:0:
299,154,28262,1,0,1:0:0:0:
299,154,28435,1,2,0:0:0:0:
215,205,28607,2,0,P|183:196|151:190,2,65,4|4|0,3:0|3:0|1:0,0:0:0:0:
273,288,29122,1,2,0:0:0:0:
273,288,29207,1,2,0:0:0:0:
273,288,29291,6,0,P|274:320|281:352,1,65,4|0,3:0|0:0,0:0:0:0:
375,340,29633,2,0,P|406:347|439:349,1,65,0|2,1:0|0:0,0:0:0:0:
504,279,29976,1,4,3:0:0:0:
504,279,30148,1,4,3:0:0:0:
455,200,30319,2,0,P|457:167|465:136,1,65,0|2,1:0|0:0,0:0:0:0:
449,109,30576,1,0,0:0:0:0:
449,109,30662,6,0,P|384:107|320:94,1,130,4|0,3:0|1:0,0:0:0:0:
245,35,31176,1,2,0:0:0:0:
175,95,31351,2,0,P|146:80|114:76,1,65,4|4,3:0|3:0,0:0:0:0:
35,120,31701,1,0,1:0:0:0:
80,205,31873,6,0,P|49:260|64:322,1,130,4|0,1:0|1:0,0:0:0:0:
150,365,32387,1,0,1:0:0:0:
235,325,32559,2,0,P|240:260|260:198,1,130,4|4,3:0|3:0,0:0:0:0:
335,135,33073,2,0,L|340:102,2,32.5,0|0|0,1:0|1:0|1:0,0:0:0:0:
375,215,33416,6,0,B|451:212|429:230|503:227,1,130,4|0,1:0|1:0,0:0:0:0:
510,60,34102,2,0,P|478:68|446:74,1,65,4|4,3:0|3:0,0:0:0:0:
380,10,34445,1,0,1:0:0:0:
340,103,34616,2,0,P|291:61|228:59,1,130,2|0,0:0|0:0,0:0:0:0:
150,15,35130,2,0,P|118:21|85:25,1,65,0|2,1:0|0:0,0:0:0:0:
55,110,35473,2,0,P|63:158|66:206,1,97.5,4|2,3:0|0:0,0:0:0:0:
95,225,35816,2,0,P|126:217|158:211,1,65,0|2,1:0|0:0,0:0:0:0:
246,182,36149,5,4,3:0:0:0:
246,182,36319,1,2,0:0:0:0:
330,150,36489,2,0,P|369:160|410:164,1,65,0|2,1:0|0:0,0:0:0:0:
450,235,36839,2,0,P|439:265|432:297,1,65,4|4,3:0|3:0,0:0:0:0:
355,345,37181,2,0,P|323:336|291:331,1,65,0|2,1:0|0:0,0:0:0:0:
270,345,37439,1,0,0:0:0:0:
255,355,37524,6,0,P|215:305|152:303,1,130,4|0,3:0|1:0,0:0:0:0:
29,189,38209,1,4,3:0:0:0:
29,189,38381,1,4,3:0:0:0:
8,92,38552,2,0,B|40:87|40:87|70:100,1,65,0|2,1:0|0:0,0:0:0:0:
164,86,38895,6,0,P|161:53|159:21,2,65,4|2|0,1:0|0:0|1:0,0:0:0:0:
236,146,39409,1,2,0:0:0:0:
320,105,39581,2,0,P|378:77|442:85,1,130,4|0,3:0|1:0,0:0:0:0:
395,165,40095,1,2,0:0:0:0:
480,200,40266,6,0,P|473:231|472:264,1,65,4|0,3:0|0:0,0:0:0:0:
509,359,40609,1,0,1:0:0:0:
509,359,40781,1,2,0:0:0:0:
410,370,40952,2,0,P|364:326|301:330,1,130,4|0,3:0|1:0,0:0:0:0:
215,370,41464,1,0,0:0:0:0:
205,280,41633,6,0,P|174:289|141:293,1,65,4|2,1:0|0:0,0:0:0:0:
65,345,41988,1,0,1:0:0:0:
10,265,42160,2,0,P|1:200|4:135,1,130,4|4,3:0|3:0,0:0:0:0:
80,70,42677,1,0,1:0:0:0:
150,135,42847,6,0,P|204:102|268:110,1,130,4|4,1:0|3:0,0:0:0:0:
355,155,43343,2,0,P|387:156|419:154,1,65,0|2,1:0|0:0,0:0:0:0:
485,225,43695,2,0,P|483:257|485:289,1,65,2|6,0:0|3:0,0:0:0:0:
415,355,44037,2,0,P|382:353|350:355,1,65,4|0,3:0|0:0,0:0:0:0:
269,314,44380,5,4,1:0:0:0:
269,314,44552,1,0,1:0:0:0:
355,155,45069,5,0,1:0:0:0:
355,155,45242,1,0,1:0:0:0:
204,54,45756,5,0,1:0:0:0:
204,54,45927,1,0,1:0:0:0:
65,95,46270,6,0,L|53:191,1,97.50000371933,4|4,1:0|3:0,0:0:0:0:
53,191,46698,1,4,3:0:0:0:
53,191,46784,1,4,1:0:0:0:
109,329,47127,5,0,1:0:0:0:
109,329,47298,1,0,1:0:0:0:
289,364,47813,5,0,1:0:0:0:
289,364,47984,1,0,1:0:0:0:
414,234,48498,5,0,1:0:0:0:
414,234,48670,2,0,P|402:187|416:140,1,97.50000371933,0|4,1:0|1:0,0:0:0:0:
385,60,49184,2,0,P|361:66|337:71,1,48.750001859665,2|4,0:0|3:0,0:0:0:0:
315,75,49441,1,4,3:0:0:0:
295,65,49527,2,0,L|290:41,3,24.3750009298325,4|4|4|4,3:0|3:0|3:0|3:0,0:0:0:0:
269,29,49870,5,4,1:0:0:0:
269,29,50041,1,0,1:0:0:0:
114,119,50556,5,0,1:0:0:0:
114,119,50727,1,0,1:0:0:0:
199,284,51241,5,0,1:0:0:0:
199,284,51413,1,0,1:0:0:0:
335,270,51756,6,0,B|329:216|340:232|334:172,1,97.50000371933,4|4,1:0|3:0,0:0:0:0:
415,135,52270,2,0,L|419:87,1,48.750001859665,4|0,3:0|1:0,0:0:0:0:
420,65,52527,1,0,1:0:0:0:
410,50,52613,6,0,B|349:51|361:40|300:42,1,110.50000210762,4|0,1:0|1:0,0:0:0:0:
205,55,53130,2,0,L|210:82,1,27.6250005269051,2|2,0:0|0:0,0:0:0:0:
230,96,53302,2,0,P|225:123|218:149,1,55.2500010538101,6|0,3:0|0:0,0:0:0:0:
268,222,53647,2,0,L|256:276,1,55.2500010538101,0|2,1:0|0:0,0:0:0:0:
184,332,53992,6,0,B|154:328|154:328|115:340|76:320,1,110.50000210762,4|0,3:0|1:0,0:0:0:0:
35,245,54503,2,0,L|7:240,2,27.6250005269051,4|4|4,3:0|3:0|3:0,0:0:0:0:
105,180,54844,1,4,3:0:0:0:
49,109,55014,1,0,1:0:0:0:
49,109,55185,1,2,0:0:0:0:
120,45,55356,6,0,P|152:50|184:52,1,65,4|2,1:0|0:0,0:0:0:0:
280,30,55699,2,0,P|271:61|272:93,1,65,0|4,1:0|3:0,0:0:0:0:
200,150,56045,2,0,P|216:178|239:200,1,65,0|4,1:0|3:0,0:0:0:0:
325,235,56388,1,0,1:0:0:0:
375,155,56553,6,0,B|449:152|431:165|503:162,1,130,4|4,1:0|3:0,0:0:0:0:
509,259,57067,1,0,1:0:0:0:
509,259,57238,1,2,0:0:0:0:
425,300,57400,2,0,P|429:332|425:364,1,65,4|0,3:0|1:0,0:0:0:0:
400,370,57660,1,0,1:0:0:0:
380,365,57746,2,0,L|347:359,2,32.5,0|0|0,1:0|1:0|1:0,0:0:0:0:
264,359,58093,5,0,1:0:0:0:
264,359,58264,1,0,1:0:0:0:
159,294,58621,5,0,1:0:0:0:
159,294,58792,1,0,1:0:0:0:
209,169,59121,5,0,1:0:0:0:
209,169,59292,2,0,B|245:173|266:160|266:160|283:178|310:182,1,110.50000210762,4|4,1:0|3:0,0:0:0:0:
415,145,59805,2,0,B|409:152|409:152|400:197,1,55.2500010538101,4|0,3:0|1:0,0:0:0:0:
405,210,60063,1,0,1:0:0:0:
410,220,60148,1,0,1:0:0:0:
447,303,60320,6,0,B|410:311|410:311|400:319|400:319|356:331,1,97.50000371933,4|0,1:0|0:0,0:0:0:0:
265,295,60836,6,0,P|219:339|156:342,1,130,4|0,1:0|1:0,0:0:0:0:
60,325,61350,1,0,0:0:0:0:
15,245,61519,2,0,P|20:212|21:180,1,65,4|4,3:0|3:0,0:0:0:0:
85,105,61859,1,0,1:0:0:0:
180,130,62030,2,0,B|250:124|240:154|307:148,1,130,4|4,3:0|3:0,0:0:0:0:
390,90,62539,2,0,P|422:88|449:104,1,65,0|2,1:0|0:0,0:0:0:0:
505,190,62878,1,4,3:0:0:0:
415,235,63058,1,4,3:0:0:0:
495,295,63239,2,0,P|491:327|487:359,1,65,0|0,1:0|0:0,0:0:0:0:
390,375,63574,5,4,1:0:0:0:
249,279,63924,1,0,1:0:0:0:
249,279,64104,2,0,P|196:316|133:315,1,130,4|4,3:0|3:0,0:0:0:0:
45,265,64618,2,0,P|44:232|32:202,1,65,0|4,1:0|3:0,0:0:0:0:
5,100,64962,2,0,P|69:106|130:127,1,130,2|0,0:0|1:0,0:0:0:0:
220,80,65468,2,0,L|225:15,1,65,2|4,0:0|3:0,0:0:0:0:
315,75,65811,1,4,3:0:0:0:
415,45,65982,2,0,P|444:31|476:25,1,65,0|2,1:0|0:0,0:0:0:0:
490,120,66325,6,0,P|467:180|469:245,2,130,4|0|4,1:0|1:0|3:0,0:0:0:0:
415,45,67182,1,4,3:0:0:0:
315,75,67353,1,0,1:0:0:0:
226,15,67525,2,0,B|159:25|181:63|99:76,1,130,4|4,1:0|3:0,0:0:0:0:
25,130,68039,2,0,P|11:190|57:231,1,130,0|4,1:0|3:0,0:0:0:0:
130,310,68553,1,4,3:0:0:0:
215,255,68725,1,0,1:0:0:0:
350,360,69067,6,0,P|410:335|474:335,1,130,4|0,1:0|1:0,0:0:0:0:
430,245,69582,2,0,L|442:181,1,65,2|0,0:0|0:0,0:0:0:0:
405,90,69925,1,4,3:0:0:0:
485,25,70096,1,0,1:0:0:0:
385,0,70267,6,0,B|366:16|366:16|316:14|263:36,1,130,0|4,1:0|3:0,0:0:0:0:
220,125,70784,2,0,P|228:156|231:188,1,65,0|4,1:0|3:0,0:0:0:0:
290,265,71125,2,0,P|281:296|278:328,1,65,2|0,0:0|1:0,0:0:0:0:
278,328,71382,1,0,1:0:0:0:
278,328,71467,1,0,1:0:0:0:
188,308,71639,1,0,1:0:0:0:
188,308,71725,1,0,1:0:0:0:
188,308,71810,6,0,B|114:316|133:335|63:343,1,130,4|0,1:0|1:0,0:0:0:0:
25,250,72322,1,2,0:0:0:0:
60,155,72502,2,0,P|87:137|118:128,1,65,4|4,3:0|3:0,0:0:0:0:
190,55,72839,1,0,1:0:0:0:
275,104,73009,2,0,P|258:166|259:231,1,130,4|4,3:0|3:0,0:0:0:0:
325,315,73528,2,0,P|354:301|385:293,1,65,0|2,1:0|0:0,0:0:0:0:
479,239,73865,1,4,3:0:0:0:
479,239,74041,1,4,3:0:0:0:
430,150,74217,1,0,1:0:0:0:
510,5,74559,5,4,1:0:0:0:
364,74,74901,1,0,1:0:0:0:
364,74,75073,2,0,P|315:33|251:35,1,130,2|4,0:0|3:0,0:0:0:0:
160,0,75587,1,0,1:0:0:0:
60,40,75759,1,4,3:0:0:0:
65,140,75930,2,0,B|68:215|39:196|40:266,1,130,2|0,0:0|1:0,0:0:0:0:
95,345,76444,1,2,0:0:0:0:
185,310,76616,2,0,P|216:303|248:298,1,65,4|4,3:0|3:0,0:0:0:0:
335,345,76959,2,0,P|366:352|398:357,1,65,0|2,1:0|0:0,0:0:0:0:
470,285,77301,6,0,B|451:217|440:236|420:165,1,130,4|0,1:0|1:0,0:0:0:0:
504,24,77987,1,4,3:0:0:0:
504,24,78159,1,4,3:0:0:0:
405,5,78330,1,0,1:0:0:0:
330,70,78501,6,0,P|306:127|244:136,1,130,4|4,1:0|3:0,0:0:0:0:
180,60,79016,2,0,P|147:55|115:51,1,65,0|0,1:0|0:0,0:0:0:0:
45,125,79359,2,0,L|64:187,1,65,4|4,3:0|3:0,0:0:0:0:
15,275,79701,1,0,1:0:0:0:
160,365,80044,6,0,P|202:318|265:318,1,130,4|0,1:0|1:0,0:0:0:0:
345,380,80559,1,2,0:0:0:0:
410,310,80730,2,0,L|473:325,1,65,4|4,3:0|3:0,0:0:0:0:
510,230,81073,1,0,1:0:0:0:
445,150,81244,6,0,B|375:160|396:177|321:188,1,130,4|4,1:0|3:0,0:0:0:0:
230,145,81759,1,0,1:0:0:0:
150,210,81930,2,0,P|154:242|155:274,1,65,2|4,0:0|3:0,0:0:0:0:
83,348,82273,1,4,3:0:0:0:
83,348,82359,1,4,3:0:0:0:
83,348,82444,2,0,L|51:341,3,32.5,4|4|4|4,3:0|3:0|3:0|3:0,0:0:0:0:
20,350,82787,6,0,P|19:317|14:285,1,65,4|0,1:0|0:0,0:0:0:0:
30,185,83130,2,0,P|52:160|71:134,1,65,0|4,1:0|3:0,0:0:0:0:
145,65,83473,1,0,1:0:0:0:
245,65,83644,1,4,3:0:0:0:
320,135,83816,2,0,P|339:161|361:184,1,65,0|4,1:0|3:0,0:0:0:0:
390,275,84159,5,0,1:0:0:0:
330,360,84327,1,0,1:0:0:0:
225,370,84496,1,0,1:0:0:0:
60,305,84833,6,0,L|56:272,2,32.5,0|0|0,1:0|1:0|1:0,0:0:0:0:
155,270,85164,2,0,L|148:204,1,65,4|2,1:0|0:0,0:0:0:0:
235,150,85523,6,0,B|297:158|277:177|337:186,1,110.50000210762,4|2,1:0|0:0,0:0:0:0:
412,138,86034,1,4,3:0:0:0:
490,185,86204,2,0,P|506:132|492:80,1,110.50000210762,0|2,1:0|0:0,0:0:0:0:
379,24,86905,1,4,3:0:0:0:
379,24,87076,2,0,P|352:29|324:35,1,55.2500010538101,0|2,1:0|0:0,0:0:0:0:
245,70,87419,1,4,3:0:0:0:
165,30,87590,2,0,P|125:66|127:120,1,110.50000210762,0|0,1:0|1:0,0:0:0:0:
105,236,88276,6,0,P|148:203|202:201,1,110.50000210762,4|2,1:0|0:0,0:0:0:0:
264,274,88790,1,0,0:0:0:0:
264,274,88962,1,0,1:0:0:0:
345,235,89133,2,0,P|340:207|339:180,1,55.2500010538101,2|0,0:0|0:0,0:0:0:0:
360,90,89472,1,2,0:0:0:0:
440,125,89640,6,0,P|467:120|494:117,2,55.2500010538101,4|0|2,3:0|1:0|0:0,0:0:0:0:
360,90,90154,1,4,3:0:0:0:
270,110,90325,1,0,1:0:0:0:
190,65,90497,2,0,L|188:37,2,27.6250005269051,0|0|0,1:0|1:0|1:0,0:0:0:0:
120,120,90831,1,0,1:0:0:0:
90,35,91004,6,0,P|57:40|26:46,1,65,4|0,1:0|0:0,0:0:0:0:
20,140,91359,2,0,P|24:172|30:204,1,65,4|4,3:0|3:0,0:0:0:0:
115,255,91701,2,0,P|146:248|178:242,1,65,4|4,3:0|3:0,0:0:0:0:
270,280,92044,2,0,P|277:311|280:343,1,65,4|4,3:0|3:0,0:0:0:0:
370,370,92394,6,0,P|430:355|453:296,1,130,4|0,1:0|1:0,0:0:0:0:
405,220,92894,2,0,P|401:155|398:90,1,130,4|4,3:0|3:0,0:0:0:0:
350,15,93413,1,0,1:0:0:0:
280,70,93584,1,4,3:0:0:0:
200,20,93769,6,0,P|167:20|135:22,1,65,4|4,1:0|3:0,0:0:0:0:
45,60,94131,1,4,3:0:0:0:
120,119,94282,2,0,P|117:151|118:183,1,65,4|4,1:0|3:0,0:0:0:0:
45,245,94620,1,4,3:0:0:0:
80,330,94785,1,0,1:0:0:0:
170,320,94951,1,0,1:0:0:0:
330,370,95282,6,0,P|359:356|391:348,1,65,4|4,3:0|3:0,0:0:0:0:
493,368,95630,1,0,1:0:0:0:
493,368,95714,1,0,1:0:0:0:
493,368,95797,1,0,1:0:0:0:
454,274,95964,1,0,1:0:0:0:
365,255,96130,1,4,3:0:0:0:
280,295,96297,5,4,1:0:0:0:
256,192,96384,12,4,97940,1:3:0:0:
