osu file format v14

[General]
AudioFilename: Start Dash Dash!.mp3
AudioLeadIn: 0
PreviewTime: 60749
Countdown: 0
SampleSet: Soft
StackLeniency: 0.7
Mode: 0
LetterboxInBreaks: 0
WidescreenStoryboard: 0

[Editor]
Bookmarks: 207596
DistanceSpacing: 1.2
BeatDivisor: 4
GridSize: 32
TimelineZoom: 3.3

[Metadata]
Title:Start Dash Dash! (Cut Ver.)
TitleUnicode:スタート♪ダッシュダッシュ! (Cut Ver.)
Artist:Tenma Mitsuru (CV: Ikeda Junya)
ArtistUnicode:天満光 (CV: 池田純矢)
Creator:Kyouren
Version:Easy!
Source:あんさんぶるスターズ!
Tags:ensemble stars! enstars! es! enstars es 松井洋平 Yohei Matsui 原田雄一 Yuichi Harada KoTa Jun'ya solo character song uta ALBUM SERIES あんさんぶるスターズ アルバムシリーズ PRESENT -Ra*bits- Rabits rabbits rabbit rabit Ra*bits Stars star first 1st 1 one studio Frontier Works FRONTIERWORKS Happy Elements cacalia studio jpop j-pop jrock j-rock rock japanese japan pop male vocals vocal vocalist gacha mobile phone video game videogame games idol seiyuu voice actor va あんさんぶるスターズ!! stars!! basic music rhythm bgm background gokugohan12468 kittyadventure version ver
BeatmapID:4270109
BeatmapSetID:2031858

[Difficulty]
HPDrainRate:2
CircleSize:2.5
OverallDifficulty:2
ApproachRate:3
SliderMultiplier:0.8
SliderTickRate:1

[Events]
//Background and Video events
0,0,"easy.jpg",0,0
//Break Periods
//Storyboard Layer 0 (Background)
//Storyboard Layer 1 (Fail)
//Storyboard Layer 2 (Pass)
//Storyboard Layer 3 (Foreground)
//Storyboard Layer 4 (Overlay)
//Storyboard Sound Samples

[TimingPoints]
500,338.983050847458,4,2,1,60,1,0
838,-100,4,2,1,60,0,0
1516,368.098159509202,4,2,1,60,1,0
1700,344.827586206897,4,2,1,60,1,0
2044,342.857142857143,4,2,1,60,1,0
2215,375,4,2,1,60,1,0
2402,342.857142857143,4,2,1,60,1,0
2916,327.868852459016,4,2,1,60,1,0
3244,342.857142857143,4,2,1,60,1,0
4272,324.324324324324,4,2,1,60,1,0
4434,342.857142857143,4,2,1,60,1,0
4519,-100,4,2,1,5,0,0
4776,-100,4,2,1,60,0,0
4862,333.333333333333,4,2,1,5,1,0
4862,-100,4,2,1,5,0,0
5112,355.029585798817,4,2,1,60,1,0
5112,-100,4,2,1,60,0,0
5378,352.941176470588,4,2,1,5,1,0
5378,-100,4,2,1,5,0,0
5466,327.868852459016,4,2,1,60,1,0
5466,-100,4,2,1,60,0,0
5957,370.37037037037,4,2,1,70,1,0
5957,-100,4,2,1,70,0,0
6327,342.857142857143,4,2,1,70,1,0
7355,344.827586206897,4,2,1,70,1,0
8734,342.857142857143,4,2,1,70,1,0
14219,338.983050847458,4,2,1,70,1,0
15405,-100.502512562814,4,2,1,70,0,0
15574,342.857142857143,4,2,1,70,1,0
16602,344.827586206897,4,2,1,70,1,0
16946,346.820809248555,4,2,1,50,1,0
16946,-100,4,2,1,50,0,0
17986,348.837209302326,4,2,1,50,1,0
18160,-98.1836033382425,4,2,1,50,0,0
18334,338.983050847458,4,2,1,50,1,0
18672,342.857142857143,4,2,1,50,1,0
19700,342.857142857143,4,2,1,50,1,0
20985,-100,4,2,1,5,0,0
21071,338.983050847458,4,2,1,50,1,0
21240,-100,4,2,1,50,0,0
22426,340.909090909091,4,2,1,60,1,0
22426,-100,4,2,1,60,0,0
22766,357.142857142857,4,2,1,60,1,0
23123,346.820809248555,4,2,1,60,1,0
23469,348.837209302326,4,2,1,60,1,0
23817,340.909090909091,4,2,1,60,1,0
25180,342.857142857143,4,2,1,60,1,0
27751,335.195530726257,4,2,1,60,1,0
27918,344.827586206897,4,2,1,60,1,0
28607,346.820809248555,4,2,1,60,1,0
28953,338.983050847458,4,2,1,60,1,0
29291,342.857142857143,4,2,1,60,1,0
31351,350.877192982457,4,2,1,60,1,0
31701,344.827586206897,4,2,1,60,1,0
31959,-100,4,2,1,5,0,0
32045,342.857142857143,4,2,1,60,1,0
32213,-100,4,2,1,60,0,0
32302,-100,4,2,1,5,0,0
32387,-100,4,2,1,60,0,0
32559,-100,4,2,1,60,0,0
32902,-100,4,2,1,60,0,0
35816,333.333333333334,4,2,1,60,1,0
36149,340.909090909091,4,2,1,60,1,0
36489,350.877192982456,4,2,1,60,1,0
36839,342.857142857143,4,2,1,60,1,0
37524,342.857142857143,4,2,1,60,1,0
41295,338.983050847458,4,2,1,60,1,0
41633,355.029585798817,4,2,1,60,1,0
41633,-98.7654320987654,4,2,1,60,0,0
41988,344.827586206897,4,2,1,60,1,0
42677,340.909090909091,4,2,1,60,1,0
42847,-97.0873786407767,4,2,1,60,0,0
43017,326.086956521739,4,2,1,60,1,0
43343,352.941176470588,4,2,1,60,1,0
43695,342.857142857143,4,2,1,60,1,0
44380,344.827586206897,4,2,1,70,1,0
44380,-100,4,2,1,70,0,0
45414,342.857142857143,4,2,1,70,1,0
45756,342.857142857143,4,2,1,70,1,0
52613,344.827586206897,4,2,1,60,1,0
52613,-100,4,2,1,60,0,0
53819,-99.2555831265509,4,2,1,60,0,0
53992,340.909090909091,4,2,1,60,1,0
55014,342.857142857143,4,2,1,60,1,0
55356,-100,4,2,1,70,0,0
55699,346.820809248555,4,2,1,70,1,0
56045,338.983050847458,4,2,1,70,1,0
56214,348.837209302326,4,2,1,70,1,0
56388,331.491712707182,4,2,1,70,1,0
56553,342.857142857143,4,2,1,70,1,0
57400,346.820809248555,4,2,1,70,1,0
58093,342.857142857143,4,2,1,70,1,0
58264,357.142857142857,4,2,1,70,1,0
58621,342.857142857143,4,2,1,70,1,0
58792,329.67032967033,4,2,1,70,1,0
59121,342.857142857143,4,2,1,70,1,0
59292,-100,4,2,1,60,0,0
59463,342.857142857142,4,2,1,60,1,0
60320,-100,4,2,1,50,0,0
60663,346.820809248555,4,2,1,50,1,0
60836,342.857142857143,4,2,1,80,1,1
60836,-99.502487562189,4,2,1,80,0,1
61350,338.983050847458,4,2,1,80,1,1
61688,342.857142857143,4,2,1,80,1,1
62030,342.857142857143,4,2,1,80,1,1
62030,-99.1571641051066,4,2,1,80,0,1
62201,338.983050847458,4,2,1,80,1,1
62878,361.44578313253,4,2,1,80,1,1
63239,335.195530726257,4,2,1,80,1,1
63574,342.857142857143,4,2,1,80,1,1
63745,359.281437125748,4,2,1,80,1,1
63924,-93.4579439252336,4,2,1,80,0,1
64104,311.688311688312,4,2,1,80,1,1
64259,359.281437125748,4,2,1,80,1,1
64618,344.827586206897,4,2,1,80,1,1
64962,335.195530726257,4,2,1,80,1,1
64962,-101.010101010101,4,2,1,80,0,1
65297,342.857142857143,4,2,1,80,1,1
66325,342.857142857143,4,2,1,80,1,1
70267,344.827586206897,4,2,1,80,1,1
70267,-100,4,2,1,80,0,1
70956,338.983050847458,4,2,1,80,1,1
71125,342.857142857143,4,2,1,80,1,1
71125,-100,4,2,1,80,0,1
71725,-100,4,2,1,80,0,0
71810,-101.010101010101,4,2,1,80,0,1
72153,338.983050847458,4,2,1,80,1,1
72322,361.44578313253,4,2,1,80,1,1
72502,337.078651685393,4,2,1,80,1,1
72839,340.909090909091,4,2,1,80,1,1
73009,338.983050847458,4,2,1,80,1,1
73009,-102.040816326531,4,2,1,80,0,1
73178,350.877192982457,4,2,1,80,1,1
73528,337.078651685394,4,2,1,80,1,1
73865,352.941176470588,4,2,1,80,1,1
74217,342.857142857143,4,2,1,80,1,1
74559,342.857142857143,4,2,1,80,1,1
82701,-100,4,2,1,80,0,0
82787,-100,4,2,1,90,0,1
84159,337.078651685393,4,2,1,90,1,1
84496,337.078651685393,4,2,1,80,1,0
84496,-100,4,2,1,80,0,0
84833,331.491712707183,4,2,1,80,1,0
85164,359.281437125749,4,2,1,80,1,0
85164,-100,4,2,1,80,0,0
85433,-100,4,2,1,80,0,0
85523,340.909090909091,4,2,1,60,1,1
85523,-100,4,2,1,60,0,1
85608,-100,4,2,1,60,0,0
86204,342.857142857143,4,2,1,60,1,0
86546,359.281437125748,4,2,1,60,1,0
86905,342.857142857143,4,2,1,60,1,0
89305,335.195530726257,4,2,1,60,1,0
89640,342.857142857143,4,2,1,60,1,0
90668,326.086956521739,4,2,1,60,1,0
90831,346.820809248555,4,2,1,60,1,0
91004,355.029585798817,4,2,1,70,1,1
91004,-100,4,2,1,70,0,1
91359,342.857142857143,4,2,1,50,1,1
91359,-100,4,2,1,50,0,1
91701,-100,4,2,1,60,0,1
92044,363.636363636364,4,2,1,70,1,1
92044,-100,4,2,1,70,0,1
92225,338.983050847458,4,2,1,70,1,1
92394,335.195530726257,4,2,1,80,1,1
92394,-99.3541977148534,4,2,1,80,0,1
92729,331.491712707182,4,2,1,80,1,1
92894,348.837209302326,4,2,1,80,1,1
93242,342.857142857143,4,2,1,80,1,1
93584,370.37037037037,4,2,1,80,1,1
93676,-100,4,2,1,80,0,0
93769,363.636363636364,4,2,1,90,1,1
93769,-93.8967136150235,4,2,1,90,0,1
93950,363.636363636364,4,2,1,90,1,1
94131,303.030303030303,4,2,1,90,1,1
94282,338.983050847458,4,2,1,90,1,1
94620,331.491712707182,4,2,1,90,1,1
95282,365.853658536585,4,2,1,90,1,1
95464,333.333333333334,4,2,1,90,1,1
96214,-100,4,2,1,90,0,0
96297,350.877192982456,4,2,1,80,1,1
96297,-100,4,2,1,80,0,1
97700,320.855614973262,4,2,1,45,1,1
97700,-100,4,2,1,45,0,1
97940,-100,4,2,1,45,0,0

[Colours]
Combo1 : 255,255,125
Combo2 : 195,135,135
Combo3 : 145,255,145

[HitObjects]
35,85,500,6,0,P|68:63|107:57,1,80,4|2,1:0|0:0,0:0:0:0:
196,20,1177,2,0,P|235:19|270:37,1,80,2|0,0:0|1:0,0:0:0:0:
310,64,1700,2,0,L|300:144,1,80,4|2,3:0|0:0,2:0:0:0:
403,243,2573,1,2,0:0:0:0:
413,338,2916,1,2,0:0:0:0:
317,346,3244,6,0,P|277:348|239:336,1,80,4|0,1:0|0:0,0:0:0:0:
146,362,3929,2,0,P|111:342|91:308,1,80,4|0,3:0|1:0,0:0:0:0:
48,289,4434,1,4,3:0:0:0:
0,205,4776,1,4,3:0:0:0:
19,116,5112,1,4,3:0:0:0:
137,21,5629,1,0,1:0:0:0:
224,48,5957,6,0,P|230:87|235:127,1,80,4|0,1:0|1:0,0:0:0:0:
151,174,6669,1,4,3:0:0:0:
168,269,7012,1,0,1:0:0:0:
254,308,7355,2,0,P|293:302|333:297,1,80,4|0,3:0|1:0,0:0:0:0:
422,264,8044,1,4,3:0:0:0:
484,191,8389,1,0,1:0:0:0:
451,98,8734,6,0,P|393:45|315:46,1,160,4|4,3:0|3:0,0:0:0:0:
220,25,9762,1,0,1:0:0:0:
136,73,10105,2,0,P|96:80|57:77,1,80,4|0,3:0|1:0,0:0:0:0:
0,156,10791,2,0,P|7:195|4:234,1,80,4|0,3:0|1:0,0:0:0:0:
59,314,11476,6,0,B|155:306|130:338|216:330,1,160,4|4,1:0|3:0,0:0:0:0:
305,366,12505,1,0,1:0:0:0:
387,316,12848,2,0,P|445:321|493:287,1,120,4|2,3:0|0:0,0:0:0:0:
410,169,13876,1,0,1:0:0:0:
481,105,14219,6,0,P|482:48|430:25,1,120,4|4,1:0|3:0,0:0:0:0:
334,22,15066,1,4,3:0:0:0:
277,99,15405,2,0,P|273:141|264:235,1,120,4|6,1:0|3:0,0:0:0:0:
176,254,16259,1,0,1:0:0:0:
188,349,16602,1,4,3:0:0:0:
93,368,16946,6,0,P|20:347|9:272,1,160,4|4,1:0|3:0,0:0:0:0:
4,128,18160,2,0,P|43:123|81:111,1,80,2|2,0:0|0:0,0:0:0:0:
162,58,18843,2,0,P|201:60|240:69,1,80,2|2,0:0|0:0,0:0:0:0:
378,25,19700,6,0,P|433:79|429:157,1,160,4|4,3:0|3:0,0:0:0:0:
478,292,20900,1,4,1:0:0:0:
402,349,21240,2,0,P|345:329|286:329,1,120,4|0,3:0|1:0,0:0:0:0:
192,351,22087,1,4,1:0:0:0:
103,314,22426,6,0,P|96:274|88:235,1,80,4|0,1:0|1:0,0:0:0:0:
14,173,23123,1,4,3:0:0:0:
43,81,23469,1,0,1:0:0:0:
139,81,23817,2,0,P|177:93|216:96,1,80,4|0,3:0|1:0,0:0:0:0:
297,43,24498,1,4,3:0:0:0:
452,155,25180,6,0,P|444:194|438:233,1,80,4|0,3:0|1:0,0:0:0:0:
362,292,25865,1,4,3:0:0:0:
268,265,26208,1,0,1:0:0:0:
179,304,26551,2,0,P|113:264|103:187,1,160,4|4,3:0|3:0,0:0:0:0:
237,49,27918,5,4,3:0:0:0:
331,67,28262,1,0,1:0:0:0:
360,158,28607,2,0,P|354:197|352:237,1,80,4|0,3:0|1:0,0:0:0:0:
292,312,29291,2,0,P|252:306|212:305,1,80,4|0,3:0|1:0,0:0:0:0:
142,238,29976,1,4,3:0:0:0:
204,56,30662,6,0,P|155:23|96:27,1,120,4|2,3:0|0:0,0:0:0:0:
30,96,31526,1,4,3:0:0:0:
8,189,31873,2,0,P|23:225|31:264,1,80,4|0,1:0|1:0,0:0:0:0:
80,347,32559,1,4,3:0:0:0:
175,333,32902,2,0,L|214:338,1,40,4|0,3:0|1:0,0:0:0:0:
306,367,33416,5,4,1:0:0:0:
393,322,33759,2,0,P|397:282|404:242,1,80,0|4,1:0|3:0,0:0:0:0:
357,159,34445,1,0,1:0:0:0:
395,70,34787,2,0,P|334:20|257:29,1,160,4|4,3:0|3:0,0:0:0:0:
67,55,36149,5,4,3:0:0:0:
13,134,36489,1,0,1:0:0:0:
70,211,36839,1,4,3:0:0:0:
20,293,37181,1,0,1:0:0:0:
91,357,37524,2,0,P|129:347|169:346,1,80,4|0,3:0|1:0,0:0:0:0:
261,374,38209,1,4,3:0:0:0:
233,184,38895,6,0,P|226:144|221:104,1,80,4|0,1:0|1:0,0:0:0:0:
272,23,39581,2,0,P|311:15|350:10,1,80,4|0,3:0|1:0,0:0:0:0:
445,29,40266,1,4,3:0:0:0:
510,99,40609,1,0,1:0:0:0:
450,174,40952,1,4,3:0:0:0:
506,251,41295,1,0,1:0:0:0:
438,319,41633,6,0,P|379:330|324:355,1,120,4|4,1:0|3:0,0:0:0:0:
233,323,42505,1,4,3:0:0:0:
145,363,42847,2,0,P|88:351|70:296,1,120,4|0,1:0|1:0,0:0:0:0:
15,218,43695,2,0,P|21:178|22:138,1,80,2|4,0:0|3:0,0:0:0:0:
102,85,44380,6,0,L|140:95,1,40,4|0,1:0|1:0,0:0:0:0:
239,200,45069,2,0,L|277:189,1,40,0|0,1:0|1:0,0:0:0:0:
397,271,45756,2,0,L|435:281,1,40,0|0,1:0|1:0,0:0:0:0:
508,217,46270,2,0,P|492:159|498:100,1,120,4|4,1:0|1:0,0:0:0:0:
437,25,47127,6,0,L|398:35,1,40,0|0,1:0|1:0,0:0:0:0:
254,37,47813,2,0,L|215:26,1,40,0|0,1:0|1:0,0:0:0:0:
79,74,48498,2,0,L|40:84,1,40,0|0,1:0|1:0,0:0:0:0:
8,224,49184,1,2,0:0:0:0:
6,320,49527,1,4,3:0:0:0:
98,344,49870,6,0,L|136:353,1,40,4|0,1:0|1:0,0:0:0:0:
267,292,50556,2,0,L|276:253,1,40,0|0,1:0|1:0,0:0:0:0:
404,187,51241,2,0,L|442:196,1,40,0|0,1:0|1:0,0:0:0:0:
495,115,51756,2,0,P|480:58|429:29,1,120,4|4,1:0|3:0,0:0:0:0:
334,17,52613,6,0,P|294:22|254:27,1,80,4|0,1:0|1:0,0:0:0:0:
189,97,53302,1,6,3:0:0:0:
66,21,53819,2,0,P|18:53|11:111,1,120,2|0,0:0|1:0,0:0:0:0:
60,193,54673,2,0,P|54:232|48:272,1,80,4|0,3:0|1:0,0:0:0:0:
120,335,55356,6,0,P|159:340|199:346,1,80,4|0,1:0|1:0,0:0:0:0:
265,276,56045,1,0,1:0:0:0:
213,140,56553,2,0,P|247:92|305:85,1,120,4|0,1:0|1:0,0:0:0:0:
386,34,57400,2,0,P|424:44|464:44,1,80,4|0,3:0|1:0,0:0:0:0:
492,137,58093,6,0,L|484:176,1,40,0|0,1:0|1:0,0:0:0:0:
459,269,58621,2,0,L|451:308,1,40,0|0,1:0|1:0,0:0:0:0:
320,368,59292,2,0,B|257:357|278:340|207:328,1,120,4|4,1:0|3:0,0:0:0:0:
126,276,60148,2,0,L|87:285,1,40,0|4,1:0|1:0,0:0:0:0:
4,166,60836,6,0,P|47:102|123:105,1,160,4|4,1:0|3:0,0:0:0:0:
250,36,62030,2,0,P|302:64|360:57,1,120,4|0,3:0|1:0,0:0:0:0:
445,102,62878,1,4,3:0:0:0:
399,186,63239,1,0,1:0:0:0:
460,259,63574,5,4,1:0:0:0:
396,331,63924,2,0,P|357:320|318:311,1,80,0|4,1:0|3:0,0:0:0:0:
233,356,64618,1,0,1:0:0:0:
145,316,64962,2,0,P|88:303|70:249,1,120,2|2,0:0|0:0,0:0:0:0:
5,120,65982,1,0,1:0:0:0:
27,26,66325,5,4,1:0:0:0:
121,43,66667,2,0,P|158:55|198:60,1,80,0|4,1:0|3:0,0:0:0:0:
259,190,67525,2,0,P|240:246|250:305,1,120,4|0,1:0|1:0,0:0:0:0:
329,360,68382,1,4,3:0:0:0:
423,343,68725,1,0,1:0:0:0:
452,251,69067,6,0,P|461:191|475:133,1,120,4|2,1:0|0:0,0:0:0:0:
420,54,69925,1,4,3:0:0:0:
328,82,70267,2,0,B|277:55|277:55|215:65,1,120,0|0,1:0|1:0,0:0:0:0:
130,20,71125,1,2,0:0:0:0:
58,84,71467,1,0,1:0:0:0:
102,168,71810,6,0,P|79:243|91:322,1,160,4|4,1:0|3:0,0:0:0:0:
229,363,73009,2,0,P|282:335|341:333,1,120,4|0,3:0|1:0,0:0:0:0:
366,240,73865,1,4,3:0:0:0:
454,276,74217,1,0,1:0:0:0:
510,198,74559,5,4,1:0:0:0:
456,118,74901,2,0,P|463:78|462:38,1,80,0|4,1:0|3:0,0:0:0:0:
373,3,75587,1,0,1:0:0:0:
284,41,75930,2,0,B|253:94|253:94|282:144,1,120,2|2,0:0|0:0,0:0:0:0:
216,272,76959,1,0,1:0:0:0:
148,340,77301,6,0,P|110:327|70:324,1,80,4|0,1:0|1:0,0:0:0:0:
8,250,77987,1,4,3:0:0:0:
47,111,78501,2,0,P|104:125|163:116,1,120,4|0,1:0|1:0,0:0:0:0:
238,56,79359,2,0,L|316:68,1,80,4|0,3:0|1:0,0:0:0:0:
405,29,80044,6,0,P|452:62|461:120,1,120,4|2,1:0|0:0,0:0:0:0:
386,180,80901,1,4,3:0:0:0:
410,272,81244,2,0,P|350:277|294:299,1,120,4|0,1:0|1:0,0:0:0:0:
215,353,82101,1,4,3:0:0:0:
133,302,82444,1,4,3:0:0:0:
40,327,82787,6,0,P|23:291|27:251,1,80,4|0,1:0|1:0,0:0:0:0:
79,170,83473,1,0,1:0:0:0:
35,84,83816,1,0,1:0:0:0:
118,36,84159,2,0,P|157:44|196:46,1,80,0|0,1:0|1:0,0:0:0:0:
258,120,84833,1,0,1:0:0:0:
199,196,85164,1,4,1:0:0:0:
246,279,85523,6,0,P|325:287|402:309,1,160,4|0,1:0|1:0,0:0:0:0:
488,266,86546,1,2,0:0:0:0:
436,184,86905,2,0,P|427:145|432:105,1,80,4|2,3:0|0:0,0:0:0:0:
403,66,87419,1,4,3:0:0:0:
308,83,87762,1,2,0:0:0:0:
175,27,88276,6,0,P|98:35|66:105,1,160,4|0,1:0|1:0,0:0:0:0:
76,295,89640,2,0,P|114:284|154:280,1,80,4|2,3:0|0:0,0:0:0:0:
182,241,90154,1,4,3:0:0:0:
274,265,90497,1,0,1:0:0:0:
415,238,91004,6,0,P|419:198|429:159,1,80,4|4,1:0|3:0,0:0:0:0:
461,68,91701,1,4,3:0:0:0:
387,6,92044,1,4,3:0:0:0:
301,50,92394,2,0,P|243:67|183:69,1,120,4|4,1:0|3:0,0:0:0:0:
97,119,93242,2,0,L|92:158,1,40,4|0,3:0|1:0,0:0:0:0:
155,230,93769,6,0,P|144:288|145:348,1,120,4|4,1:0|1:0,0:0:0:0:
289,342,94785,2,0,L|328:347,1,40,0|0,1:0|1:0,0:0:0:0:
408,294,95282,2,0,L|413:254,1,40,4|4,3:0|3:0,0:0:0:0:
453,166,95797,1,0,1:0:0:0:
354,60,96297,5,4,1:0:0:0:
256,192,96384,12,4,97940,1:3:0:0:
