osu file format v14

[General]
AudioFilename: audio.mp3
AudioLeadIn: 0
PreviewTime: 44987
Countdown: 0
SampleSet: Normal
StackLeniency: 0.7
Mode: 1
LetterboxInBreaks: 0
WidescreenStoryboard: 0

[Editor]
Bookmarks: 1539,7056,12573,18090,23607,29125,34642,40159,45676,66366,67745,89814,95332,100849,106366,111883,117401,122918,128435,133952,139470,144987,150504,156021,161539,167056,172573,178090,183607,189125
DistanceSpacing: 2
BeatDivisor: 4
GridSize: 32
TimelineZoom: 1.2

[Metadata]
Title:Little Fox Wonderland
TitleUnicode:Little Fox Wonderland
Artist:Tenkitsune
ArtistUnicode:Tenkitsune
Creator:eiri-
Version:Kantan
Source:osu!
Tags:Ayyri Featured Artist FA Electronic Instrumental Tiny Waves Beat Saber BeatSaber
BeatmapID:2845730
BeatmapSetID:1362717

[Difficulty]
HPDrainRate:8
CircleSize:2
OverallDifficulty:3
ApproachRate:10
SliderMultiplier:1.4
SliderTickRate:1

[Events]
//Background and Video events
0,0,"Little Fox Wonderland.jpg",0,30
//Break Periods
//Storyboard Layer 0 (Background)
//Storyboard Layer 1 (Fail)
//Storyboard Layer 2 (Pass)
//Storyboard Layer 3 (Foreground)
//Storyboard Layer 4 (Overlay)
//Storyboard Sound Samples

[TimingPoints]
1539,344.827586206897,4,1,0,75,1,0
23564,-100,4,1,0,50,0,0
34599,-100,4,1,0,60,0,0
40116,-100,4,1,0,75,0,0
44944,-100,4,1,0,80,0,0
45676,-100,4,1,0,90,0,1
66366,-100,4,1,0,90,0,0
67745,-100,4,1,0,90,0,1
89814,-100,4,1,0,60,0,0
100806,-100,4,1,0,75,0,0
111840,-100,4,1,0,50,0,0
122875,-100,4,1,0,60,0,0
133909,-100,4,1,0,75,0,0
144944,-100,4,1,0,80,0,0
154599,-100,4,1,0,60,0,0
155633,-100,4,1,0,80,0,0
155978,-100,4,1,0,75,0,0
179254,-111.111111111111,4,1,0,30,0,0

[HitObjects]
256,192,1539,5,0,0:0:0:0:
256,192,2228,1,8,0:0:0:0:
256,192,2918,1,0,0:0:0:0:
256,192,3263,1,8,0:0:0:0:
256,192,3607,1,0,0:0:0:0:
256,192,4297,1,0,0:0:0:0:
256,192,4987,1,8,0:0:0:0:
256,192,5676,1,0,0:0:0:0:
256,192,6366,1,0,0:0:0:0:
256,192,6711,1,8,0:0:0:0:
256,192,7056,1,0,0:0:0:0:
256,192,7745,1,8,0:0:0:0:
256,192,8435,1,0,0:0:0:0:
256,192,8780,1,8,0:0:0:0:
256,192,9125,1,0,0:0:0:0:
256,192,9814,1,0,0:0:0:0:
256,192,10504,1,8,0:0:0:0:
256,192,11194,1,0,0:0:0:0:
256,192,12573,1,0,0:0:0:0:
256,192,13263,1,8,0:0:0:0:
256,192,13952,1,0,0:0:0:0:
256,192,14297,1,8,0:0:0:0:
256,192,14642,1,0,0:0:0:0:
256,192,15332,1,0,0:0:0:0:
256,192,16021,1,8,0:0:0:0:
256,192,16711,1,0,0:0:0:0:
256,192,17401,1,0,0:0:0:0:
256,192,17745,1,8,0:0:0:0:
256,192,18090,1,0,0:0:0:0:
256,192,18780,1,8,0:0:0:0:
256,192,19470,1,0,0:0:0:0:
256,192,19814,1,8,0:0:0:0:
256,192,20159,1,0,0:0:0:0:
256,192,20849,1,0,0:0:0:0:
256,192,21539,1,8,0:0:0:0:
256,192,22228,1,0,0:0:0:0:
256,192,23607,1,4,0:0:0:0:
256,192,24297,1,8,0:0:0:0:
256,192,25676,1,8,0:0:0:0:
256,192,27056,1,8,0:0:0:0:
256,192,28435,1,8,0:0:0:0:
256,192,29814,1,8,0:0:0:0:
256,192,31194,1,8,0:0:0:0:
256,192,32573,1,8,0:0:0:0:
256,192,33952,1,8,0:0:0:0:
256,192,34642,1,0,0:0:0:0:
256,192,35332,1,8,0:0:0:0:
256,192,36711,1,8,0:0:0:0:
256,192,37401,1,0,0:0:0:0:
256,192,38090,1,8,0:0:0:0:
256,192,39470,1,8,0:0:0:0:
256,192,40159,1,0,0:0:0:0:
256,192,40849,1,8,0:0:0:0:
256,192,41539,1,0,0:0:0:0:
256,192,42228,1,8,0:0:0:0:
256,192,42918,1,0,0:0:0:0:
256,192,44297,1,0,0:0:0:0:
256,192,44642,1,0,0:0:0:0:
256,192,44987,1,8,0:0:0:0:
256,192,45676,1,4,0:0:0:0:
256,192,46366,1,0,0:0:0:0:
256,192,46711,1,8,0:0:0:0:
256,192,47056,1,0,0:0:0:0:
256,192,47745,1,8,0:0:0:0:
256,192,48435,1,0,0:0:0:0:
256,192,48780,1,0,0:0:0:0:
256,192,49125,1,8,0:0:0:0:
256,192,49814,1,0,0:0:0:0:
256,192,50159,1,8,0:0:0:0:
256,192,50504,1,0,0:0:0:0:
256,192,51194,1,0,0:0:0:0:
256,192,51883,1,0,0:0:0:0:
256,192,52228,1,8,0:0:0:0:
256,192,52573,1,0,0:0:0:0:
256,192,53263,1,8,0:0:0:0:
256,192,53952,1,0,0:0:0:0:
256,192,54297,1,0,0:0:0:0:
256,192,54642,1,8,0:0:0:0:
256,192,55332,1,0,0:0:0:0:
256,192,56711,1,0,0:0:0:0:
256,192,57401,1,8,0:0:0:0:
256,192,58090,1,0,0:0:0:0:
256,192,58435,1,0,0:0:0:0:
256,192,58780,1,8,0:0:0:0:
256,192,59470,1,0,0:0:0:0:
256,192,60159,1,0,0:0:0:0:
256,192,60504,1,8,0:0:0:0:
256,192,60849,1,0,0:0:0:0:
256,192,61539,1,8,0:0:0:0:
256,192,61883,1,8,0:0:0:0:
256,192,62228,1,0,0:0:0:0:
256,192,62918,1,8,0:0:0:0:
256,192,63607,1,0,0:0:0:0:
256,192,63952,1,0,0:0:0:0:
256,192,64297,1,8,0:0:0:0:
256,192,64987,1,0,0:0:0:0:
256,192,65676,1,8,0:0:0:0:
256,192,66021,1,8,0:0:0:0:
256,192,66366,1,0,0:0:0:0:
256,192,67745,1,4,0:0:0:0:
256,192,68435,1,8,0:0:0:0:
256,192,68780,1,8,0:0:0:0:
256,192,69125,1,0,0:0:0:0:
256,192,69814,1,0,0:0:0:0:
256,192,70504,1,0,0:0:0:0:
256,192,70849,1,0,0:0:0:0:
256,192,71194,1,8,0:0:0:0:
256,192,71539,1,8,0:0:0:0:
256,192,71883,1,0,0:0:0:0:
256,192,73263,1,0,0:0:0:0:
256,192,73952,1,8,0:0:0:0:
256,192,74642,1,0,0:0:0:0:
256,192,74987,1,8,0:0:0:0:
256,192,75332,1,0,0:0:0:0:
256,192,76021,1,0,0:0:0:0:
256,192,76366,1,0,0:0:0:0:
256,192,76711,1,8,0:0:0:0:
256,192,77401,1,0,0:0:0:0:
256,192,78090,1,8,0:0:0:0:
256,192,78780,1,0,0:0:0:0:
256,192,79470,1,8,0:0:0:0:
256,192,79814,1,8,0:0:0:0:
256,192,80159,1,0,0:0:0:0:
256,192,80849,1,8,0:0:0:0:
256,192,81539,1,0,0:0:0:0:
256,192,82228,1,0,0:0:0:0:
256,192,82573,1,8,0:0:0:0:
256,192,82918,1,0,0:0:0:0:
256,192,84297,1,0,0:0:0:0:
256,192,84987,1,8,0:0:0:0:
256,192,85676,1,0,0:0:0:0:
256,192,86021,1,8,0:0:0:0:
256,192,86366,1,0,0:0:0:0:
256,192,87056,1,0,0:0:0:0:
256,192,87745,1,8,0:0:0:0:
256,192,88435,1,0,0:0:0:0:
256,192,88780,1,0,0:0:0:0:
256,192,89125,1,8,0:0:0:0:
256,192,89814,1,0,0:0:0:0:
256,192,90159,1,8,0:0:0:0:
256,192,91194,1,0,0:0:0:0:
256,192,91883,1,0,0:0:0:0:
256,192,92573,1,0,0:0:0:0:
256,192,92918,1,8,0:0:0:0:
256,192,93952,1,0,0:0:0:0:
256,192,94642,1,0,0:0:0:0:
256,192,95332,1,0,0:0:0:0:
256,192,95676,1,8,0:0:0:0:
256,192,96711,1,0,0:0:0:0:
256,192,97401,1,0,0:0:0:0:
256,192,98090,1,0,0:0:0:0:
256,192,98435,1,8,0:0:0:0:
256,192,99470,1,0,0:0:0:0:
256,192,100159,1,0,0:0:0:0:
256,192,100849,1,0,0:0:0:0:
256,192,101539,1,0,0:0:0:0:
256,192,101883,1,8,0:0:0:0:
256,192,102228,1,0,0:0:0:0:
256,192,103607,1,0,0:0:0:0:
256,192,104297,1,0,0:0:0:0:
256,192,104642,1,8,0:0:0:0:
256,192,104987,1,0,0:0:0:0:
256,192,105676,1,8,0:0:0:0:
256,192,106366,1,0,0:0:0:0:
256,192,107056,1,0,0:0:0:0:
256,192,107401,1,8,0:0:0:0:
256,192,107745,1,0,0:0:0:0:
256,192,109125,1,0,0:0:0:0:
256,192,109814,1,0,0:0:0:0:
256,192,110159,1,8,0:0:0:0:
256,192,110504,1,0,0:0:0:0:
256,192,111194,1,8,0:0:0:0:
256,192,111539,1,8,0:0:0:0:
256,192,111883,1,4,0:0:0:0:
256,192,113263,1,0,0:0:0:0:
256,192,113952,1,8,0:0:0:0:
256,192,114642,1,0,0:0:0:0:
256,192,116021,1,0,0:0:0:0:
256,192,116711,1,8,0:0:0:0:
256,192,117401,1,0,0:0:0:0:
256,192,118435,1,8,0:0:0:0:
256,192,118780,1,0,0:0:0:0:
256,192,119470,1,0,0:0:0:0:
256,192,121194,1,8,0:0:0:0:
256,192,121539,1,0,0:0:0:0:
256,192,122228,1,0,0:0:0:0:
256,192,122918,1,0,0:0:0:0:
256,192,123607,1,8,0:0:0:0:
256,192,124297,1,0,0:0:0:0:
256,192,124642,1,8,0:0:0:0:
256,192,124987,1,0,0:0:0:0:
256,192,125676,1,0,0:0:0:0:
256,192,126366,1,8,0:0:0:0:
256,192,127056,1,0,0:0:0:0:
256,192,127401,1,8,0:0:0:0:
256,192,127745,1,0,0:0:0:0:
256,192,128435,1,0,0:0:0:0:
256,192,129470,1,8,0:0:0:0:
256,192,129814,1,0,0:0:0:0:
256,192,130504,1,0,0:0:0:0:
256,192,132228,1,8,0:0:0:0:
256,192,132573,1,0,0:0:0:0:
256,192,133263,1,0,0:0:0:0:
256,192,133952,1,4,0:0:0:0:
256,192,134297,1,0,0:0:0:0:
256,192,135332,1,0,0:0:0:0:
256,192,136021,1,0,0:0:0:0:
256,192,136711,1,0,0:0:0:0:
256,192,137056,1,0,0:0:0:0:
256,192,137401,1,0,0:0:0:0:
256,192,138090,1,0,0:0:0:0:
256,192,138780,1,0,0:0:0:0:
256,192,139470,1,0,0:0:0:0:
256,192,139814,1,0,0:0:0:0:
256,192,140849,1,0,0:0:0:0:
256,192,141539,1,0,0:0:0:0:
256,192,142228,1,0,0:0:0:0:
256,192,142573,1,0,0:0:0:0:
256,192,142918,1,0,0:0:0:0:
256,192,143607,1,0,0:0:0:0:
256,192,144297,1,0,0:0:0:0:
256,192,144642,1,8,0:0:0:0:
256,192,144987,1,4,0:0:0:0:
256,192,146021,1,8,0:0:0:0:
256,192,146366,1,0,0:0:0:0:
256,192,147056,1,0,0:0:0:0:
256,192,147401,1,8,0:0:0:0:
256,192,147745,1,0,0:0:0:0:
256,192,148090,1,8,0:0:0:0:
256,192,148780,1,8,0:0:0:0:
256,192,149125,1,0,0:0:0:0:
256,192,149814,1,0,0:0:0:0:
256,192,150159,1,8,0:0:0:0:
256,192,150504,1,0,0:0:0:0:
256,192,151539,1,8,0:0:0:0:
256,192,151883,1,0,0:0:0:0:
256,192,152573,1,0,0:0:0:0:
256,192,152918,1,8,0:0:0:0:
256,192,153263,1,0,0:0:0:0:
256,192,153607,1,8,0:0:0:0:
256,192,154297,1,8,0:0:0:0:
256,192,154642,1,0,0:0:0:0:
256,192,155332,1,8,0:0:0:0:
256,192,155676,1,4,0:0:0:0:
256,192,156021,1,12,0:0:0:0:
256,192,157401,1,0,0:0:0:0:
256,192,157745,1,0,0:0:0:0:
256,192,158090,1,8,0:0:0:0:
256,192,158780,1,0,0:0:0:0:
256,192,159470,1,8,0:0:0:0:
256,192,160159,1,0,0:0:0:0:
256,192,160504,1,0,0:0:0:0:
256,192,160849,1,8,0:0:0:0:
256,192,161539,1,0,0:0:0:0:
256,192,162918,1,0,0:0:0:0:
256,192,163263,1,0,0:0:0:0:
256,192,163607,1,8,0:0:0:0:
256,192,164297,1,0,0:0:0:0:
256,192,164987,1,8,0:0:0:0:
256,192,165676,1,0,0:0:0:0:
256,192,166021,1,0,0:0:0:0:
256,192,166366,1,8,0:0:0:0:
256,192,167056,1,12,0:0:0:0:
256,192,167401,1,0,0:0:0:0:
256,192,167745,1,8,0:0:0:0:
256,192,168435,1,0,0:0:0:0:
256,192,169814,1,0,0:0:0:0:
256,192,170504,1,8,0:0:0:0:
256,192,171194,1,0,0:0:0:0:
256,192,171539,1,0,0:0:0:0:
256,192,171883,1,8,0:0:0:0:
256,192,172573,1,0,0:0:0:0:
256,192,173263,1,8,0:0:0:0:
256,192,173952,1,0,0:0:0:0:
256,192,175332,1,0,0:0:0:0:
256,192,175676,1,8,0:0:0:0:
256,192,176021,1,8,0:0:0:0:
256,192,176711,1,0,0:0:0:0:
256,192,177401,1,8,0:0:0:0:
256,192,178090,1,12,0:0:0:0:
256,192,179297,1,0,0:0:0:0:
256,192,180849,1,8,0:0:0:0:
256,192,182745,1,0,0:0:0:0:
256,192,183607,1,8,0:0:0:0:
256,192,184814,1,0,0:0:0:0:
256,192,186366,1,8,0:0:0:0:
256,192,188263,1,8,0:0:0:0:
256,192,189125,1,8,0:0:0:0:
