osu file format v14

[General]
AudioFilename: audio.mp3
AudioLeadIn: 0
PreviewTime: 45136
Countdown: 0
SampleSet: Normal
StackLeniency: 0.8
Mode: 0
LetterboxInBreaks: 0
WidescreenStoryboard: 1

[Editor]
Bookmarks: 22636,45248,67836,90425,113013,135601,158189,180777,203366,225954,252072
DistanceSpacing: 0.6
BeatDivisor: 4
GridSize: 4
TimelineZoom: 1.6

[Metadata]
Title:Hopes and Dreams and a Cup of Latte
TitleUnicode:Hopes and Dreams and a Cup of Latte
Artist:Tenkitsune
ArtistUnicode:Tenkitsune
Creator:-AsrieLx-
Version:John's Extra Hope
Source:
Tags:Video Game UnderTale Asriel Remix ItsSurreal Ambrew Lazy Cat Soup KittytheGreat Jyu Saltssaumure -AsrieLx- PiWipi Elias- Birkis Crypthesis Electronic
BeatmapID:1376877
BeatmapSetID:622996

[Difficulty]
HPDrainRate:6.5
CircleSize:3.8
OverallDifficulty:7.4
ApproachRate:9.4
SliderMultiplier:2
SliderTickRate:1

[Events]
//Background and Video events
0,0,"Cup of Latte.jpg",0,0
//Break Periods
2,113189,122695
2,180953,185695
//Storyboard Layer 0 (Background)
//Storyboard Layer 1 (Fail)
//Storyboard Layer 2 (Pass)
//Storyboard Layer 3 (Foreground)
//Storyboard Sound Samples

[TimingPoints]
48,352.941176470588,4,1,2,70,1,0
48,-133.333333333333,4,1,2,70,0,0
11342,-133.333333333333,4,1,2,85,0,0
22636,-66.6666666666667,4,3,0,89,0,1
22724,-66.6666666666667,4,1,2,60,0,0
22989,-100,4,1,2,60,0,0
44518,-50,4,1,2,60,0,0
44871,-133.333333333333,4,1,2,50,0,0
45224,-76.9230769230769,4,1,2,60,0,1
50518,-50,4,1,2,70,0,1
50871,-76.9230769230769,4,1,2,60,0,1
53695,-76.9230769230769,4,1,2,50,0,1
55106,-76.9230769230769,4,1,2,60,0,1
55812,-50,4,1,2,60,0,1
56165,-76.9230769230769,4,1,2,60,0,1
56518,-86.9565217391304,4,1,2,60,0,1
67459,-50,4,1,2,60,0,1
67812,-100,4,3,0,90,0,0
67900,-100,4,1,2,60,0,0
89695,-50,4,1,2,60,0,0
90312,-60.6060606060606,4,1,2,5,0,0
90400,-76.9230769230769,4,1,2,60,0,1
95695,-50,4,1,2,60,0,1
96047,-76.9230769230769,4,1,2,60,0,1
98871,-76.9230769230769,4,1,2,60,0,1
100989,-76.9230769230769,4,1,2,60,0,1
101695,-86.9565217391304,4,1,2,60,0,1
111577,-86.9565217391304,4,3,0,90,0,1
112989,-100,4,3,0,90,0,0
123577,-100,4,1,2,70,0,0
124283,-100,4,1,2,70,0,0
129930,-50,4,1,2,70,0,0
130283,-100,4,1,2,70,0,0
134871,-50,4,1,2,70,0,0
135136,-50,4,1,2,5,0,0
135224,-66.6666666666667,4,1,0,100,0,0
135489,-66.6666666666667,4,1,2,5,0,0
135577,-111.111111111111,4,1,2,70,0,0
146165,-50,4,1,2,70,0,0
146518,-111.111111111111,4,1,2,70,0,0
152165,-50,4,1,2,70,0,0
152518,-111.111111111111,4,1,2,70,0,0
157459,-50,4,1,2,70,0,0
157812,-111.111111111111,4,1,2,70,0,0
158165,-105.263157894737,4,1,2,70,0,0
168753,-50,4,1,2,70,0,0
169106,-105.263157894737,4,1,2,70,0,0
180753,-100,4,3,0,90,0,0
180842,-100,4,1,2,60,0,0
202636,-50,4,1,2,60,0,0
202989,-50,4,1,2,60,0,0
203342,-76.9230769230769,4,1,2,60,0,1
208636,-50,4,1,2,60,0,1
208989,-76.9230769230769,4,1,2,60,0,1
211812,-76.9230769230769,4,1,2,50,0,1
213224,-76.9230769230769,4,1,2,60,0,1
213930,-76.9230769230769,4,1,2,60,0,1
214283,-76.9230769230769,4,1,2,60,0,1
214636,-80,4,1,2,60,0,1
225224,-50,4,1,2,60,0,1
225577,-80,4,1,2,60,0,1
225930,-83.3333333333333,4,1,2,70,0,0
236871,-83.3333333333333,4,1,0,40,0,0
236959,-83.3333333333333,4,1,0,5,0,0
237047,-83.3333333333333,4,1,0,40,0,0
237136,-83.3333333333333,4,1,0,5,0,0
237224,-111.111111111111,4,1,2,50,0,0
242871,368.098159509202,4,1,2,70,1,0
244343,405.405405405405,4,1,2,60,1,0
245964,458.015267175573,4,1,2,50,1,0
245964,-83.3333333333333,4,1,2,50,0,0
247796,517.241379310345,4,1,2,50,1,0
249742,517.241379310345,4,1,2,30,1,0
249742,-100,4,1,2,30,0,0
249864,517.241379310345,4,1,2,30,1,0
252191,-100,4,1,2,5,0,0

[Colours]
Combo1 : 157,157,157
Combo2 : 125,0,63
Combo3 : 113,0,56
Combo4 : 255,255,202
Combo5 : 255,193,164
Combo6 : 97,0,193
Combo7 : 98,0,0
Combo8 : 192,192,192

[HitObjects]
208,288,48,101,2,0:0:0:0:
60,168,400,1,8,0:0:0:0:
216,92,753,5,2,0:0:0:0:
116,268,1106,1,8,0:0:0:0:
360,112,1459,102,0,L|340:208,1,75.0000028610231,2|8,0:0|0:0,0:0:0:0:
316,336,1989,1,0,0:0:0:0:
176,80,2342,5,8,0:0:0:0:
180,152,2430,1,8,0:0:0:0:
184,224,2518,1,6,0:0:0:0:
356,72,2871,101,2,0:0:0:0:
380,300,3224,1,0,0:0:0:0:
268,144,3577,2,0,P|248:116|212:84,1,75.0000028610231,2|0,0:0|0:0,0:0:0:0:
116,251,4106,5,0,0:0:0:0:
280,204,4459,1,2,0:0:0:0:
120,146,4636,1,2,0:0:0:0:
216,288,4812,1,2,0:0:0:0:
221,117,4989,1,2,0:0:0:0:
116,251,5342,1,8,0:0:0:0:
328,96,5695,101,2,0:0:0:0:
480,88,6047,1,0,0:0:0:0:
296,200,6400,5,2,0:0:0:0:
128,188,6753,1,2,0:0:0:0:
336,296,7106,102,0,L|436:280,1,75.0000028610231,2|0,0:0|0:0,0:0:0:0:
220,312,7636,1,0,0:0:0:0:
112,236,7989,1,8,0:0:0:0:
144,168,8077,1,8,0:0:0:0:
180,104,8165,1,2,0:0:0:0:
360,84,8518,5,0,0:0:0:0:
320,272,8871,1,2,0:0:0:0:
460,176,9047,1,2,0:0:0:0:
264,184,9224,1,2,0:0:0:0:
368,348,9400,1,6,0:0:0:0:
364,244,9753,101,2,0:0:0:0:
232,168,10106,1,2,0:0:0:0:
200,240,10283,1,2,0:0:0:0:
152,176,10459,1,2,0:0:0:0:
232,168,10636,1,2,0:0:0:0:
196,196,10989,1,10,0:0:0:0:
372,76,11342,5,10,0:0:0:0:
396,284,11695,1,8,0:0:0:0:
296,116,12047,101,10,0:0:0:0:
396,284,12400,1,8,0:0:0:0:
268,220,12753,6,0,B|312:228|312:228|356:256,1,75.0000028610231,2|2,0:0|0:0,0:0:0:0:
200,176,13283,1,2,0:0:0:0:
348,144,13636,1,8,0:0:0:0:
320,80,13724,1,8,0:0:0:0:
280,136,13812,1,2,0:0:0:0:
128,320,14165,101,8,0:0:0:0:
112,128,14518,1,2,0:0:0:0:
224,328,14871,2,0,B|220:288|220:288|228:248,1,75.0000028610231,2|2,0:0|0:0,0:0:0:0:
280,108,15400,5,8,0:0:0:0:
376,104,15753,1,2,0:0:0:0:
280,108,15930,1,2,0:0:0:0:
368,148,16106,1,2,0:0:0:0:
268,152,16283,1,2,0:0:0:0:
368,148,16636,1,4,0:0:0:0:
168,80,16989,101,10,0:0:0:0:
152,268,17342,1,8,0:0:0:0:
168,92,17695,5,10,0:0:0:0:
153,262,18047,1,8,0:0:0:0:
168,92,18400,2,0,L|176:8,1,75.0000028610231,2|2,0:0|0:0,0:0:0:0:
160,180,18930,101,0,0:0:0:0:
288,168,19283,1,8,0:0:0:0:
356,148,19371,1,8,0:0:0:0:
412,104,19459,1,2,0:0:0:0:
256,192,19812,12,0,22283,0:0:0:0:
120,144,22636,21,14,0:0:0:0:
316,160,22989,2,0,L|324:224,1,50
304,56,23165,2,0,L|296:0,1,50
416,104,23342,1,2,0:0:0:0:
200,112,23518,1,8,0:0:0:0:
432,148,23695,1,2,0:0:0:0:
212,64,23871,1,8,0:0:0:0:
80,196,24047,6,0,L|148:196,1,50
208,236,24224,2,0,L|264:236,1,50,2|0,0:0|0:0,0:0:0:0:
384,292,24400,2,0,L|316:292,1,50
256,332,24577,2,0,L|200:332,1,50,2|0,0:0|0:0,0:0:0:0:
132,260,24753,2,8,L|132:192,1,50
172,132,24930,2,8,L|172:76,1,50,10|8,0:0|0:0,0:0:0:0:
300,112,25283,5,0,0:0:0:0:
300,112,25371,1,0,0:0:0:0:
300,112,25459,2,0,B|344:88|344:88|412:136,1,100,2|0,0:0|0:0,0:0:0:0:
443,249,25812,6,0,L|352:249,1,50
308,321,25989,2,0,L|241:321,1,50
388,376,26165,2,0,L|388:316,1,50,10|0,0:0|0:0,0:0:0:0:
313,249,26342,2,0,L|313:189,1,50
312,96,26518,1,8,0:0:0:0:
432,80,26695,1,2,0:0:0:0:
56,148,26871,6,0,P|128:132|176:160,1,100,2|0,0:0|0:0,0:0:0:0:
144,220,27136,2,0,P|212:192|228:140,1,100,2|0,0:0|0:0,0:0:0:0:
300,140,27400,2,0,P|252:96|188:100,1,100,2|0,0:0|0:0,0:0:0:0:
180,96,27665,1,8,0:0:0:0:
132,128,27753,1,8,0:0:0:0:
76,280,27930,2,0,P|104:308|188:320,1,100
368,320,28283,5,0,0:0:0:0:
351,195,28636,2,0,L|275:187,1,50,2|0,0:0|0:0,0:0:0:0:
176,176,28812,2,0,L|100:168,1,50
12,156,28989,2,0,L|88:164,1,50
251,184,29165,2,0,L|323:192,1,50
144,176,29342,2,0,P|112:168|88:148,1,50,2|0,0:0|0:0,0:0:0:0:
80,72,29518,2,0,P|88:40|108:16,1,50
272,84,29695,37,8,0:0:0:0:
240,260,29871,1,2,0:0:0:0:
300,104,30047,37,8,0:0:0:0:
271,261,30223,1,2,0:0:0:0:
208,168,30400,101,8,0:0:0:0:
365,197,30576,1,0,0:0:0:0:
260,308,30753,2,0,B|252:304|252:304|244:308|244:308|236:304|236:304|232:312|232:312|228:300|228:300|224:312|224:312|192:240|120:256,1,150,6|0,0:0|0:0,0:0:0:0:
80,256,31106,5,0,0:0:0:0:
152,88,31459,5,2,0:0:0:0:
136,240,31636,1,0,0:0:0:0:
248,136,31812,5,2,0:0:0:0:
264,288,31989,1,0,0:0:0:0:
368,120,32165,37,2,0:0:0:0:
352,272,32342,1,0,0:0:0:0:
424,356,32518,5,2,0:0:0:0:
424,291,32695,1,0,0:0:0:0:
480,323,32871,1,0,0:0:0:0:
424,356,33047,1,0,0:0:0:0:
424,244,33224,2,0,L|424:212,4,25
476,160,33577,6,0,B|464:140|464:140|404:132|404:132|388:148,2,100,2|0|2,0:0|0:0|0:0,0:0:0:0:
388,264,34283,2,0,L|348:312,1,50,2|0,0:0|0:0,0:0:0:0:
312,228,34459,2,0,L|272:276,1,50
312,316,34636,2,0,L|268:360,1,50,2|0,0:0|0:0,0:0:0:0:
240,276,34812,2,0,L|200:324,1,50
168,232,34989,2,0,L|136:280,1,50,2|0,0:0|0:0,0:0:0:0:
92,196,35165,2,0,L|68:252,1,50
128,100,35342,5,2,0:0:0:0:
304,56,35518,1,0,0:0:0:0:
136,99,35695,5,2,0:0:0:0:
298,58,35871,1,0,0:0:0:0:
248,224,36047,5,0,0:0:0:0:
212,64,36224,1,0,0:0:0:0:
368,148,36577,37,8,0:0:0:0:
368,148,36666,1,8,0:0:0:0:
368,148,36753,2,0,P|384:208|368:276,1,100,2|0,0:0|0:0,0:0:0:0:
284,304,37106,5,2,0:0:0:0:
200,184,37283,1,0,0:0:0:0:
184,312,37459,5,2,0:0:0:0:
288,192,37636,1,0,0:0:0:0:
132,216,37812,5,2,0:0:0:0:
384,272,37989,1,0,0:0:0:0:
444,80,38165,6,0,B|416:64|416:64|376:76|376:76|324:60,1,100,2|0,0:0|0:0,0:0:0:0:
343,152,38430,2,0,B|368:160|368:160|408:148|408:148|436:164,1,100,2|0,0:0|0:0,0:0:0:0:
428,248,38695,2,0,B|400:232|400:232|360:244|360:244|308:228,1,100,2|0,0:0|0:0,0:0:0:0:
284,220,38959,1,8,0:0:0:0:
232,204,39047,1,8,0:0:0:0:
88,160,39224,5,8,0:0:0:0:
300,104,39400,1,4,0:0:0:0:
248,352,39577,1,2,0:0:0:0:
288,104,39930,38,0,P|300:68|312:104,1,100
224,200,40283,1,2,0:0:0:0:
304,288,40459,1,0,0:0:0:0:
336,180,40636,1,2,0:0:0:0:
184,316,40812,1,0,0:0:0:0:
64,232,40989,5,8,0:0:0:0:
224,348,41165,1,2,0:0:0:0:
156,124,41342,5,8,0:0:0:0:
224,344,41518,1,2,0:0:0:0:
288,176,41695,5,8,0:0:0:0:
224,340,41871,1,2,0:0:0:0:
380,224,42047,2,0,B|388:212|388:212|372:216|372:216|380:204|380:204|388:144|348:96,1,150,6|0,0:0|0:0,0:0:0:0:
320,64,42400,5,0,0:0:0:0:
156,112,42753,5,2,0:0:0:0:
276,240,42930,1,0,0:0:0:0:
288,84,43106,37,2,0:0:0:0:
176,224,43283,1,0,0:0:0:0:
92,196,43459,5,2,0:0:0:0:
308,204,43636,1,0,0:0:0:0:
144,316,43812,5,0,0:0:0:0:
144,316,43900,1,0,0:0:0:0:
144,316,43989,1,0,0:0:0:0:
144,316,44077,1,0,0:0:0:0:
144,316,44165,1,0,0:0:0:0:
168,292,44253,1,0,0:0:0:0:
197,270,44342,1,0,0:0:0:0:
232,252,44430,1,0,0:0:0:0:
268,244,44518,2,0,P|282:221|309:211,1,50,2|0,0:0|0:0,0:0:0:0:
304,240,44606,2,0,P|323:225|351:225,1,50,2|0,0:0|0:0,0:0:0:0:
344,244,44695,2,0,P|376:240|396:252,1,50,4|0,0:0|0:0,0:0:0:0:
384,256,44783,2,0,P|408:264|424:284,1,50
416,276,44871,6,12,P|436:292|456:316,3,37.5000014305115
380,256,45224,22,0,P|252:248|132:328,1,259.999988098145,2|0,0:0|0:0,0:0:0:0:
280,340,45753,1,0,0:0:0:0:
156,144,45930,37,2,0:0:0:0:
184,296,46106,1,0,0:0:0:0:
256,132,46283,5,2,0:0:0:0:
96,256,46459,1,0,0:0:0:0:
64,100,46636,6,0,B|120:60|180:48|180:48|248:36|348:56,1,259.999988098145,2|0,0:0|0:0,0:0:0:0:
196,144,47165,1,0,0:0:0:0:
400,116,47342,5,2,0:0:0:0:
344,288,47518,1,0,0:0:0:0:
264,168,47695,5,2,0:0:0:0:
476,188,47871,1,0,0:0:0:0:
304,280,48047,54,0,B|252:264|252:264|92:292|92:292|20:272,1,259.999988098145,2|0,0:0|0:0,0:0:0:0:
248,180,48577,1,0,0:0:0:0:
172,116,48753,5,2,0:0:0:0:
352,176,48930,1,0,0:0:0:0:
284,36,49106,5,2,0:0:0:0:
248,232,49283,1,0,0:0:0:0:
396,68,49459,6,2,P|460:196|340:96,1,389.999982147218,0|0,0:0|0:0,0:0:0:0:
400,144,50165,1,8,0:0:0:0:
384,211,50253,1,8,0:0:0:0:
368,279,50342,1,8,0:0:0:0:
232,280,50518,2,0,P|248:264|248:304,6,50,0|0|0|0|0|0|4,0:0|0:0|0:0|0:0|0:0|0:0|0:0,0:0:0:0:
248,268,50871,6,0,P|160:304|36:208,1,259.999988098145,2|0,0:0|0:0,0:0:0:0:
160,172,51400,1,0,0:0:0:0:
312,88,51577,5,2,0:0:0:0:
440,276,51753,1,0,0:0:0:0:
432,80,51930,37,2,0:0:0:0:
256,268,52106,1,0,0:0:0:0:
56,128,52283,6,0,P|152:152|48:224,1,259.999988098145,2|0,0:0|0:0,0:0:0:0:
92,180,52812,1,0,0:0:0:0:
208,104,52989,5,2,0:0:0:0:
456,224,53165,1,0,0:0:0:0:
308,32,53342,5,2,0:0:0:0:
308,268,53519,1,0,0:0:0:0:
48,224,53695,6,0,P|136:184|284:172,1,194.999991073609,2|0,0:0|0:0,0:0:0:0:
252,240,54047,2,0,P|312:176|256:96,1,194.999991073609,2|0,0:0|0:0,0:0:0:0:
152,96,54400,2,0,P|92:160|148:240,1,194.999991073609,2|0,0:0|0:0,0:0:0:0:
288,280,54753,2,0,P|356:292|488:284,1,194.999991073609,2|0,0:0|0:0,0:0:0:0:
424,116,55106,5,0,0:0:0:0:
288,136,55283,2,0,P|204:144|148:112,1,129.999994049073,2|0,0:0|0:0,0:0:0:0:
56,24,55636,1,0,0:0:0:0:
72,224,55812,38,0,B|84:212|84:212|108:212|108:212|120:196,6,50,0|0|0|0|0|0|4,0:0|0:0|0:0|0:0|0:0|0:0|0:0,0:0:0:0:
100,216,56165,1,0,0:0:0:0:
160,208,56253,1,0,0:0:0:0:
220,212,56342,1,0,0:0:0:0:
280,224,56430,1,0,0:0:0:0:
336,248,56518,5,8,0:0:0:0:
376,196,56871,1,0,0:0:0:0:
412,140,57224,1,8,0:0:0:0:
444,80,57577,1,0,0:0:0:0:
268,60,57930,5,2,0:0:0:0:
316,276,58106,1,0,0:0:0:0:
392,92,58283,5,2,0:0:0:0:
248,312,58459,1,0,0:0:0:0:
268,60,58636,1,0,0:0:0:0:
416,272,58812,5,0,0:0:0:0:
422,278,58900,1,0,0:0:0:0:
422,278,58988,1,0,0:0:0:0:
188,92,59165,1,2,0:0:0:0:
112,88,59342,5,8,0:0:0:0:
136,152,59695,1,0,0:0:0:0:
168,212,60047,1,2,0:0:0:0:
412,184,60224,1,0,0:0:0:0:
212,316,60400,1,0,0:0:0:0:
256,124,60577,37,2,0:0:0:0:
208,244,60753,1,0,0:0:0:0:
412,344,60930,1,0,0:0:0:0:
396,216,61106,1,0,0:0:0:0:
268,260,61283,1,0,0:0:0:0:
320,120,61459,5,8,0:0:0:0:
320,120,61547,1,8,0:0:0:0:
320,120,61636,1,8,0:0:0:0:
184,160,61812,1,2,0:0:0:0:
140,272,62165,5,8,0:0:0:0:
216,256,62518,1,0,0:0:0:0:
272,204,62871,1,8,0:0:0:0:
288,128,63224,1,0,0:0:0:0:
164,104,63577,6,0,L|176:240,1,115.000002193451,0|2,0:0|0:0,0:0:0:0:
160,32,63930,1,2,0:0:0:0:
188,352,64106,1,0,0:0:0:0:
144,144,64283,1,0,0:0:0:0:
272,188,64459,1,8,0:0:0:0:
308,200,64547,1,8,0:0:0:0:
344,192,64636,1,8,0:0:0:0:
464,104,64812,1,0,0:0:0:0:
408,12,64989,6,0,P|312:28|216:20,1,172.500003290176,2|0,0:0|0:0,0:0:0:0:
192,20,65342,2,0,P|168:112|196:212,1,172.500003290176,2|0,0:0|0:0,0:0:0:0:
224,200,65695,2,0,P|312:184|416:208,1,172.500003290176,2|0,0:0|0:0,0:0:0:0:
432,220,66048,2,0,P|448:304|360:292,1,172.500003290176,2|0,0:0|0:0,0:0:0:0:
340,296,66400,5,0,0:0:0:0:
224,204,66577,1,2,0:0:0:0:
92,244,66753,1,2,0:0:0:0:
100,152,66930,1,2,0:0:0:0:
112,44,67106,2,0,L|108:96,6,28.7500005483627
188,68,67459,6,0,B|200:60|200:60|208:76|208:76|212:52|212:52|216:84|216:84|220:44|220:44|224:76|224:76|228:52|228:52|232:84|232:84|240:48|240:48|244:80|244:80|252:52|252:52|252:72|252:72|260:56|260:56|264:68|264:68|268:60|268:60|272:76|272:76|276:64,1,400,4|0,0:0|0:0,0:0:0:0:
388,216,68165,22,0,L|384:288,1,50,2|0,0:0|0:0,0:0:0:0:
392,116,68342,2,0,L|396:36,1,50
340,164,68518,2,0,L|268:160,1,50,2|0,0:0|0:0,0:0:0:0:
440,168,68695,2,0,L|520:172,1,50
340,164,68871,2,0,L|268:160,1,50,2|0,0:0|0:0,0:0:0:0:
188,156,69047,2,0,L|116:152,1,50
48,148,69224,5,2,0:0:0:0:
256,72,69400,1,0,0:0:0:0:
72,52,69577,5,2,0:0:0:0:
236,236,69753,1,0,0:0:0:0:
356,56,69930,5,2,0:0:0:0:
505,79,70106,1,0,0:0:0:0:
481,227,70283,1,0,0:0:0:0:
333,204,70459,1,8,0:0:0:0:
252,192,70547,1,8,0:0:0:0:
172,176,70636,2,0,B|104:160|104:160|52:160,1,100,2|0,0:0|0:0,0:0:0:0:
84,296,70989,5,2,0:0:0:0:
228,324,71165,1,0,0:0:0:0:
196,216,71342,5,2,0:0:0:0:
336,184,71518,1,0,0:0:0:0:
348,304,71695,37,2,0:0:0:0:
508,352,71871,1,0,0:0:0:0:
448,244,72047,6,0,P|416:196|444:140,1,100,2|0,0:0|0:0,0:0:0:0:
492,192,72312,2,0,P|440:176|380:224,1,100,2|0,0:0|0:0,0:0:0:0:
332,252,72577,2,0,B|292:280|224:280,1,100,2|0,0:0|0:0,0:0:0:0:
184,280,72842,1,8,0:0:0:0:
128,280,72930,1,8,0:0:0:0:
80,144,73106,6,0,P|72:96|32:60,2,100,0|0|2,0:0|0:0|0:0,0:0:0:0:
160,48,73812,5,2,0:0:0:0:
275,0,73988,1,0,0:0:0:0:
380,67,74165,1,2,0:0:0:0:
176,72,74341,1,0,0:0:0:0:
272,32,74518,1,2,0:0:0:0:
360,88,74695,1,0,0:0:0:0:
448,164,74871,6,0,L|516:164,1,50,2|0,0:0|0:0,0:0:0:0:
444,264,75047,2,0,L|444:324,1,50
340,264,75224,2,0,L|272:264,1,50,2|0,0:0|0:0,0:0:0:0:
340,160,75400,2,0,L|340:92,1,50
244,212,75577,2,0,L|184:212,1,50,2|0,0:0|0:0,0:0:0:0:
380,324,75753,2,0,L|444:324,1,50
148,320,75930,2,0,B|164:316|164:316|136:300|136:300|152:296|152:296|152:268|136:248|116:232|88:228,1,150,10|0,0:0|0:0,0:0:0:0:
36,220,76283,5,4,0:0:0:0:
160,84,76636,1,2,0:0:0:0:
228,272,76812,1,0,0:0:0:0:
272,88,76989,37,2,0:0:0:0:
88,200,77165,1,0,0:0:0:0:
360,144,77342,5,2,0:0:0:0:
156,184,77518,1,0,0:0:0:0:
440,252,77695,5,2,0:0:0:0:
288,120,77871,1,0,0:0:0:0:
460,92,78047,5,2,0:0:0:0:
312,252,78224,1,0,0:0:0:0:
256,64,78400,2,0,L|248:40,6,25,0|0|0|0|0|0|4,0:0|0:0|0:0|0:0|0:0|0:0|0:0,0:0:0:0:
268,104,78753,5,8,0:0:0:0:
392,208,78930,1,8,0:0:0:0:
184,160,79106,1,2,0:0:0:0:
88,292,79459,5,2,0:0:0:0:
164,248,79636,1,0,0:0:0:0:
248,256,79812,1,2,0:0:0:0:
316,308,79989,1,0,0:0:0:0:
400,320,80165,1,2,0:0:0:0:
472,272,80342,1,0,0:0:0:0:
488,184,80518,37,2,0:0:0:0:
208,232,80695,1,0,0:0:0:0:
356,56,80871,5,2,0:0:0:0:
304,296,81047,1,0,0:0:0:0:
472,96,81224,5,2,0:0:0:0:
216,296,81400,1,0,0:0:0:0:
104,36,81577,1,0,0:0:0:0:
288,144,81753,5,0,0:0:0:0:
60,180,81930,1,2,0:0:0:0:
192,296,82283,6,0,L|148:348,1,50,2|0,0:0|0:0,0:0:0:0:
151,128,82459,2,0,L|100:84,1,50
320,87,82636,2,0,L|364:36,1,50,2|0,0:0|0:0,0:0:0:0:
360,256,82812,2,0,L|412:300,1,50
124,224,82989,2,0,L|56:248,1,50,2|0,0:0|0:0,0:0:0:0:
380,156,83165,2,0,L|448:128,1,50
196,104,83342,6,0,P|140:72|68:68,1,100,2|0,0:0|0:0,0:0:0:0:
354,156,83606,2,0,P|409:123|449:63,1,100,2|0,0:0|0:0,0:0:0:0:
229,267,83871,2,0,P|229:331|261:395,1,100,2|0,0:0|0:0,0:0:0:0:
244,372,84136,1,8,0:0:0:0:
244,372,84224,1,8,0:0:0:0:
404,280,84400,37,0,0:0:0:0:
164,292,84577,1,0,0:0:0:0:
384,180,84753,1,2,0:0:0:0:
80,124,85106,5,2,0:0:0:0:
328,104,85283,1,0,0:0:0:0:
156,48,85459,5,2,0:0:0:0:
172,288,85636,1,0,0:0:0:0:
364,228,85812,5,2,0:0:0:0:
84,172,85989,1,0,0:0:0:0:
264,148,86165,6,0,P|324:136|388:96,2,100,0|0|2,0:0|0:0|0:0,0:0:0:0:
140,168,86695,2,0,P|84:180|36:208,1,100,0|2,0:0|0:0,0:0:0:0:
80,300,87047,1,0,0:0:0:0:
220,272,87224,2,0,B|224:256|224:256|236:272|236:272|280:224|376:232,1,150,10|0,0:0|0:0,0:0:0:0:
396,236,87577,5,0,0:0:0:0:
164,176,87930,37,2,0:0:0:0:
352,56,88106,1,0,0:0:0:0:
224,148,88283,5,2,0:0:0:0:
452,192,88459,1,0,0:0:0:0:
160,80,88636,5,2,0:0:0:0:
384,312,88812,1,0,0:0:0:0:
152,272,88989,5,0,0:0:0:0:
128,236,89077,1,0,0:0:0:0:
112,192,89165,1,0,0:0:0:0:
112,148,89253,1,0,0:0:0:0:
128,104,89342,1,0,0:0:0:0:
164,72,89430,1,0,0:0:0:0:
208,56,89518,1,0,0:0:0:0:
260,60,89606,1,0,0:0:0:0:
304,76,89695,2,0,P|336:96|356:120,1,50,2|0,0:0|0:0,0:0:0:0:
336,104,89783,2,0,P|352:128|360:156,1,50,2|0,0:0|0:0,0:0:0:0:
368,140,89871,2,0,P|368:164|352:188,1,50,8|0,0:0|0:0,0:0:0:0:
384,184,89959,2,0,P|360:208|328:220,1,50
376,216,90047,6,2,P|132:200|88:136,1,300,0|0,0:0|0:0,0:0:0:0:
84,132,90400,6,0,P|148:156|236:152,1,129.999994049073,2|0,0:0|0:0,0:0:0:0:
384,140,90753,1,0,0:0:0:0:
216,156,90930,1,2,0:0:0:0:
272,36,91106,37,2,0:0:0:0:
348,256,91283,1,0,0:0:0:0:
460,128,91459,5,2,0:0:0:0:
236,168,91636,1,0,0:0:0:0:
452,272,91812,6,0,P|380:264|304:300,1,129.999994049073,2|0,0:0|0:0,0:0:0:0:
224,380,92165,1,2,0:0:0:0:
326,283,92342,1,0,0:0:0:0:
388,200,92518,5,2,0:0:0:0:
172,164,92695,1,0,0:0:0:0:
444,196,92871,5,2,0:0:0:0:
124,136,93047,1,0,0:0:0:0:
460,128,93224,6,0,B|384:116|384:116|304:128,1,129.999994049073,2|0,0:0|0:0,0:0:0:0:
292,312,93577,1,2,0:0:0:0:
328,124,93753,1,0,0:0:0:0:
216,44,93930,37,2,0:0:0:0:
184,224,94106,1,0,0:0:0:0:
360,88,94283,5,2,0:0:0:0:
384,296,94459,1,0,0:0:0:0:
152,296,94636,5,2,0:0:0:0:
128,268,94724,1,2,0:0:0:0:
116,232,94812,1,2,0:0:0:0:
120,192,94900,1,2,0:0:0:0:
144,160,94989,1,2,0:0:0:0:
236,96,95165,1,0,0:0:0:0:
352,96,95342,6,4,P|392:104|448:136,2,64.9999970245363
344,284,95695,2,0,P|368:276|388:292,6,50,0|0|0|0|0|0|4,0:0|0:0|0:0|0:0|0:0|0:0|0:0,0:0:0:0:
352,280,96047,6,0,P|276:308|224:312,1,129.999994049073,2|0,0:0|0:0,0:0:0:0:
60,304,96400,1,2,0:0:0:0:
227,312,96577,1,0,0:0:0:0:
184,76,96753,5,2,0:0:0:0:
172,224,96930,1,0,0:0:0:0:
376,136,97106,37,2,0:0:0:0:
272,272,97283,1,0,0:0:0:0:
252,64,97459,6,0,B|320:80|320:80|396:64,1,129.999994049073,2|0,0:0|0:0,0:0:0:0:
264,164,97812,1,0,0:0:0:0:
396,64,97989,1,0,0:0:0:0:
72,244,98165,5,2,0:0:0:0:
304,248,98342,1,0,0:0:0:0:
136,152,98518,5,2,0:0:0:0:
304,332,98695,1,0,0:0:0:0:
372,80,98871,6,0,P|424:160|360:216,1,194.999991073609,2|0,0:0|0:0,0:0:0:0:
256,228,99224,2,0,B|208:240|124:228|60:264,1,194.999991073609,2|0,0:0|0:0,0:0:0:0:
76,352,99577,2,0,B|124:340|208:352|272:316,1,194.999991073609,2|0,0:0|0:0,0:0:0:0:
332,248,99930,2,0,P|356:156|288:72,1,194.999991073609,2|0,0:0|0:0,0:0:0:0:
144,148,100283,5,0,0:0:0:0:
248,236,100459,2,2,L|364:328,1,129.999994049073
96,108,100812,1,0,0:0:0:0:
336,104,100989,38,0,L|376:96,6,32.4999985122681,0|0|0|0|0|0|4,0:0|0:0|0:0|0:0|0:0|0:0|0:0,0:0:0:0:
392,132,101342,1,0,0:0:0:0:
436,176,101430,1,0,0:0:0:0:
460,232,101518,1,0,0:0:0:0:
468,292,101606,1,0,0:0:0:0:
464,352,101695,5,2,0:0:0:0:
384,340,102047,1,0,0:0:0:0:
308,328,102400,1,2,0:0:0:0:
232,312,102753,1,0,0:0:0:0:
220,88,103106,5,2,0:0:0:0:
136,284,103283,1,0,0:0:0:0:
316,100,103459,5,2,0:0:0:0:
328,304,103635,1,0,0:0:0:0:
144,200,103812,1,0,0:0:0:0:
396,188,103989,2,8,L|464:184,2,57.5000010967255
264,196,104342,1,0,0:0:0:0:
84,96,104518,5,2,0:0:0:0:
88,172,104871,1,0,0:0:0:0:
92,248,105224,1,2,0:0:0:0:
220,168,105400,1,0,0:0:0:0:
84,96,105577,1,0,0:0:0:0:
200,304,105753,5,2,0:0:0:0:
376,236,106106,1,0,0:0:0:0:
304,132,106283,1,0,0:0:0:0:
296,308,106459,1,0,0:0:0:0:
408,160,106636,1,8,0:0:0:0:
432,112,106724,1,8,0:0:0:0:
424,60,106812,1,8,0:0:0:0:
296,52,106989,1,4,0:0:0:0:
72,136,107342,37,2,0:0:0:0:
100,204,107695,1,0,0:0:0:0:
128,272,108047,1,2,0:0:0:0:
156,340,108400,1,0,0:0:0:0:
324,288,108753,5,2,0:0:0:0:
288,80,108930,1,0,0:0:0:0:
440,176,109106,5,2,0:0:0:0:
208,200,109283,1,0,0:0:0:0:
444,48,109459,1,0,0:0:0:0:
320,300,109636,1,8,0:0:0:0:
316,288,109724,1,8,0:0:0:0:
312,280,109812,1,8,0:0:0:0:
248,32,109989,1,4,0:0:0:0:
88,120,110165,6,0,P|85:202|116:292,1,172.500003290176,2|0,0:0|0:0,0:0:0:0:
168,180,110518,2,0,P|180:88|152:16,1,172.500003290176,2|0,0:0|0:0,0:0:0:0:
88,120,110871,6,0,P|85:202|108:292,1,172.500003290176,2|0,0:0|0:0,0:0:0:0:
168,180,111224,2,0,P|184:88|156:8,1,172.500003290176,2|0,0:0|0:0,0:0:0:0:
256,192,111577,12,6,112989,0:0:0:0:
160,72,123577,6,0,L|168:112,2,25
200,64,123753,70,0,P|296:44|408:52,1,200,0|0,0:0|0:0,0:0:0:0:
460,116,124283,38,0,B|452:168|456:216|456:216|432:172|396:136,1,200,2|0,0:0|0:0,0:0:0:0:
460,116,124989,2,0,B|480:168|456:212|456:212|408:196|396:136,1,200,2|0,0:0|0:0,0:0:0:0:
456,212,125695,1,0,0:0:0:0:
274,296,125871,1,2,0:0:0:0:
292,97,126047,1,2,0:0:0:0:
400,316,126224,37,4,0:0:0:0:
328,180,126400,1,2,0:0:0:0:
264,52,126577,1,8,0:0:0:0:
264,52,126666,1,8,0:0:0:0:
264,52,126753,2,0,B|252:44|252:44|236:52|236:52|232:72|232:72|240:88|240:88|264:96|264:96|324:80,1,150,2|0,0:0|0:0,0:0:0:0:
380,60,127106,6,0,B|432:92|432:144|432:144|432:196|472:240,1,200,2|2,0:0|0:0,0:0:0:0:
364,316,127812,1,8,0:0:0:0:
328,72,127989,1,0,0:0:0:0:
288,244,128165,1,2,0:0:0:0:
128,80,128342,5,8,0:0:0:0:
136,84,128695,1,2,0:0:0:0:
248,240,128871,1,2,0:0:0:0:
408,132,129047,1,2,0:0:0:0:
152,176,129224,1,2,0:0:0:0:
500,32,129577,1,0,0:0:0:0:
408,272,129930,6,0,L|360:284,4,50
228,308,130283,1,0,0:0:0:0:
196,128,130459,1,0,0:0:0:0:
372,100,130636,1,2,0:0:0:0:
116,296,130989,1,2,0:0:0:0:
100,188,131165,1,2,0:0:0:0:
84,84,131342,5,0,0:0:0:0:
312,200,131518,1,2,0:0:0:0:
112,232,131695,5,0,0:0:0:0:
264,28,131871,1,0,0:0:0:0:
224,304,132047,1,2,0:0:0:0:
152,96,132224,1,0,0:0:0:0:
152,96,132312,1,0,0:0:0:0:
152,96,132400,2,0,B|192:104|192:104|248:160|248:160|316:172,1,150,6|0,0:0|0:0,0:0:0:0:
312,172,132753,37,0,0:0:0:0:
116,84,133106,1,2,0:0:0:0:
348,188,133283,5,0,0:0:0:0:
84,64,133459,1,2,0:0:0:0:
136,292,133636,1,0,0:0:0:0:
332,136,133989,5,2,0:0:0:0:
456,156,134342,1,0,0:0:0:0:
368,304,134518,1,2,0:0:0:0:
200,212,134695,1,0,0:0:0:0:
252,336,134871,6,2,P|288:212|256:48,1,300,0|0,0:0|0:0,0:0:0:0:
252,52,135224,2,0,P|372:52|500:4,1,225.000008583069,2|0,0:0|0:0,0:0:0:0:
472,152,135577,6,0,L|472:208,1,44.999998626709,2|0,0:0|0:0,0:0:0:0:
424,212,135753,2,0,L|424:264,1,44.999998626709,2|0,0:0|0:0,0:0:0:0:
376,80,135930,6,0,L|324:80,1,44.999998626709,2|0,0:0|0:0,0:0:0:0:
320,132,136106,2,0,L|260:132,1,44.999998626709,2|0,0:0|0:0,0:0:0:0:
300,232,136283,38,0,L|236:232,1,44.999998626709,2|0,0:0|0:0,0:0:0:0:
328,256,136459,2,0,L|328:312,1,44.999998626709,2|0,0:0|0:0,0:0:0:0:
220,208,136636,38,0,L|148:208,1,44.999998626709,2|0,0:0|0:0,0:0:0:0:
352,336,136812,2,0,L|351:406,1,44.999998626709,2|0,0:0|0:0,0:0:0:0:
52,336,136989,6,0,P|84:264|128:332,1,179.999994506836
88,308,137518,2,0,L|60:192,1,89.9999972534181,2|0,0:0|0:0,0:0:0:0:
32,64,138047,1,4,0:0:0:0:
208,104,138400,6,0,L|208:56,1,44.999998626709,2|0,0:0|0:0,0:0:0:0:
208,184,138577,2,0,L|208:240,1,44.999998626709,2|0,0:0|0:0,0:0:0:0:
324,144,138753,38,0,L|324:96,1,44.999998626709,2|0,0:0|0:0,0:0:0:0:
324,224,138930,2,0,L|324:276,1,44.999998626709,2|0,0:0|0:0,0:0:0:0:
464,336,139106,6,0,B|420:344|372:332|320:340,1,134.999995880127,12|0,0:0|0:0,0:0:0:0:
220,352,139459,2,0,L|152:360,1,44.999998626709,2|0,0:0|0:0,0:0:0:0:
152,272,139636,2,0,L|96:276,1,44.999998626709,2|0,0:0|0:0,0:0:0:0:
96,64,139812,6,0,P|164:108|92:120,1,179.999994506836,2|0,0:0|0:0,0:0:0:0:
124,96,140342,1,0,0:0:0:0:
268,48,140518,1,8,0:0:0:0:
312,36,140606,1,8,0:0:0:0:
356,32,140694,1,8,0:0:0:0:
496,40,140871,1,2,0:0:0:0:
464,200,141224,6,0,L|464:284,3,44.999998626709,2|0|0|0,0:0|0:0|0:0|0:0,0:0:0:0:
392,280,141577,2,0,L|392:336,3,44.999998626709,2|0|0|0,0:0|0:0|0:0|0:0,0:0:0:0:
324,224,141930,2,0,L|324:168,3,44.999998626709,2|0|0|0,0:0|0:0|0:0|0:0,0:0:0:0:
264,284,142283,2,0,L|264:336,3,44.999998626709,2|0|0|0,0:0|0:0|0:0|0:0,0:0:0:0:
120,276,142636,5,2,0:0:0:0:
120,276,142724,1,0,0:0:0:0:
120,276,142812,2,0,L|68:296,1,44.999998626709,2|0,0:0|0:0,0:0:0:0:
192,196,142989,5,2,0:0:0:0:
192,196,143077,1,0,0:0:0:0:
192,196,143165,2,0,L|260:212,1,44.999998626709,2|0,0:0|0:0,0:0:0:0:
80,112,143342,37,2,0:0:0:0:
80,112,143430,1,0,0:0:0:0:
80,112,143518,2,0,L|20:132,1,44.999998626709
232,48,143695,5,2,0:0:0:0:
232,48,143783,1,0,0:0:0:0:
232,48,143871,2,0,L|296:60,1,44.999998626709
400,80,144047,5,2,0:0:0:0:
352,272,144400,1,2,0:0:0:0:
290,338,144577,1,0,0:0:0:0:
208,300,144753,1,2,0:0:0:0:
219,210,144930,1,0,0:0:0:0:
307,194,145106,1,2,0:0:0:0:
448,252,145283,5,2,0:0:0:0:
420,80,145459,1,0,0:0:0:0:
372,180,145636,5,2,0:0:0:0:
324,352,145812,1,0,0:0:0:0:
344,80,145989,1,2,0:0:0:0:
176,72,146165,6,0,L|124:72,4,50
72,168,146518,2,2,P|92:204|112:264,1,89.9999972534181,0|0,0:0|0:0,0:0:0:0:
488,288,146871,38,0,L|460:340,1,44.999998626709,2|0,0:0|0:0,0:0:0:0:
364,296,147047,2,0,L|332:348,1,44.999998626709,2|0,0:0|0:0,0:0:0:0:
248,328,147224,6,0,L|224:364,1,44.999998626709,2|0,0:0|0:0,0:0:0:0:
121,346,147400,2,0,L|94:386,1,44.999998626709,2|0,0:0|0:0,0:0:0:0:
200,244,147577,6,0,L|200:192,1,44.999998626709,2|0,0:0|0:0,0:0:0:0:
308,144,147753,2,0,L|308:96,1,44.999998626709,2|0,0:0|0:0,0:0:0:0:
428,240,147930,6,0,L|364:240,1,44.999998626709,2|0,0:0|0:0,0:0:0:0:
496,348,148106,2,0,L|432:348,1,44.999998626709,2|0,0:0|0:0,0:0:0:0:
328,348,148283,6,0,B|312:348|312:348|216:300|216:300|200:300,1,134.999995880127
92,308,148636,5,0,0:0:0:0:
76,264,148724,1,0,0:0:0:0:
72,216,148812,1,0,0:0:0:0:
84,168,148900,1,0,0:0:0:0:
112,132,148989,2,0,L|144:92,3,44.999998626709,8|0|8|0,0:0|0:0|0:0|0:0,0:0:0:0:
212,156,149342,38,0,P|260:164|316:156,1,89.9999972534181,2|0,0:0|0:0,0:0:0:0:
356,240,149695,2,0,L|424:240,1,44.999998626709,2|0,0:0|0:0,0:0:0:0:
360,112,149871,2,0,L|428:112,1,44.999998626709,2|0,0:0|0:0,0:0:0:0:
256,100,150047,6,0,L|308:116,1,44.999998626709,2|0,0:0|0:0,0:0:0:0:
252,256,150224,2,0,L|304:240,1,44.999998626709,2|0,0:0|0:0,0:0:0:0:
188,176,150400,2,0,B|144:196|92:152|48:176,1,134.999995880127,8|0,0:0|0:0,0:0:0:0:
48,232,150753,6,0,L|48:296,1,44.999998626709
48,112,150930,2,0,L|48:56,1,44.999998626709
184,64,151106,6,0,L|244:64,3,44.999998626709,2|0|0|0,0:0|0:0|0:0|0:0,0:0:0:0:
300,152,151459,2,0,L|352:152,3,44.999998626709,2|0|0|0,0:0|0:0|0:0|0:0,0:0:0:0:
212,212,151812,6,8,L|152:212,1,44.999998626709
72,272,151989,1,8,0:0:0:0:
176,316,152165,6,0,L|240:316,4,50,0|0|0|0|4,0:0|0:0|0:0|0:0|0:0,0:0:0:0:
444,212,152518,37,2,0:0:0:0:
444,212,152606,1,0,0:0:0:0:
444,212,152695,2,0,L|416:256,1,44.999998626709,2|0,0:0|0:0,0:0:0:0:
272,192,152871,5,2,0:0:0:0:
272,192,152959,1,0,0:0:0:0:
272,192,153047,2,0,L|300:236,1,44.999998626709,2|0,0:0|0:0,0:0:0:0:
504,60,153224,5,2,0:0:0:0:
504,60,153312,1,0,0:0:0:0:
504,60,153400,2,0,L|464:116,1,44.999998626709,2|0,0:0|0:0,0:0:0:0:
228,28,153577,5,2,0:0:0:0:
228,28,153665,1,0,0:0:0:0:
228,28,153753,2,0,L|260:76,1,44.999998626709,2|0,0:0|0:0,0:0:0:0:
168,160,153930,6,0,L|168:216,3,44.999998626709,2|0|0|0,0:0|0:0|0:0|0:0,0:0:0:0:
296,204,154283,2,0,L|344:204,3,44.999998626709,2|0|0|0,0:0|0:0|0:0|0:0,0:0:0:0:
296,324,154636,2,0,L|296:400,3,44.999998626709,2|0|0|0,0:0|0:0|0:0|0:0,0:0:0:0:
164,324,154989,2,0,L|116:324,3,44.999998626709,2|0|0|0,0:0|0:0|0:0|0:0,0:0:0:0:
168,205,155342,5,2,0:0:0:0:
312,120,155695,1,0,0:0:0:0:
388,332,155871,1,0,0:0:0:0:
392,96,156047,37,2,0:0:0:0:
296,316,156224,2,0,L|276:364,2,44.999998626709
220,248,156577,1,0,0:0:0:0:
96,168,156753,6,0,P|152:152|224:160,1,89.9999972534181,2|0,0:0|0:0,0:0:0:0:
300,152,157106,1,0,0:0:0:0:
96,168,157283,1,0,0:0:0:0:
96,304,157459,6,0,P|104:284|156:256,1,50
136,308,157547,2,0,P|168:288|204:288,1,50
176,320,157636,1,0,0:0:0:0:
376,332,157812,2,4,B|412:336|420:288,3,44.999998626709
432,236,158165,6,0,B|440:168|440:168|416:120,1,94.9999974632264,4|0,0:0|0:0,0:0:0:0:
380,48,158518,1,0,0:0:0:0:
320,200,158695,1,0,0:0:0:0:
260,48,158871,5,2,0:0:0:0:
104,44,159047,1,0,0:0:0:0:
128,204,159224,2,0,B|200:196|200:196|240:168,1,94.9999974632264
356,120,159577,6,0,P|396:200|420:116,1,189.999994926453,0|2,0:0|0:0,0:0:0:0:
392,152,160106,2,0,L|356:276,1,94.9999974632264,2|0,0:0|0:0,0:0:0:0:
336,364,160636,1,0,0:0:0:0:
64,192,160989,37,2,0:0:0:0:
144,112,161165,1,0,0:0:0:0:
152,280,161342,1,2,0:0:0:0:
240,184,161518,1,0,0:0:0:0:
316,80,161695,6,0,P|364:120|320:244,1,189.999994926453,8|0,0:0|0:0,0:0:0:0:
252,320,162224,1,0,0:0:0:0:
132,252,162400,2,0,B|80:240|80:240|8:252,1,94.9999974632264,2|0,0:0|0:0,0:0:0:0:
100,156,162753,2,0,B|152:164|152:164|208:156,1,94.9999974632264,2|0,0:0|0:0,0:0:0:0:
340,136,163106,6,4,L|396:124,2,47.4999987316132
440,236,163459,2,0,L|272:256,1,142.49999619484,8|0,0:0|0:0,0:0:0:0:
216,268,163812,6,0,L|204:184,3,47.4999987316132,2|0|0|0,0:0|0:0|0:0|0:0,0:0:0:0:
64,212,164165,2,0,L|80:140,3,47.4999987316132,2|0|0|0,0:0|0:0|0:0|0:0,0:0:0:0:
256,116,164518,6,0,L|236:52,3,47.4999987316132,2|0|0|0,0:0|0:0|0:0|0:0,0:0:0:0:
40,80,164871,2,0,L|68:20,3,47.4999987316132,2|0|0|0,0:0|0:0|0:0|0:0,0:0:0:0:
64,140,165224,5,0,0:0:0:0:
76,168,165312,1,0,0:0:0:0:
100,192,165400,1,0,0:0:0:0:
124,208,165489,1,0,0:0:0:0:
156,216,165577,2,0,P|184:220|220:212,3,47.4999987316132,2|0|0|0,0:0|0:0|0:0|0:0,0:0:0:0:
232,248,165930,37,0,0:0:0:0:
220,276,166018,1,0,0:0:0:0:
196,300,166106,1,0,0:0:0:0:
172,316,166195,1,0,0:0:0:0:
140,324,166283,2,0,P|112:328|76:320,3,47.4999987316132,2|0|0|0,0:0|0:0|0:0|0:0,0:0:0:0:
28,312,166636,5,0,0:0:0:0:
264,208,166989,1,0,0:0:0:0:
282,55,167165,1,0,0:0:0:0:
177,167,167342,1,0,0:0:0:0:
328,138,167519,1,0,0:0:0:0:
189,73,167695,1,2,0:0:0:0:
72,136,167871,5,10,0:0:0:0:
268,272,168047,1,8,0:0:0:0:
252,68,168224,1,0,0:0:0:0:
104,280,168400,5,2,0:0:0:0:
352,168,168577,1,0,0:0:0:0:
172,80,168753,6,0,L|144:28,4,50
292,48,169106,1,0,0:0:0:0:
284,120,169195,1,0,0:0:0:0:
284,192,169283,1,0,0:0:0:0:
292,264,169371,1,0,0:0:0:0:
300,336,169459,6,0,P|352:344|416:344,1,94.9999974632264,2|0,0:0|0:0,0:0:0:0:
200,328,169812,2,2,P|148:316|96:320,1,94.9999974632264
68,240,170165,37,0,0:0:0:0:
184,244,170342,1,0,0:0:0:0:
272,180,170518,5,8,0:0:0:0:
396,192,170695,1,8,0:0:0:0:
488,104,170871,2,0,P|448:72|392:68,1,94.9999974632264
240,64,171224,6,0,L|184:64,3,47.4999987316132
80,176,171577,2,0,L|136:176,3,47.4999987316132,2|0|2|0,0:0|0:0|0:0|0:0,0:0:0:0:
264,232,171930,1,8,0:0:0:0:
408,144,172283,6,0,P|392:80|356:24,1,94.9999974632264,2|0,0:0|0:0,0:0:0:0:
408,264,172636,2,0,P|424:320|456:360,1,94.9999974632264
304,328,172989,2,0,P|208:288|104:300,1,189.999994926453,4|0,0:0|0:0,0:0:0:0:
300,224,173518,1,0,0:0:0:0:
84,48,173695,5,0,0:0:0:0:
128,88,173783,1,0,0:0:0:0:
168,128,173871,1,0,0:0:0:0:
192,176,173959,1,0,0:0:0:0:
224,132,174047,5,2,0:0:0:0:
276,152,174136,1,0,0:0:0:0:
276,208,174224,1,0,0:0:0:0:
220,224,174312,1,0,0:0:0:0:
164,224,174400,38,0,L|136:272,2,47.4999987316132
60,244,174753,6,0,P|132:272|224:280,1,142.49999619484,2|0,0:0|0:0,0:0:0:0:
272,284,175106,5,0,0:0:0:0:
320,280,175195,1,0,0:0:0:0:
368,272,175283,1,0,0:0:0:0:
412,248,175371,1,0,0:0:0:0:
440,204,175459,2,0,P|440:176|460:152,3,47.4999987316132,2|0|2|0,0:0|0:0|0:0|0:0,0:0:0:0:
400,96,175812,5,0,0:0:0:0:
356,124,175901,1,0,0:0:0:0:
304,136,175989,1,0,0:0:0:0:
252,128,176077,1,0,0:0:0:0:
208,104,176165,2,0,P|180:116|148:80,3,47.4999987316132,2|0|0|0,0:0|0:0|0:0|0:0,0:0:0:0:
64,136,176518,5,0,0:0:0:0:
76,168,176606,1,0,0:0:0:0:
88,196,176695,2,0,L|108:252,1,47.4999987316132,2|0,0:0|0:0,0:0:0:0:
172,172,176871,5,0,0:0:0:0:
160,140,176959,1,0,0:0:0:0:
148,112,177048,2,0,L|128:56,1,47.4999987316132,2|0,0:0|0:0,0:0:0:0:
232,84,177224,37,0,0:0:0:0:
244,116,177312,1,0,0:0:0:0:
256,144,177401,2,0,L|276:200,1,47.4999987316132,8|0,0:0|0:0,0:0:0:0:
196,252,177577,37,0,0:0:0:0:
244,268,177665,1,0,0:0:0:0:
292,284,177753,2,0,L|348:300,2,47.4999987316132,8|0|0,0:0|0:0|0:0,0:0:0:0:
416,212,178283,6,0,P|360:212|304:184,1,94.9999974632264
404,32,178636,2,2,P|384:80|380:136,2,94.9999974632264
100,140,179342,6,0,L|180:136,1,47.4999987316132,2|0,0:0|0:0,0:0:0:0:
324,156,179518,2,0,L|272:160,1,47.4999987316132,2|0,0:0|0:0,0:0:0:0:
100,140,179695,38,0,L|180:152,1,47.4999987316132,2|0,0:0|0:0,0:0:0:0:
324,156,179871,2,0,L|272:144,1,47.4999987316132,2|0,0:0|0:0,0:0:0:0:
52,132,180047,6,0,L|0:120,1,47.4999987316132,2|0,0:0|0:0,0:0:0:0:
372,164,180224,2,0,L|428:176,1,47.4999987316132,2|0,0:0|0:0,0:0:0:0:
52,132,180400,6,0,L|128:148,1,47.4999987316132,2|0,0:0|0:0,0:0:0:0:
372,164,180577,2,0,L|320:152,1,47.4999987316132,2|0,0:0|0:0,0:0:0:0:
160,184,180753,5,14,0:0:0:0:
104,112,186400,6,0,P|180:224|192:224,1,150,2|0,0:0|0:0,0:0:0:0:
288,240,186753,6,0,L|232:232,1,50,2|0,0:0|0:0,0:0:0:0:
400,312,186930,2,8,L|328:304,1,50
316,160,187106,38,0,L|260:152,1,50,2|0,0:0|0:0,0:0:0:0:
428,232,187283,2,8,L|356:224,1,50
340,80,187459,6,0,L|284:72,1,50,2|0,0:0|0:0,0:0:0:0:
452,152,187636,2,8,L|380:144,1,50
204,128,187812,5,2,0:0:0:0:
460,304,187989,1,0,0:0:0:0:
164,236,188165,37,2,0:0:0:0:
436,208,188342,1,0,0:0:0:0:
184,172,188518,37,2,0:0:0:0:
296,304,188695,1,0,0:0:0:0:
116,288,188871,2,0,B|104:272|104:272|96:288|96:288|104:216|64:148,1,150,6|0,0:0|0:0,0:0:0:0:
68,144,189224,5,0,0:0:0:0:
264,172,189577,2,0,L|336:180,1,50,2|0,0:0|0:0,0:0:0:0:
340,100,189753,2,0,L|416:112,1,50
248,264,189930,6,0,L|236:336,1,50,2|0,0:0|0:0,0:0:0:0:
272,88,190106,2,0,L|280:16,1,50
136,300,190283,6,0,L|128:372,1,50,2|0,0:0|0:0,0:0:0:0:
160,124,190459,2,0,L|172:52,1,50
48,200,190636,5,8,0:0:0:0:
304,216,190812,1,2,0:0:0:0:
72,96,190989,1,2,0:0:0:0:
248,316,191165,1,8,0:0:0:0:
212,112,191342,2,0,L|208:88,4,25,0|0|0|0|4,0:0|0:0|0:0|0:0|0:0,0:0:0:0:
356,100,191695,6,0,P|376:140|380:228,1,100,8|0,0:0|0:0,0:0:0:0:
336,328,192047,1,2,0:0:0:0:
148,264,192400,37,2,0:0:0:0:
304,224,192577,1,0,0:0:0:0:
76,212,192753,5,2,0:0:0:0:
272,120,192930,1,0,0:0:0:0:
12,160,193106,5,2,0:0:0:0:
208,24,193283,1,0,0:0:0:0:
156,212,193459,5,2,0:0:0:0:
220,348,193636,1,0,0:0:0:0:
240,132,193812,5,2,0:0:0:0:
376,308,193989,1,0,0:0:0:0:
364,72,194165,5,2,0:0:0:0:
232,276,194342,1,0,0:0:0:0:
136,132,194695,37,8,0:0:0:0:
136,132,194783,1,8,0:0:0:0:
136,132,194871,2,0,P|192:136|264:184,1,100,2|0,0:0|0:0,0:0:0:0:
396,204,195224,5,2,0:0:0:0:
180,264,195400,1,0,0:0:0:0:
448,308,195577,5,2,0:0:0:0:
208,164,195753,1,0,0:0:0:0:
152,356,195930,5,2,0:0:0:0:
436,156,196106,1,0,0:0:0:0:
328,64,196283,6,0,P|272:84|220:80,1,100,2|0,0:0|0:0,0:0:0:0:
148,80,196547,2,0,P|124:80|96:152,1,100,2|0,0:0|0:0,0:0:0:0:
108,224,196812,2,0,P|117:245|194:242,1,100,2|0,0:0|0:0,0:0:0:0:
224,224,197077,1,8,0:0:0:0:
272,212,197165,1,8,0:0:0:0:
376,176,197342,5,0,0:0:0:0:
296,328,197518,1,0,0:0:0:0:
196,188,197695,1,2,0:0:0:0:
88,68,198047,37,2,0:0:0:0:
376,96,198224,1,8,0:0:0:0:
96,68,198400,5,2,0:0:0:0:
368,96,198577,1,8,0:0:0:0:
108,68,198753,5,2,0:0:0:0:
356,96,198930,1,8,0:0:0:0:
140,68,199106,5,2,0:0:0:0:
404,240,199283,1,8,0:0:0:0:
324,96,199459,5,2,0:0:0:0:
152,292,199636,1,8,0:0:0:0:
228,64,199812,5,2,0:0:0:0:
240,320,199989,1,8,0:0:0:0:
296,180,200165,2,0,B|296:168|296:168|308:184|308:184|328:136|404:104,1,150,6|0,0:0|0:0,0:0:0:0:
440,92,200518,37,2,0:0:0:0:
432,276,200871,1,0,0:0:0:0:
276,216,201047,1,0,0:0:0:0:
136,272,201224,2,0,B|80:296|80:296|32:296,1,100,2|0,0:0|0:0,0:0:0:0:
40,180,201577,2,0,B|40:120|40:120|72:92,1,100,2|0,0:0|0:0,0:0:0:0:
192,72,201930,5,0,0:0:0:0:
232,64,202018,1,0,0:0:0:0:
272,56,202106,1,0,0:0:0:0:
312,48,202195,1,0,0:0:0:0:
352,36,202283,1,0,0:0:0:0:
344,80,202371,1,0,0:0:0:0:
336,124,202459,1,0,0:0:0:0:
324,168,202547,1,0,0:0:0:0:
312,212,202636,2,0,L|296:264,1,50,2|0,0:0|0:0,0:0:0:0:
296,256,202724,2,0,L|368:248,1,50,2|0,0:0|0:0,0:0:0:0:
340,248,202812,2,0,L|300:200,1,50,4|0,0:0|0:0,0:0:0:0:
384,240,202900,1,0,0:0:0:0:
424,232,202989,6,0,P|320:88|176:136,1,300
180,124,203342,6,0,P|156:164|152:284,1,129.999994049073,2|0,0:0|0:0,0:0:0:0:
332,296,203695,2,0,L|352:228,2,64.9999970245363
428,256,204047,5,8,0:0:0:0:
200,284,204224,1,0,0:0:0:0:
428,256,204400,5,8,0:0:0:0:
200,92,204577,1,0,0:0:0:0:
380,48,204753,38,0,P|404:88|408:208,1,129.999994049073,2|0,0:0|0:0,0:0:0:0:
228,220,205106,2,0,L|208:152,2,64.9999970245363
280,72,205459,5,8,0:0:0:0:
336,304,205636,1,0,0:0:0:0:
268,32,205812,5,8,0:0:0:0:
344,347,205989,1,0,0:0:0:0:
204,196,206165,6,0,B|152:235|152:235|49:245,1,129.999994049073,2|0,0:0|0:0,0:0:0:0:
12,69,206518,2,0,B|47:60|47:60|76:39,2,64.9999970245363
184,108,206871,5,8,0:0:0:0:
440,156,207047,1,0,0:0:0:0:
168,200,207224,5,8,0:0:0:0:
440,156,207400,1,0,0:0:0:0:
420,256,207577,37,2,0:0:0:0:
368,268,207665,1,2,0:0:0:0:
316,280,207753,1,2,0:0:0:0:
264,296,207842,1,2,0:0:0:0:
212,312,207930,1,2,0:0:0:0:
112,232,208106,1,0,0:0:0:0:
264,196,208283,2,8,L|336:176,2,64.9999970245363
160,104,208636,6,0,L|152:48,6,50,0|0|0|0|0|0|4,0:0|0:0|0:0|0:0|0:0|0:0|0:0,0:0:0:0:
160,56,208989,2,0,P|232:72|308:68,1,129.999994049073,2|0,0:0|0:0,0:0:0:0:
368,152,209342,2,0,L|356:224,2,64.9999970245363
208,152,209695,5,8,0:0:0:0:
428,240,209871,1,0,0:0:0:0:
216,160,210047,5,8,0:0:0:0:
472,36,210224,1,0,0:0:0:0:
364,236,210400,6,2,B|328:280|320:336|320:336|288:312,1,129.999994049073,8|0,0:0|0:0,0:0:0:0:
192,260,210753,2,0,L|132:228,2,64.9999970245363
256,32,211106,5,8,0:0:0:0:
304,320,211283,1,0,0:0:0:0:
136,92,211459,37,8,0:0:0:0:
176,292,211636,1,0,0:0:0:0:
84,188,211812,6,0,B|184:208|184:208|296:192,1,194.999991073609,10|0,0:0|0:0,0:0:0:0:
292,120,212165,2,0,B|192:100|192:100|80:116,1,194.999991073609,10|0,0:0|0:0,0:0:0:0:
84,188,212518,2,0,P|184:208|296:192,1,194.999991073609,6|0,0:0|0:0,0:0:0:0:
292,120,212871,2,0,P|192:100|80:116,1,194.999991073609,6|0,0:0|0:0,0:0:0:0:
84,188,213224,5,12,0:0:0:0:
236,280,213400,2,0,B|304:312|304:312|396:280,1,129.999994049073,2|2,0:0|0:0,0:0:0:0:
500,228,213753,1,8,0:0:0:0:
448,88,213930,6,0,L|440:56,6,32.4999985122681,0|0|0|0|0|0|4,0:0|0:0|0:0|0:0|0:0|0:0|0:0,0:0:0:0:
392,88,214283,1,0,0:0:0:0:
328,84,214371,1,0,0:0:0:0:
264,72,214459,1,0,0:0:0:0:
200,56,214547,1,0,0:0:0:0:
144,28,214636,5,0,0:0:0:0:
112,116,214989,1,2,0:0:0:0:
128,208,215342,1,0,0:0:0:0:
200,264,215695,1,2,0:0:0:0:
304,304,216047,5,0,0:0:0:0:
348,68,216224,1,0,0:0:0:0:
392,348,216400,1,2,0:0:0:0:
436,64,216577,37,0,0:0:0:0:
248,176,216753,1,4,0:0:0:0:
392,348,216930,1,8,0:0:0:0:
392,348,217018,1,8,0:0:0:0:
392,348,217106,1,8,0:0:0:0:
396,140,217283,1,0,0:0:0:0:
256,56,217459,5,2,0:0:0:0:
176,100,217812,1,0,0:0:0:0:
132,180,218165,5,4,0:0:0:0:
208,332,218342,1,0,0:0:0:0:
288,180,218518,1,2,0:0:0:0:
76,280,218695,5,4,0:0:0:0:
240,244,218871,1,0,0:0:0:0:
392,296,219047,1,2,0:0:0:0:
424,212,219224,1,0,0:0:0:0:
424,124,219400,1,0,0:0:0:0:
380,48,219577,2,8,P|352:28|316:20,2,62.5
320,112,219930,6,0,P|220:96|116:128,1,187.5,2|0,0:0|0:0,0:0:0:0:
96,136,220283,5,0,0:0:0:0:
136,212,220636,1,2,0:0:0:0:
88,288,220989,1,0,0:0:0:0:
132,360,221342,1,2,0:0:0:0:
256,324,221695,37,8,0:0:0:0:
312,96,221871,1,0,0:0:0:0:
372,324,222047,1,2,0:0:0:0:
180,188,222224,5,8,0:0:0:0:
416,96,222400,1,8,0:0:0:0:
312,320,222577,1,4,0:0:0:0:
312,320,222665,1,4,0:0:0:0:
312,320,222753,1,4,0:0:0:0:
268,96,222930,1,0,0:0:0:0:
176,68,223106,6,0,B|112:112|112:112|88:80|88:80|52:104|52:104|76:136,1,187.5,2|0,0:0|0:0,0:0:0:0:
112,192,223459,2,0,B|127:213|127:213|91:237|91:237|67:205|67:205|3:249,1,187.5,2|0,0:0|0:0,0:0:0:0:
48,328,223812,2,0,L|260:328,1,187.5,2|0,0:0|0:0,0:0:0:0:
464,328,224165,2,0,L|252:328,1,187.5,2|0,0:0|0:0,0:0:0:0:
212,328,224518,5,0,0:0:0:0:
288,96,224695,1,2,0:0:0:0:
352,184,224871,5,2,0:0:0:0:
152,168,225047,1,2,0:0:0:0:
240,276,225224,6,4,L|276:312,4,50
56,336,225577,2,0,B|76:288|56:232|56:232|36:184|64:136,1,187.5
72,88,225930,38,0,B|116:88|116:88|116:44|116:44|160:44|160:44|160:88|160:88|204:88|204:88|204:136|204:136|252:136|252:136|252:80,1,359.999989013672,2|0,0:0|0:0,0:0:0:0:
324,24,226636,2,0,B|324:180|324:180|296:180|296:180|296:208|296:208|132:208,1,359.999989013672,2|0,0:0|0:0,0:0:0:0:
36,208,227342,2,0,B|36:52|36:52|64:52|64:52|64:24|64:24|228:24,1,359.999989013672,2|0,0:0|0:0,0:0:0:0:
324,24,228047,53,4,0:0:0:0:
408,24,228224,2,0,L|408:64,1,29.9999990844727,2|0,0:0|0:0,0:0:0:0:
408,96,228312,2,0,L|408:136,1,29.9999990844727,2|0,0:0|0:0,0:0:0:0:
408,172,228400,2,0,L|408:244,1,59.9999981689454,2|0,0:0|0:0,0:0:0:0:
408,332,228753,54,0,B|352:332|352:332|352:316|352:316|336:316|336:316|336:332|336:332|299:331|299:331|300:352|300:352|280:352|280:352|280:332|280:332|232:332|232:332|232:308|232:308|208:308|208:308|208:332|208:332|116:332,1,359.999989013672,2|0,0:0|0:0,0:0:0:0:
84,332,229459,2,0,B|60:332|60:332|60:308|60:308|84:308|84:308|84:279|84:279|112:280|112:280|112:256|112:256|136:256|136:256|136:232|136:232|236:232|236:232|236:212|236:212|256:212|256:212|256:232,1,359.999989013672,2|0,0:0|0:0,0:0:0:0:
256,132,230165,2,0,B|256:36|256:36|248:36|248:36|248:20|248:20|264:20|264:20|264:28|264:28|352:28,1,179.999994506836,2|0,0:0|0:0,0:0:0:0:
384,28,230518,54,0,L|444:28,1,59.9999981689454,10|0,0:0|0:0,0:0:0:0:
384,112,230695,2,0,L|456:112,1,59.9999981689454,10|0,0:0|0:0,0:0:0:0:
384,192,230871,2,0,B|384:232|384:232|424:232|424:232|424:304,2,119.999996337891,0|0|2,0:0|0:0|0:0,0:0:0:0:
304,68,231577,54,0,L|304:220,1,119.999996337891,2|0,0:0|0:0,0:0:0:0:
304,296,231930,2,2,L|304:360,1,59.9999981689454,10|0,0:0|0:0,0:0:0:0:
200,296,232106,2,0,L|200:368,1,59.9999981689454,10|0,0:0|0:0,0:0:0:0:
100,292,232283,54,0,B|100:240|100:240|96:240|96:240|96:236|96:236|100:236|100:236|100:160|100:160|140:160|140:160|140:156|140:156|144:156|144:156|144:160|144:160|208:160|208:160|208:136|208:136|232:136|232:136|232:160|232:160|264:160,1,359.999989013672,2|0,0:0|0:0,0:0:0:0:
368,160,232989,2,0,B|456:160|456:160|456:72|456:72|376:72|376:72|376:48|376:48|352:48|352:48|352:72|352:72|272:72,1,359.999989013672,2|0,0:0|0:0,0:0:0:0:
200,72,233695,2,0,B|124:72|124:72|124:80|124:80|116:80|116:80|116:156|116:156|124:156|124:156|124:164|124:164|200:164|200:164|200:172|200:172|208:172|208:172|208:264,1,359.999989013672,2|0,0:0|0:0,0:0:0:0:
208,344,234400,54,0,B|312:344|312:344|312:308|312:308|348:308|348:308|348:344|348:344|456:344|456:344|456:252,1,359.999989013672,2|0,0:0|0:0,0:0:0:0:
456,212,235106,2,0,B|456:100|456:100|444:100|444:100|444:88|444:88|352:88|352:88|340:88|340:88|340:100|340:100|340:112|340:112|352:112|352:112|352:124|352:124|340:124|340:124|328:124|328:124|328:112|328:112|328:88|328:88|276:88,1,359.999989013672,2|0,0:0|0:0,0:0:0:0:
224,88,235812,2,0,B|168:88|168:88|168:84|168:84|164:84|164:84|164:88|164:88|160:88|160:88|160:140|160:140|108:140|108:140|108:88|108:88|32:88|32:88|32:172,1,359.999989013672,2|0,0:0|0:0,0:0:0:0:
32,264,236518,1,0,0:0:0:0:
132,264,236695,1,0,0:0:0:0:
232,264,236871,2,0,B|232:232|232:232|264:232,1,59.9999981689454,2|0,0:0|0:0,0:0:0:0:
232,360,237047,2,0,B|196:360|196:360|196:328,1,59.9999981689454,2|0,0:0|0:0,0:0:0:0:
196,168,237224,22,0,B|196:64|196:64|236:64|236:64|272:64|272:64|272:60|272:60|276:60|276:60|276:104|276:104|336:104,1,269.999991760254,2|0,0:0|0:0,0:0:0:0:
400,104,237930,2,0,B|404:104|404:104|404:80|404:80|448:80|448:80|448:188|448:188|444:188|444:188|444:192|444:192|448:192|448:192|448:288,1,269.999991760254,2|0,0:0|0:0,0:0:0:0:
448,340,238636,2,0,B|268:340|268:340|268:336|268:336|264:336|264:336|264:340|264:340|172:340,1,269.999991760254,2|0,0:0|0:0,0:0:0:0:
68,336,239342,85,0,0:0:0:0:
68,248,239518,2,0,L|68:208,1,22.4999993133545,2|0,0:0|0:0,0:0:0:0:
68,216,239606,2,0,L|68:176,1,22.4999993133545,2|0,0:0|0:0,0:0:0:0:
68,180,239695,2,0,L|68:120,1,44.999998626709,2|0,0:0|0:0,0:0:0:0:
68,52,240047,22,0,B|244:52|244:52|244:48|244:48|248:48|248:48|248:52|248:52|344:52,1,269.999991760254,2|0,0:0|0:0,0:0:0:0:
424,52,240753,2,0,B|424:140|424:140|336:140|336:140|336:136|336:136|332:136|332:136|332:140|332:140|232:140,1,269.999991760254,2|0,0:0|0:0,0:0:0:0:
160,140,241459,2,0,B|92:140|92:140|92:216,1,134.999995880127,2|0,0:0|0:0,0:0:0:0:
92,272,241812,2,0,L|92:332,1,44.999998626709,10|0,0:0|0:0,0:0:0:0:
176,272,241989,2,0,L|176:332,1,44.999998626709,10|0,0:0|0:0,0:0:0:0:
256,272,242165,1,0,0:0:0:0:
284,272,242342,1,0,0:0:0:0:
312,272,242518,1,0,0:0:0:0:
392,156,242871,86,0,B|392:264|392:264|380:264|380:264|380:276|380:276|312:276|312:276|312:264|312:264|300:264|300:264|300:164,1,300,2|0,0:0|0:0,0:0:0:0:
300,108,243607,2,0,B|300:32|300:32|288:32|288:32|288:20|288:20|220:20|220:20|220:32|220:32|208:32|208:32|208:140,1,300,2|0,0:0|0:0,0:0:0:0:
208,244,244343,2,0,B|208:304|208:304|196:304|196:304|196:316|196:316|416:316,1,300,6|0,0:0|0:0,0:0:0:0:
424,244,245153,2,0,B|424:184|424:184|436:184|436:184|436:172|436:172|216:172,1,300,6|0,0:0|0:0,0:0:0:0:
112,172,245964,102,0,B|84:152|52:100|76:36|132:24|156:68|156:68|180:24|244:28|272:104|228:156|192:172|192:208|184:228|184:256|172:296|172:296|164:320|152:336|128:344|104:340|80:328|64:312|56:284|68:256|84:240|104:232|136:232|160:248|192:272|192:272|216:292|264:296|304:276|344:272|344:272|388:264|448:280|472:328|440:384|356:396|312:356|300:304|316:256|335:220|335:220|364:176|408:192|408:192|448:212|480:216|500:208|520:188|528:160|520:128|504:112|444:128|444:128|484:104|492:56|464:4|420:0|408:28|408:28|396:0|356:8|324:52|336:104|380:128,1,1979.9999395752,14|0,0:0|0:0,0:0:0:0:
256,192,249864,12,0,252191,0:0:0:0:
