osu file format v14

[General]
AudioFilename: audio.mp3
AudioLeadIn: 0
PreviewTime: 45136
Countdown: 0
SampleSet: Normal
StackLeniency: 0.7
Mode: 0
LetterboxInBreaks: 0
WidescreenStoryboard: 1

[Editor]
Bookmarks: 22636,45248,67836,90425,113013,135601,158189,180777,203366,225954,252072
DistanceSpacing: 0.6
BeatDivisor: 16
GridSize: 4
TimelineZoom: 1.6

[Metadata]
Title:Hopes and Dreams and a Cup of Latte
TitleUnicode:Hopes and Dreams and a Cup of Latte
Artist:Tenkitsune
ArtistUnicode:Tenkitsune
Creator:-AsrieLx-
Version:A Soothing Collaboration
Source:
Tags:Video Game UnderTale Asriel Remix ItsSurreal Ambrew Lazy Cat Soup KittytheGreat Jyu Saltssaumure -AsrieLx- PiWipi Elias- Birkis Crypthesis Electronic
BeatmapID:1313188
BeatmapSetID:622996

[Difficulty]
HPDrainRate:7
CircleSize:4.4
OverallDifficulty:6
ApproachRate:9
SliderMultiplier:1.5
SliderTickRate:1

[Events]
//Background and Video events
0,0,"Cup of Latte.jpg",0,0
//Break Periods
//Storyboard Layer 0 (Background)
//Storyboard Layer 1 (Fail)
//Storyboard Layer 2 (Pass)
//Storyboard Layer 3 (Foreground)
Sprite,Foreground,Centre,"SB\Itssurreal.png",320,240 M,0,48,224,202.1699,397.1068,289.8411,397.1068 F,0,48,224,0,1 M,0,224,400,289.8411,397.1068,377.5123,397.1068 F,0,224,22283,1 F,0,22283,22636,1,0.02860245
Sprite,Foreground,Centre,"SB\-Asrielx-.png",320,240 F,0,22636,22812,0,1 M,0,22636,22989,402.7617,119.3644,402.7617,399.9123 F,0,22812,44871,1 F,0,44871,45224,1,0
Sprite,Foreground,Centre,"SB\Jyu.png",320,240 F,0,45224,45400,0,1 M,0,45224,45577,507.2658,403.4192,134.8384,403.4192 F,0,45400,45577,1 F,0,45577,67459,1 F,0,67459,67812,1,0
Sprite,Foreground,Centre,"SB\Ambrew.png",320,240 F,0,67812,67989,0,1 M,0,67812,68165,192.3507,94.11506,192.3507,407.6274 F,0,67989,68165,1 F,0,68165,90047,1 F,0,90047,90400,1,0
Sprite,Foreground,Centre,"SB\Lazy Cat Soup.png",320,240 F,0,90400,90577,0,1 M,0,90400,90753,320,390.0931,320,110.2466 F,0,90577,90753,1 F,0,90753,112636,1 F,0,112636,112989,1,0
Sprite,Foreground,Centre,"SB\Kittythegreat.png",320,240 F,0,180753,180930,0,1 M,0,180753,181106,320,113.0521,320,395.0027 F,0,180930,181106,1 F,0,181106,202989,1 F,0,202989,203342,1,0
Sprite,Foreground,Centre,"SB\Birkis.png",320,240 F,0,203342,203518,0,1 M,0,203342,203695,446.948,404.1206,446.948,115.1562 F,0,203518,203695,1 M,0,203695,225577,446.948,115.1562 F,0,203695,225577,1 M,0,225577,225930,446.948,115.1562 F,0,225577,225930,1,0
Sprite,Foreground,Centre,"SB\Saltssaumure.png",320,240 F,0,225930,226106,0,1 M,0,225930,226283,806.7507,409.7315,293.348,409.7315 F,0,226106,226283,1 F,0,226283,249864,1 F,0,249864,252192,1,0
Sprite,Foreground,Centre,"SB\Piwipi.png",320,240 F,0,112989,113165,0,1 M,0,112989,113342,160.789,425.1616,160.789,93.41369 F,0,113165,113342,1 F,0,113342,135224,1 F,0,135224,135577,1,0
Sprite,Foreground,Centre,"SB\Elias-.png",320,240 F,0,135577,135753,0,1 M,0,135577,135930,460.274,103.2329,460.274,416.0438 F,0,135753,135930,1 F,0,135930,157812,1 F,0,157812,158165,1,0
Sprite,Foreground,Centre,"SB\Crypthesis.png",320,240 F,0,158165,158342,0,1 M,0,158165,158518,757.6548,415.3425,260.3837,415.3425 F,0,158342,158518,1 F,0,158518,180400,1 F,0,180400,180753,1,0
//Storyboard Sound Samples

[TimingPoints]
48,352.941176470588,4,1,2,100,1,0
22989,-133.333333333333,4,1,2,100,0,0
23695,-100,4,1,2,100,0,0
24753,-133.333333333333,4,1,2,100,0,0
25812,-100,4,1,2,100,0,0
30753,-166.666666666667,4,1,2,100,0,0
31459,-100,4,1,2,100,0,0
35342,-133.333333333333,4,1,2,100,0,0
35606,-100,4,1,2,100,0,0
40989,-133.333333333333,4,1,2,100,0,0
41342,-100,4,1,2,100,0,0
67459,-200,4,1,2,100,0,0
67812,-133.333333333333,4,1,2,60,0,0
68077,-133.333333333333,4,1,2,5,0,0
68165,-100,4,1,2,60,0,0
70636,-133.333333333333,4,1,2,60,0,0
70900,-133.333333333333,4,1,2,5,0,0
70989,-100,4,1,2,60,0,0
72047,-76.9230769230769,4,1,2,60,0,0
72224,-76.9230769230769,4,1,2,5,0,0
72312,-76.9230769230769,4,1,2,60,0,0
72489,-76.9230769230769,4,1,2,5,0,0
72577,-76.9230769230769,4,1,2,60,0,0
73106,-100,4,1,2,60,0,0
73459,-76.9230769230769,4,1,2,60,0,0
73724,-76.9230769230769,4,1,2,5,0,0
73812,-100,4,1,2,60,0,0
77695,-76.9230769230769,4,1,2,60,0,0
78753,-66.6666666666667,4,1,2,60,0,0
79018,-66.6666666666667,4,1,2,5,0,0
79106,-71.4285714285714,4,1,2,60,0,0
79371,-71.4285714285714,4,1,2,5,0,0
79459,-100,4,1,2,60,0,0
81930,-133.333333333333,4,1,2,60,0,0
82195,-133.333333333333,4,1,2,5,0,0
82283,-100,4,1,2,60,0,0
83342,-76.9230769230769,4,1,2,60,0,0
83518,-76.9230769230769,4,1,2,5,0,0
83606,-76.9230769230769,4,1,2,60,0,0
83783,-76.9230769230769,4,1,2,5,0,0
83871,-76.9230769230769,4,1,2,60,0,0
88636,-100,4,1,2,60,0,0
89695,-76.9230769230769,4,1,2,60,0,0
90047,-58.8235294117647,4,1,2,60,0,0
90312,-58.8235294117647,4,1,2,5,0,0
90400,-58.8235294117647,4,1,2,60,0,0
90753,-100,4,1,2,60,0,0
100283,-100,4,1,2,80,0,0
101695,-100,4,1,2,70,0,0
105753,-100,4,1,2,50,0,0
105930,-100,4,1,2,70,0,0
112989,-66.6666666666667,4,1,2,70,0,0
124283,-200,4,1,2,70,0,0
126753,-50,4,1,2,70,0,0
127106,-200,4,1,2,70,0,0
129577,-50,4,1,2,70,0,0
129930,-200,4,1,2,70,0,0
130283,-166.666666666667,4,1,2,70,0,0
130636,-142.857142857143,4,1,2,70,0,0
131342,-125,4,1,2,70,0,0
131871,-111.111111111111,4,1,2,70,0,0
132224,-99.9999999999999,4,1,2,70,0,0
132400,-90.9090909090909,4,1,2,70,0,0
134871,-50,4,1,2,70,0,0
135577,-100,4,1,2,70,0,0
136283,-66.6666666666667,4,1,2,70,0,0
136989,-100,4,1,2,70,0,0
139106,-66.6666666666667,4,1,2,70,0,0
139812,-100,4,1,2,70,0,0
140871,-50,4,1,2,70,0,0
141224,-100,4,1,2,70,0,0
147577,-66.6666666666667,4,1,2,70,0,0
148283,-100,4,1,2,70,0,0
150400,-66.6666666666667,4,1,2,70,0,0
151106,-100,4,1,2,70,0,0
152165,-50,4,1,2,70,0,0
152518,-100,4,1,2,70,0,0
159224,-111.111111111111,4,1,2,70,0,0
160636,-250,4,1,2,70,0,0
160989,-90.9090909090909,4,1,2,70,0,0
162400,-250,4,1,2,70,0,0
162753,-100,4,1,2,70,0,0
163106,-100,4,1,2,30,0,0
163812,-76.9230769230769,4,1,2,70,0,0
164871,-66.6666666666667,4,1,2,70,0,0
169812,-100,4,1,2,70,0,0
180753,-79.9999999999999,4,1,2,100,0,0
192047,-68.9655172413793,4,1,2,100,0,0
204930,-76.9230769230769,4,1,2,100,0,0
205812,-100,4,1,2,100,0,0
206165,-83.3333333333333,4,1,2,100,0,0
206518,-71.4285714285714,4,1,2,100,0,0
207224,-55.5555555555556,4,1,2,100,0,0
208989,-76.9230769230769,4,1,2,100,0,0
211812,-66.6666666666667,4,1,2,100,0,0
218165,-55.5555555555556,4,1,2,100,0,0
220283,-76.9230769230769,4,1,2,100,0,0
223106,-66.6666666666667,4,1,2,100,0,0
225930,-100,4,1,2,70,0,0
228246,-100,4,1,2,5,0,0
228312,-100,4,1,2,100,0,0
228356,-100,4,1,2,5,0,0
228400,-100,4,1,2,100,0,0
228753,-100,4,1,2,70,0,0
230518,-76.9230769230769,4,1,2,100,0,0
230871,-133.333333333333,4,1,2,100,0,0
231930,-76.9230769230769,4,1,2,100,0,0
232283,-100,4,1,2,70,0,0
239540,-100,4,1,2,5,0,0
239606,-100,4,1,2,100,0,0
239650,-100,4,1,2,5,0,0
239695,-100,4,1,2,70,0,0
241812,-76.9230769230769,4,1,2,100,0,0
242165,-133.333333333333,4,1,2,100,0,0
242518,-100,4,1,2,70,0,0
242871,368.098159509202,4,1,2,70,1,0
244343,405.405405405405,4,1,2,60,1,0
245964,458.015267175573,4,1,2,50,1,0
245964,-86.3557858376511,4,1,2,50,0,0
247796,517.241379310345,4,1,2,40,1,0
249735,-100,4,1,2,30,0,0
252192,-100,4,1,2,5,0,0

[Colours]
Combo1 : 128,0,128
Combo2 : 255,0,0
Combo3 : 255,128,0
Combo4 : 255,255,0
Combo5 : 0,255,0
Combo6 : 0,0,255

[HitObjects]
24,124,48,70,0,P|28:192|88:248,1,150,0|8,0:0|0:0,0:0:0:0:
216,264,753,2,0,P|212:196|152:140,1,150,0|8,0:0|0:0,0:0:0:0:
56,136,1459,5,8,0:0:0:0:
144,56,1636,2,0,P|204:104|224:176,1,150,8|0,0:0|0:0,0:0:0:0:
172,236,2342,2,0,L|180:272,2,37.5
300,340,2871,6,0,P|384:304|392:248,1,150,8|0,0:0|0:0,0:0:0:0:
392,96,3400,1,0,0:0:0:0:
296,40,3577,1,0,0:0:0:0:
200,88,3753,1,0,0:0:0:0:
292,160,3930,2,0,L|292:248,1,75,8|0,0:0|0:0,0:0:0:0:
212,332,4283,2,0,L|212:244,1,75,8|0,0:0|0:0,0:0:0:0:
96,224,4636,5,0,0:0:0:0:
120,128,4812,1,0,0:0:0:0:
200,64,4989,1,8,0:0:0:0:
376,240,5342,5,8,0:0:0:0:
156,308,5695,6,0,L|156:152,1,150,8|0,0:0|0:0,0:0:0:0:
253,55,6400,2,0,L|253:211,1,150,8|0,0:0|0:0,0:0:0:0:
424,256,7106,5,8,0:0:0:0:
316,320,7283,2,0,P|256:276|256:200,1,150,8|0,0:0|0:0,0:0:0:0:
384,104,7989,2,0,P|396:132|392:148,2,37.5
256,40,8518,6,0,L|256:120,1,75,8|0,0:0|0:0,0:0:0:0:
136,180,8871,1,0,0:0:0:0:
184,240,9047,1,8,0:0:0:0:
264,256,9224,1,0,0:0:0:0:
336,224,9400,1,0,0:0:0:0:
372,152,9577,2,8,L|300:124,1,75
132,108,9930,2,0,L|212:144,1,75,8|0,0:0|0:0,0:0:0:0:
380,144,10283,5,0,0:0:0:0:
380,232,10459,1,0,0:0:0:0:
304,188,10636,1,0,0:0:0:0:
272,56,10989,5,8,0:0:0:0:
96,120,11342,6,0,L|96:276,1,150,8|0,0:0|0:0,0:0:0:0:
246,120,12047,2,0,L|90:120|90:120,1,150,8|0,0:0|0:0,0:0:0:0:
112,208,12753,1,0,0:0:0:0:
184,268,12930,2,0,P|260:292|324:256,1,150,8|0,0:0|0:0,0:0:0:0:
432,152,13636,2,0,L|440:192,2,37.5
353,132,14165,6,0,P|305:204|321:264,1,150,8|0,0:0|0:0,0:0:0:0:
452,288,14695,5,0,0:0:0:0:
440,192,14872,1,0,0:0:0:0:
512,264,15048,1,0,0:0:0:0:
412,244,15225,1,0,0:0:0:0:
504,204,15400,2,0,P|504:132|444:80,1,150,8|0,0:0|0:0,0:0:0:0:
296,80,15930,1,0,0:0:0:0:
192,116,16106,1,0,0:0:0:0:
272,180,16283,1,0,0:0:0:0:
316,316,16636,5,8,0:0:0:0:
272,180,16989,6,0,P|232:116|260:52,1,150,8|0,0:0|0:0,0:0:0:0:
320,112,17695,2,0,P|352:172|320:248,1,150,8|0,0:0|0:0,0:0:0:0:
272,180,18400,1,8,0:0:0:0:
240,88,18577,2,8,P|184:144|184:212,1,150
376,196,19283,2,0,P|376:220|364:248,2,37.5
212,248,19812,5,8,0:0:0:0:
212,108,20165,1,0,0:0:0:0:
304,72,20342,1,0,0:0:0:0:
388,128,20518,1,0,0:0:0:0:
296,168,20695,1,8,0:0:0:0:
212,108,20871,2,0,P|196:152|204:196,1,75,8|0,0:0|0:0,0:0:0:0:
388,128,21224,2,0,P|396:168|388:208,2,75
336,56,21753,5,0,0:0:0:0:
232,32,21930,1,0,0:0:0:0:
128,76,22283,5,8,0:0:0:0:
128,76,22636,5,2,0:0:0:0:
44,136,22989,6,0,L|68:168,1,28.1250010728836,2|2,0:0|0:0,0:0:0:0:
208,276,23165,2,0,L|184:244,1,28.1250010728836
128,208,23342,1,8,0:0:0:0:
128,84,23518,1,0,0:0:0:0:
219,83,23695,2,0,B|256:72|256:72|299:83|299:83,1,75,2|0,0:0|0:0,0:0:0:0:
412,216,24047,2,0,P|423:172|415:140,1,75,10|2,0:0|0:0,0:0:0:0:
291,81,24401,2,0,P|280:125|288:157,1,75,10|2,0:0|0:0,0:0:0:0:
140,52,24753,6,8,L|140:96|140:96,1,28.1250010728836,8|0,0:0|0:0,0:0:0:0:
204,236,24930,2,0,L|204:188,1,28.1250010728836
168,148,25106,1,8,0:0:0:0:
64,44,25283,1,0,0:0:0:0:
64,228,25459,1,10,0:0:0:0:
140,52,25812,2,0,B|176:80|176:80|176:128,1,75,2|0,0:0|0:0,0:0:0:0:
356,52,26165,2,0,B|320:80|320:80|320:128,1,75,8|8,0:0|0:0,0:0:0:0:
248,36,26518,2,2,L|248:136,1,75,10|10,0:0|0:0,0:0:0:0:
216,224,26871,6,0,P|240:256|304:260,1,75,2|8,0:0|0:0,0:0:0:0:
216,224,27136,6,0,P|260:232|304:208,1,75
216,224,27401,6,0,P|260:196|280:152,1,75,8|0,0:0|0:0,0:0:0:0:
276,168,27665,1,8,0:0:0:0:
280,152,27753,1,8,0:0:0:0:
200,96,27930,6,0,P|156:124|136:168,1,75,8|0,0:0|0:0,0:0:0:0:
256,232,28283,1,10,0:0:0:0:
48,256,28636,2,0,L|84:288|84:288,1,37.5,8|0,0:0|0:0,0:0:0:0:
196,336,28812,2,0,L|160:304|160:304,1,37.5,8|0,0:0|0:0,0:0:0:0:
256,157,28989,2,0,L|256:237,1,75,8|0,0:0|0:0,0:0:0:0:
396,232,29342,6,0,B|368:260|368:260|328:268,1,75,10|8,0:0|0:0,0:0:0:0:
184,88,29695,2,0,L|184:136|184:136,1,37.5,2|0,0:0|0:0,0:0:0:0:
132,228,29871,2,0,L|132:276,1,37.5
268,320,30047,1,0,0:0:0:0:
304,56,30224,1,2,0:0:0:0:
460,200,30401,1,8,0:0:0:0:
184,125,30577,1,0,0:0:0:0:
360,192,30753,6,0,L|300:172,1,44.999998626709,2|0,0:0|0:0,0:0:0:0:
184,125,31106,1,2,0:0:0:0:
80,132,31459,6,0,L|80:88|80:88,1,37.5
124,212,31636,2,0,L|124:264|124:264,1,37.5,2|0,0:0|0:0,0:0:0:0:
180,332,31812,1,8,0:0:0:0:
216,144,31989,1,0,0:0:0:0:
184,328,32165,1,2,0:0:0:0:
308,188,32342,1,8,0:0:0:0:
184,328,32518,1,8,0:0:0:0:
128,128,32695,1,0,0:0:0:0:
72,28,32871,6,0,L|72:56|72:56,1,28.125,10|0,0:0|0:0,0:0:0:0:
128,100,33047,2,0,L|128:132,1,28.125,0|8,0:0|0:0,0:0:0:0:
68,140,33224,1,8,0:0:0:0:
68,160,33312,1,8,0:0:0:0:
68,184,33401,1,8,0:0:0:0:
68,256,33577,2,0,B|72:300|72:300|96:328,1,75,8|0,0:0|0:0,0:0:0:0:
156,136,33930,2,0,P|156:104|160:136,1,75,2|0,0:0|0:0,0:0:0:0:
376,180,34327,6,0,B|368:144|368:144|340:116,1,75,8|0,0:0|0:0,0:0:0:0:
240,176,34636,2,0,B|252:140|252:140|284:112,1,75,8|0,0:0|0:0,0:0:0:0:
308,176,34989,2,0,L|296:256|296:256,1,75,2|8,0:0|0:0,0:0:0:0:
216,320,35342,2,0,L|184:296|184:296,1,28.1250010728836
200,200,35518,2,0,L|168:176|168:176,1,28.1250010728836,2|2,0:0|0:0,0:0:0:0:
60,152,35695,2,0,L|60:208,2,37.5,10|0|10,0:0|0:0|0:0,0:0:0:0:
104,336,36047,2,0,L|104:288,1,37.5,8|0,0:0|0:0,0:0:0:0:
144,216,36224,2,0,L|144:256,1,37.5
120,84,36401,5,0,0:0:0:0:
288,144,36577,1,0,0:0:0:0:
144,253,36753,1,2,0:0:0:0:
356,68,37106,6,0,P|380:120|380:160,1,93.75,10|0,0:0|0:0,0:0:0:0:
324,292,37459,2,0,B|304:260|304:260|304:216,1,75,8|0,0:0|0:0,0:0:0:0:
284,128,37812,2,0,L|204:128,1,75,2|8,0:0|0:0,0:0:0:0:
64,192,38165,6,0,B|44:232|44:232|48:268,1,75,0|8,0:0|0:0,0:0:0:0:
64,192,38430,6,0,B|72:232|72:232|96:260,1,75
64,192,38695,6,0,B|96:224|96:224|132:224,1,75
144,224,38959,1,8,0:0:0:0:
164,224,39048,1,8,0:0:0:0:
256,124,39224,2,0,L|256:204,1,75,8|0,0:0|0:0,0:0:0:0:
256,224,39577,1,2,0:0:0:0:
380,112,39930,6,0,P|400:152|392:196,1,75,2|0,0:0|0:0,0:0:0:0:
320,196,40283,2,0,P|300:156|308:112,1,75,8|0,0:0|0:0,0:0:0:0:
288,44,40636,2,0,L|380:44,1,75,2|8,0:0|0:0,0:0:0:0:
504,108,40989,2,0,L|468:108,1,28.1250010728836
416,184,41165,2,0,L|416:136,1,28.1250010728836
232,24,41342,5,0,0:0:0:0:
144,188,41518,1,0,0:0:0:0:
316,188,41695,1,8,0:0:0:0:
432,128,41871,1,0,0:0:0:0:
436,144,42047,2,0,B|456:196|420:228|420:228|432:268|408:284,1,150,0|2,0:0|0:0,0:0:0:0:
256,284,42753,6,0,B|236:248|236:248|248:212,1,75,2|0,0:0|0:0,0:0:0:0:
320,40,43106,2,0,B|336:76|336:76|320:116,1,75,8|0,0:0|0:0,0:0:0:0:
176,132,43459,2,0,B|212:116|212:116|248:136,1,75,0|8,0:0|0:0,0:0:0:0:
400,192,43812,2,0,B|364:204|364:204|328:188,1,75,8|0,0:0|0:0,0:0:0:0:
320,40,44165,1,0,0:0:0:0:
128,60,44342,1,0,0:0:0:0:
210,192,44518,2,0,L|254:192,2,37.5,8|8|8,0:0|0:0|0:0,0:0:0:0:
260,196,44871,5,0,0:0:0:0:
272,168,44959,1,0,0:0:0:0:
304,184,45048,1,0,0:0:0:0:
292,212,45136,1,0,0:0:0:0:
272,168,45224,6,0,P|292:128|312:96,1,75,6|0,0:0|0:0,0:0:0:0:
376,44,45577,1,2,0:0:0:0:
444,100,45753,1,0,0:0:0:0:
448,192,45930,2,0,P|428:244|372:344,1,150,8|2,0:0|0:0,0:0:0:0:
292,240,46459,1,8,0:0:0:0:
156,280,46636,6,0,L|176:364,1,75,0|2,0:0|0:0,0:0:0:0:
132,200,46989,1,2,0:0:0:0:
152,64,47165,1,0,0:0:0:0:
240,84,47342,2,0,P|296:96|400:48,1,150,8|0,0:0|0:0,0:0:0:0:
448,128,47871,1,0,0:0:0:0:
388,272,48047,5,2,0:0:0:0:
388,272,48400,1,2,0:0:0:0:
312,320,48577,1,0,0:0:0:0:
240,268,48753,2,0,P|192:280|160:304,1,75,8|0,0:0|0:0,0:0:0:0:
96,344,49106,1,2,0:0:0:0:
88,192,49283,1,8,0:0:0:0:
208,104,49459,6,0,L|296:92,2,75,0|2|2,0:0|0:0|0:0,0:0:0:0:
460,112,50165,1,8,0:0:0:0:
464,128,50253,1,8,0:0:0:0:
468,144,50342,1,8,0:0:0:0:
384,232,50518,2,0,P|340:240|312:304,1,112.5,8|0,0:0|0:0,0:0:0:0:
296,312,50871,6,0,L|192:304,1,75,2|0,0:0|0:0,0:0:0:0:
112,212,51224,2,0,L|186:217,1,75,2|0,0:0|0:0,0:0:0:0:
276,96,51577,1,8,0:0:0:0:
364,100,51753,2,0,P|384:60|380:20,1,75,0|2,0:0|0:0,0:0:0:0:
312,164,52106,1,8,0:0:0:0:
352,328,52283,5,0,0:0:0:0:
408,260,52459,2,0,L|488:268,2,75,2|2|0,0:0|0:0|0:0,0:0:0:0:
260,252,52989,2,0,B|220:264|220:264|200:292,1,75,8|0,0:0|0:0,0:0:0:0:
80,176,53342,2,0,B|120:188|120:188|139:215,1,75
336,200,53695,6,0,P|352:160|352:120,1,75,2|0,0:0|0:0,0:0:0:0:
192,24,54047,2,0,P|176:64|176:104,1,75,2|0,0:0|0:0,0:0:0:0:
330,221,54400,2,0,P|357:187|368:149,1,75,8|0,0:0|0:0,0:0:0:0:
232,8,54753,2,0,P|206:42|204:76,1,75,2|8,0:0|0:0,0:0:0:0:
208,268,55106,5,8,0:0:0:0:
336,336,55283,1,2,0:0:0:0:
336,336,55459,1,2,0:0:0:0:
420,228,55636,1,8,0:0:0:0:
400,72,55812,2,0,L|396:36,4,18.75
292,100,56165,2,0,P|240:104|184:160,1,112.5,8|0,0:0|0:0,0:0:0:0:
192,160,56518,6,0,L|272:184,1,75,2|0,0:0|0:0,0:0:0:0:
384,256,56871,1,2,0:0:0:0:
424,176,57047,1,0,0:0:0:0:
396,92,57224,1,8,0:0:0:0:
392,84,57577,1,2,0:0:0:0:
388,76,57930,5,8,0:0:0:0:
280,48,58106,1,2,0:0:0:0:
172,88,58283,1,2,0:0:0:0:
68,48,58459,1,0,0:0:0:0:
164,192,58636,1,8,0:0:0:0:
308,140,58812,2,0,L|344:136,4,18.75
260,232,59165,1,0,0:0:0:0:
320,300,59342,6,0,P|364:312|412:296,1,75,2|0,0:0|0:0,0:0:0:0:
240,320,59695,1,2,0:0:0:0:
160,276,59871,1,0,0:0:0:0:
132,360,60047,1,8,0:0:0:0:
48,152,60224,1,0,0:0:0:0:
132,360,60400,1,2,0:0:0:0:
124,192,60577,1,8,0:0:0:0:
256,44,60930,5,2,0:0:0:0:
256,44,61106,1,2,0:0:0:0:
332,92,61283,1,0,0:0:0:0:
388,164,61459,2,0,L|396:196,4,18.75
280,160,61812,2,0,P|216:168|176:220,1,112.5,8|0,0:0|0:0,0:0:0:0:
236,276,62165,6,0,P|284:264|308:228,1,75,2|0,0:0|0:0,0:0:0:0:
424,260,62518,2,0,L|452:340,1,75,2|0,0:0|0:0,0:0:0:0:
424,124,62871,2,0,L|452:44,1,75,8|0,0:0|0:0,0:0:0:0:
256,36,63224,1,2,0:0:0:0:
100,56,63400,1,8,0:0:0:0:
256,36,63577,5,0,0:0:0:0:
220,116,63753,1,2,0:0:0:0:
276,188,63930,1,2,0:0:0:0:
228,264,64106,1,0,0:0:0:0:
364,88,64283,1,8,0:0:0:0:
432,144,64459,2,0,L|456:168,4,18.75
344,168,64812,1,0,0:0:0:0:
336,256,64989,5,2,0:0:0:0:
420,284,65165,1,0,0:0:0:0:
212,308,65342,1,2,0:0:0:0:
296,336,65518,1,0,0:0:0:0:
152,240,65695,1,8,0:0:0:0:
208,104,65871,1,0,0:0:0:0:
360,96,66047,1,2,0:0:0:0:
448,216,66224,1,8,0:0:0:0:
448,216,66400,5,8,0:0:0:0:
256,336,66577,1,2,0:0:0:0:
256,336,66753,1,2,0:0:0:0:
440,116,66930,1,0,0:0:0:0:
352,44,67106,2,0,L|356:20,4,18.75
276,96,67459,6,0,L|220:116,1,56.25
200,136,67812,6,0,P|188:180|192:228,1,84.3750032186509,2|0,0:0|0:0,0:0:0:0:
240,240,68165,2,0,P|276:260|296:260,1,37.5
316,164,68342,2,0,P|280:184|260:184,1,37.5,2|0,0:0|0:0,0:0:0:0:
268,112,68518,1,0,0:0:0:0:
216,48,68695,1,0,0:0:0:0:
440,48,68871,1,2,0:0:0:0:
388,112,69048,1,0,0:0:0:0:
448,244,69224,5,0,0:0:0:0:
448,244,69400,1,2,0:0:0:0:
300,240,69577,2,0,P|288:292|292:328,1,75,2|0,0:0|0:0,0:0:0:0:
368,288,69930,1,0,0:0:0:0:
368,288,70106,1,0,0:0:0:0:
188,348,70283,2,0,P|200:296|196:260,1,75,8|0,0:0|0:0,0:0:0:0:
128,240,70636,6,0,P|120:196|92:148,1,84.3750032186509,2|0,0:0|0:0,0:0:0:0:
32,136,70989,2,0,L|-16:128,1,37.5,2|0,0:0|0:0,0:0:0:0:
64,96,71165,2,0,L|16:88,1,37.5
92,52,71342,1,0,0:0:0:0:
84,16,71518,1,0,0:0:0:0:
196,40,71695,2,0,P|200:88|176:144,1,75,2|0,0:0|0:0,0:0:0:0:
160,200,72047,6,0,L|264:212,1,97.4999955368044,2|0,0:0|0:0,0:0:0:0:
296,264,72312,2,0,P|260:212|256:156,1,97.4999955368044
252,104,72577,1,8,0:0:0:0:
368,44,72753,1,0,0:0:0:0:
382,63,72841,1,0,0:0:0:0:
389,86,72929,1,0,0:0:0:0:
352,188,73106,2,0,L|340:144,1,37.5,8|0,0:0|0:0,0:0:0:0:
472,96,73283,2,0,L|484:140,1,37.5,2|0,0:0|0:0,0:0:0:0:
432,200,73459,6,0,B|416:256|356:272|356:272|384:268|408:280,1,146.249993305207,2|0,0:0|0:0,0:0:0:0:
368,344,73812,2,0,P|336:344|308:332,1,37.5,2|0,0:0|0:0,0:0:0:0:
220,304,73989,2,0,P|252:304|280:292,1,37.5
236,232,74165,1,0,0:0:0:0:
244,200,74342,1,0,0:0:0:0:
120,220,74518,1,2,0:0:0:0:
128,188,74695,1,8,0:0:0:0:
28,136,74871,5,0,0:0:0:0:
164,104,75047,1,2,0:0:0:0:
80,40,75224,1,2,0:0:0:0:
192,96,75400,1,0,0:0:0:0:
96,120,75577,1,0,0:0:0:0:
184,16,75753,1,0,0:0:0:0:
272,104,75930,2,0,L|256:204,1,75,8|0,0:0|0:0,0:0:0:0:
328,264,76283,6,0,L|344:164,1,75,2|0,0:0|0:0,0:0:0:0:
356,80,76636,1,2,0:0:0:0:
456,168,76812,1,0,0:0:0:0:
448,64,76989,1,0,0:0:0:0:
360,180,77165,1,0,0:0:0:0:
472,120,77342,1,2,0:0:0:0:
456,256,77518,1,0,0:0:0:0:
292,256,77695,6,0,P|248:260|184:224,1,97.4999955368044,2|0,0:0|0:0,0:0:0:0:
164,96,78047,1,0,0:0:0:0:
336,40,78224,1,0,0:0:0:0:
264,128,78400,6,8,L|272:160,3,24.3749988842011,10|8|8|8,0:0|0:0|0:0|0:0,0:0:0:0:
168,176,78753,2,0,B|168:216|149:240|149:240|124:248|124:248|112:292|68:304,1,168.750006437302
52,232,79106,6,0,P|16:176|64:192,1,157.499995193482,2|0,0:0|0:0,0:0:0:0:
80,136,79459,2,0,L|88:84,1,37.5
128,108,79636,2,0,L|136:56,1,37.5
212,72,79812,1,0,0:0:0:0:
240,36,79989,1,2,0:0:0:0:
296,132,80165,1,0,0:0:0:0:
336,116,80342,1,2,0:0:0:0:
332,232,80518,6,2,B|336:272|336:272|312:324,1,75,0|2,0:0|0:0,0:0:0:0:
168,320,80871,1,2,0:0:0:0:
212,192,81047,1,0,0:0:0:0:
280,336,81224,1,0,0:0:0:0:
132,272,81400,1,8,0:0:0:0:
280,252,81577,1,2,0:0:0:0:
192,360,81753,1,0,0:0:0:0:
112,248,81930,6,0,L|100:148,1,84.3750032186509,2|0,0:0|0:0,0:0:0:0:
158,103,82283,2,0,L|152:54,1,37.5
228,148,82459,2,0,L|234:197,1,37.5
183,251,82636,1,0,0:0:0:0:
334,179,82812,1,8,0:0:0:0:
176,231,82989,1,2,0:0:0:0:
341,200,83165,1,0,0:0:0:0:
282,336,83342,6,0,B|270:265|270:265|296:286,1,97.4999955368044,2|0,0:0|0:0,0:0:0:0:
226,300,83606,2,0,B|267:241|267:241|271:274,1,97.4999955368044
213,233,83871,1,8,0:0:0:0:
347,279,84047,1,0,0:0:0:0:
347,279,84136,1,0,0:0:0:0:
347,279,84224,1,0,0:0:0:0:
107,326,84400,2,0,L|166:315,1,48.7499977684022,8|0,0:0|0:0,0:0:0:0:
213,233,84577,2,0,L|154:244,1,48.7499977684022,2|0,0:0|0:0,0:0:0:0:
98,352,84753,6,0,L|208:331,1,97.4999955368044,2|0,0:0|0:0,0:0:0:0:
213,234,85106,1,2,0:0:0:0:
74,161,85283,1,0,0:0:0:0:
28,271,85459,2,0,L|138:250,1,97.4999955368044,8|0,0:0|0:0,0:0:0:0:
204,140,85812,1,2,0:0:0:0:
65,67,85989,1,0,0:0:0:0:
74,161,86165,5,0,0:0:0:0:
197,35,86342,1,2,0:0:0:0:
239,182,86518,1,2,0:0:0:0:
131,104,86695,1,8,0:0:0:0:
288,103,86871,1,0,0:0:0:0:
171,252,87047,1,0,0:0:0:0:
213,130,87224,2,0,P|215:68|247:33,1,97.4999955368044
365,70,87577,6,0,L|375:174,1,97.4999955368044,2|0,0:0|0:0,0:0:0:0:
393,302,87930,1,2,0:0:0:0:
385,331,88106,1,0,0:0:0:0:
254,198,88283,1,0,0:0:0:0:
221,214,88459,1,0,0:0:0:0:
403,191,88636,2,0,L|351:180,1,37.5,2|0,0:0|0:0,0:0:0:0:
273,115,88812,2,0,L|309:107,1,37.5,8|0,0:0|0:0,0:0:0:0:
370,41,88989,5,0,0:0:0:0:
421,267,89165,1,2,0:0:0:0:
484,86,89342,1,2,0:0:0:0:
372,296,89518,1,0,0:0:0:0:
279,244,89695,2,8,L|271:206,3,24.3749988842011
186,157,90047,2,0,B|168:203|168:203|178:265|178:265|124:275|116:343,1,191.250003647804
194,338,90400,5,4,0:0:0:0:
369,208,90753,1,2,0:0:0:0:
441,280,90930,1,0,0:0:0:0:
273,220,91106,2,0,P|280:184|312:144,1,75,8|0,0:0|0:0,0:0:0:0:
384,104,91459,2,0,L|400:184,1,75
304,68,91812,6,0,P|240:44|140:84,1,150,2|0,0:0|0:0,0:0:0:0:
92,132,92342,1,0,0:0:0:0:
176,264,92518,2,0,L|160:176,1,75,8|0,0:0|0:0,0:0:0:0:
28,276,92871,2,0,P|64:269|104:237,1,75
280,124,93224,6,0,L|304:240,1,112.5,2|0,0:0|0:0,0:0:0:0:
302,234,93577,2,0,P|356:208|404:212,1,75,2|0,0:0|0:0,0:0:0:0:
468,224,93930,1,8,0:0:0:0:
304,328,94283,2,0,L|160:316,1,112.5,2|0,0:0|0:0,0:0:0:0:
144,312,94636,6,0,P|72:256|192:176,1,262.5,2|0,0:0|0:0,0:0:0:0:
220,176,95342,1,8,0:0:0:0:
216,164,95430,1,0,0:0:0:0:
212,152,95518,1,0,0:0:0:0:
352,216,95695,1,0,0:0:0:0:
352,216,96047,6,0,L|368:112,1,75,8|0,0:0|0:0,0:0:0:0:
380,48,96400,1,2,0:0:0:0:
380,48,96577,1,0,0:0:0:0:
276,96,96753,2,0,P|232:104|188:92,1,75,8|0,0:0|0:0,0:0:0:0:
124,216,97106,2,0,L|108:112,1,75
100,44,97459,5,2,0:0:0:0:
16,244,97636,1,0,0:0:0:0:
16,244,97812,2,0,B|48:304|48:304|124:292,1,112.5
140,288,98165,2,0,L|220:272,1,75,8|0,0:0|0:0,0:0:0:0:
328,184,98518,2,0,L|248:200,1,75
440,240,98871,6,0,P|440:192|364:112,2,150,2|0|8,0:0|0:0|0:0,0:0:0:0:
348,292,99930,1,0,0:0:0:0:
440,240,100106,1,0,0:0:0:0:
220,200,100283,5,8,0:0:0:0:
364,200,100459,1,0,0:0:0:0:
188,172,100636,1,0,0:0:0:0:
328,224,100812,1,8,0:0:0:0:
152,96,100989,2,0,L|180:80,4,18.75
44,176,101342,2,0,B|12:200|12:200|52:196|72:232,1,112.5,8|0,0:0|0:0,0:0:0:0:
71,231,101695,6,0,P|112:216|160:220,1,75,2|0,0:0|0:0,0:0:0:0:
256,288,102047,2,0,P|215:303|167:299,1,75,2|0,0:0|0:0,0:0:0:0:
312,168,102400,2,0,L|368:100,1,75,10|0,0:0|0:0,0:0:0:0:
392,328,102753,2,0,P|351:343|303:339,1,75,2|8,0:0|0:0,0:0:0:0:
220,224,103106,5,2,0:0:0:0:
220,224,103283,2,0,L|164:156,1,75
292,216,103636,2,0,P|237:292|185:288,1,150,2|0,0:0|0:0,0:0:0:0:
172,284,104077,1,0,0:0:0:0:
156,272,104165,1,2,0:0:0:0:
120,128,104518,6,0,P|168:120|216:132,1,75,2|0,0:0|0:0,0:0:0:0:
264,192,104871,2,0,P|312:200|360:188,1,75,2|0,0:0|0:0,0:0:0:0:
412,132,105224,2,0,B|460:188|460:188|432:288,1,150,8|0,0:0|0:0,0:0:0:0:
364,308,105753,1,8,0:0:0:0:
152,244,105930,5,0,0:0:0:0:
220,316,106106,1,2,0:0:0:0:
252,176,106283,1,2,0:0:0:0:
220,316,106459,1,0,0:0:0:0:
124,104,106636,1,8,0:0:0:0:
108,136,106724,1,0,0:0:0:0:
92,168,106812,1,0,0:0:0:0:
264,60,106989,1,0,0:0:0:0:
264,60,107342,6,0,L|280:168,1,75,2|0,0:0|0:0,0:0:0:0:
364,148,107695,2,0,L|380:256,1,75,2|0,0:0|0:0,0:0:0:0:
388,312,108047,2,0,B|304:332|304:332|292:244,2,150,8|0|2,0:0|0:0|0:0,0:0:0:0:
232,348,108930,5,0,0:0:0:0:
295,268,109106,1,0,0:0:0:0:
136,304,109283,1,0,0:0:0:0:
76,220,109459,2,0,L|92:112,1,75,8|0,0:0|0:0,0:0:0:0:
176,132,109812,2,0,L|192:24,1,75
392,196,110165,6,0,B|372:260|372:260|256:276,1,150,2|0,0:0|0:0,0:0:0:0:
120,196,110871,2,0,B|140:260|140:260|256:276,1,150,2|0,0:0|0:0,0:0:0:0:
256,188,111400,1,8,0:0:0:0:
116,96,111576,5,8,0:0:0:0:
396,96,111753,1,0,0:0:0:0:
396,288,111929,1,0,0:0:0:0:
116,288,112106,1,0,0:0:0:0:
256,96,112283,6,0,L|256:60,4,18.75
256,288,112636,1,0,0:0:0:0:
256,288,112989,5,4,0:0:0:0:
344,264,113342,1,2,0:0:0:0:
408,199,113695,1,8,0:0:0:0:
431,110,114047,1,0,0:0:0:0:
408,199,114400,1,0,0:0:0:0:
431,110,114577,1,10,0:0:0:0:
406,21,114930,1,8,0:0:0:0:
384,112,115283,1,8,0:0:0:0:
378,132,115371,1,8,0:0:0:0:
371,155,115459,2,0,B|365:175|376:190|376:190|328:191|381:206|384:232|358:268,1,126.562504827976,8|0,0:0|0:0,0:0:0:0:
299,243,115812,5,2,0:0:0:0:
214,212,116165,1,0,0:0:0:0:
182,127,116518,1,8,0:0:0:0:
188,82,116695,1,0,0:0:0:0:
174,170,117047,1,8,0:0:0:0:
241,76,117400,5,2,0:0:0:0:
428,180,117577,1,2,0:0:0:0:
180,142,117753,5,0,0:0:0:0:
392,128,117930,1,8,0:0:0:0:
432,90,118283,2,0,B|427:118|449:107|449:107|386:163|488:139|456:219,1,168.750006437302
318,60,118636,5,10,0:0:0:0:
288,240,118989,1,10,0:0:0:0:
251,139,119342,1,8,0:0:0:0:
372,264,119695,1,10,0:0:0:0:
202,240,120047,1,0,0:0:0:0:
408,160,120224,1,2,0:0:0:0:
353,272,120577,1,0,0:0:0:0:
144,260,120930,5,8,0:0:0:0:
136,220,121018,1,8,0:0:0:0:
134,176,121106,2,0,B|144:178|168:152|168:152|116:136|116:136|156:91,1,154.68750590086,8|0,0:0|0:0,0:0:0:0:
429,106,121459,5,2,0:0:0:0:
312,160,121812,1,0,0:0:0:0:
333,188,121989,1,0,0:0:0:0:
479,264,122165,1,8,0:0:0:0:
457,228,122342,1,0,0:0:0:0:
334,61,122518,5,0,0:0:0:0:
272,184,122695,1,8,0:0:0:0:
195,31,122871,5,0,0:0:0:0:
176,190,123047,1,0,0:0:0:0:
214,205,123224,1,0,0:0:0:0:
241,231,123400,1,0,0:0:0:0:
111,207,124283,6,0,L|142:186,1,37.5
351,147,124636,2,0,L|314:141,1,37.5
128,168,124989,5,8,0:0:0:0:
368,104,125342,2,0,L|323:96,1,37.5,0|8,0:0|0:0,0:0:0:0:
181,257,125695,5,0,0:0:0:0:
241,112,125871,1,0,0:0:0:0:
412,48,126224,5,0,0:0:0:0:
324,218,126577,1,8,0:0:0:0:
292,243,126665,1,8,0:0:0:0:
248,248,126753,2,0,B|266:284|266:284|205:252|205:252|239:335|195:267|146:304,1,225,8|0,0:0|0:0,0:0:0:0:
130,203,127106,6,0,L|146:168,1,37.5,2|0,0:0|0:0,0:0:0:0:
245,70,127459,6,0,L|287:52,1,42.1875,2|0,0:0|0:0,0:0:0:0:
346,235,127812,1,8,0:0:0:0:
403,51,127989,1,0,0:0:0:0:
445,184,128342,1,8,0:0:0:0:
320,156,128695,1,2,0:0:0:0:
303,171,128871,1,2,0:0:0:0:
280,184,129047,1,8,0:0:0:0:
274,57,129224,1,8,0:0:0:0:
274,57,129577,2,0,B|230:96|306:93|306:93|271:126|271:126|333:132|318:192,1,225,8|0,0:0|0:0,0:0:0:0:
99,73,129930,6,0,L|122:101,1,37.5,2|0,0:0|0:0,0:0:0:0:
100,180,130283,2,0,L|144:195,1,44.999998626709,2|0,0:0|0:0,0:0:0:0:
132,275,130636,2,0,P|167:265|201:239,1,78.7499975967408,8|0,0:0|0:0,0:0:0:0:
212,171,131342,2,0,P|238:181|261:205,2,60
287,269,131871,2,0,P|316:253|330:218,1,67.4999979400635
313,150,132224,2,0,P|333:148|354:153,1,37.5
404,202,132400,2,0,B|410:207|410:207|384:233|384:233|421:234|436:253|434:284,1,123.75000377655
256,163,132753,5,2,0:0:0:0:
256,163,133106,1,2,0:0:0:0:
247,178,133283,1,8,0:0:0:0:
208,208,133459,1,8,0:0:0:0:
154,223,133636,1,0,0:0:0:0:
286,298,133989,1,8,0:0:0:0:
223,100,134342,1,0,0:0:0:0:
302,134,134518,1,2,0:0:0:0:
346,201,134695,1,0,0:0:0:0:
259,270,134871,2,0,B|224:272|199:304|199:304|202:232|202:232|156:288|139:223|139:223|101:188|76:195,1,300
96,236,135577,6,2,L|96:276,1,37.5,10|0,0:0|0:0,0:0:0:0:
144,272,135753,2,0,L|144:324,1,37.5
224,232,135930,6,0,L|224:272,1,37.5,2|0,0:0|0:0,0:0:0:0:
272,268,136106,2,0,L|272:320,1,37.5
444,336,136283,6,0,P|404:256|376:348,1,225.000008583069,10|2,0:0|0:0,0:0:0:0:
404,308,136812,1,0,0:0:0:0:
404,308,136989,2,0,L|404:136,1,150,10|2,0:0|0:0,0:0:0:0:
328,44,137695,1,10,0:0:0:0:
332,200,138047,1,2,0:0:0:0:
332,200,138400,6,0,P|312:180|288:172,1,37.5,10|0,0:0|0:0,0:0:0:0:
272,112,138577,2,0,P|252:96|240:92,1,37.5
72,64,138753,6,0,P|92:84|116:92,1,37.5,2|0,0:0|0:0,0:0:0:0:
132,152,138930,2,0,P|152:168|164:172,1,37.5
264,252,139106,6,0,B|164:240|132:340|132:340|188:296,1,225.000008583069,10|2,0:0|0:0,0:0:0:0:
304,324,139636,1,0,0:0:0:0:
304,324,139812,2,0,P|340:252|296:180,1,150,10|2,0:0|0:0,0:0:0:0:
313,193,140518,2,0,P|336:204|368:204,1,37.5,10|8,0:0|0:0,0:0:0:0:
460,204,140695,1,4,0:0:0:0:
376,80,140871,6,0,P|260:64|168:120,1,225,2|0,0:0|0:0,0:0:0:0:
176,208,141224,2,0,L|208:192,6,18.75,10|0|0|0|0|0|0,0:0|0:0|0:0|0:0|0:0|0:0|0:0,0:0:0:0:
264,144,141577,2,0,L|300:144,6,18.75,2|0|0|0|0|0|0,0:0|0:0|0:0|0:0|0:0|0:0|0:0,0:0:0:0:
376,208,141930,6,0,B|376:272|376:272|360:264,1,75,10|0,0:0|0:0,0:0:0:0:
260,240,142283,1,2,0:0:0:0:
260,240,142371,1,0,0:0:0:0:
260,240,142459,2,0,L|260:288,1,37.5
192,340,142636,5,10,0:0:0:0:
192,264,142724,1,0,0:0:0:0:
192,188,142812,2,0,L|192:136,1,37.5
112,152,142989,6,0,L|112:208,3,37.5,2|0|0|0,0:0|0:0|0:0|0:0,0:0:0:0:
48,276,143342,2,0,L|48:216,3,37.5,10|0|0|0,0:0|0:0|0:0|0:0,0:0:0:0:
144,152,143695,2,0,L|144:216,1,37.5,2|0,0:0|0:0,0:0:0:0:
16,280,143871,2,0,L|16:220,1,37.5
16,88,144047,5,10,0:0:0:0:
16,88,144400,5,2,0:0:0:0:
40,68,144577,1,0,0:0:0:0:
120,44,144753,1,10,0:0:0:0:
200,80,144930,1,0,0:0:0:0:
268,160,145106,6,0,L|356:136,1,75,2|0,0:0|0:0,0:0:0:0:
436,116,145459,1,10,0:0:0:0:
252,24,145636,6,0,L|276:112,1,75,0|2,0:0|0:0,0:0:0:0:
316,248,145989,1,0,0:0:0:0:
464,296,146165,6,0,P|468:272|464:240,1,37.5,10|2,0:0|0:0,0:0:0:0:
436,116,146342,1,4,0:0:0:0:
316,248,146518,5,0,0:0:0:0:
272,266,146606,1,0,0:0:0:0:
229,284,146694,1,0,0:0:0:0:
186,302,146782,1,0,0:0:0:0:
104,332,146871,6,0,P|84:336|64:332,1,37.5,10|0,0:0|0:0,0:0:0:0:
68,232,147047,2,0,P|88:228|108:232,1,37.5
104,264,147224,6,0,P|84:268|64:264,1,37.5,2|0,0:0|0:0,0:0:0:0:
68,152,147400,2,0,P|88:148|108:152,1,37.5
192,180,147577,6,0,B|188:104|148:80|148:80|196:84|264:36,1,225.000008583069,10|2,0:0|0:0,0:0:0:0:
268,140,148106,1,0,0:0:0:0:
268,140,148283,2,0,P|288:164|312:136,1,75,10|0,0:0|0:0,0:0:0:0:
356,48,148636,6,0,L|356:100,3,37.5,2|0|0|0,0:0|0:0|0:0|0:0,0:0:0:0:
356,200,148989,2,0,L|356:252,3,37.5,10|0|0|0,0:0|0:0|0:0|0:0,0:0:0:0:
360,340,149342,1,2,0:0:0:0:
360,340,149695,6,0,P|376:344|420:340,1,37.5,10|0,0:0|0:0,0:0:0:0:
472,276,149871,2,0,P|480:252|472:212,1,37.5
420,368,150047,6,0,P|428:348|432:320,1,37.5,2|0,0:0|0:0,0:0:0:0:
428,184,150224,2,0,P|424:156|408:128,1,37.5
260,48,150400,6,0,B|260:232|260:232|300:188,1,225.000008583069,10|2,0:0|0:0,0:0:0:0:
352,140,150930,1,0,0:0:0:0:
192,144,151106,2,0,L|148:144,3,37.5,10|0|0|0,0:0|0:0|0:0|0:0,0:0:0:0:
100,220,151459,2,0,L|52:220,3,37.5,2|0|0|0,0:0|0:0|0:0|0:0,0:0:0:0:
229,144,151812,6,0,L|185:144,1,37.5,10|0,0:0|0:0,0:0:0:0:
137,220,151989,2,0,L|85:220,1,37.5
40,48,152165,2,0,P|112:48|184:144,1,150,2|0,0:0|0:0,0:0:0:0:
244,246,152518,5,10,0:0:0:0:
244,246,152606,1,0,0:0:0:0:
244,246,152694,2,0,L|244:198,1,37.5
312,146,152871,5,2,0:0:0:0:
312,222,152959,1,0,0:0:0:0:
312,298,153047,2,0,L|312:350,1,37.5
468,236,153224,6,0,P|452:216|424:208,1,37.5,10|0,0:0|0:0,0:0:0:0:
328,196,153400,2,0,P|344:216|372:224,1,37.5
376,288,153577,2,0,P|396:272|404:244,1,37.5,2|0,0:0|0:0,0:0:0:0:
416,148,153753,2,0,P|396:164|388:192,1,37.5
312,336,153930,6,0,L|312:288,3,37.5,10|0|0|0,0:0|0:0|0:0|0:0,0:0:0:0:
248,216,154283,2,0,L|248:276,3,37.5,2|0|0|0,0:0|0:0|0:0|0:0,0:0:0:0:
340,352,154636,6,0,L|340:256,1,75,10|0,0:0|0:0,0:0:0:0:
220,192,154989,2,0,L|220:284,1,75,2|0,0:0|0:0,0:0:0:0:
112,344,155342,1,10,0:0:0:0:
112,344,155695,5,2,0:0:0:0:
136,324,155872,1,0,0:0:0:0:
216,300,156048,1,10,0:0:0:0:
300,340,156224,2,0,P|372:292|288:292,1,225,4|10,0:0|0:0,0:0:0:0:
328,308,156930,2,0,B|338:268|368:244|368:244|328:244|296:224,1,150,4|0,0:0|0:0,0:0:0:0:
244,160,157459,2,0,L|244:192,6,18.75,10|0|0|0|0|0|0,0:0|0:0|0:0|0:0|0:0|0:0|0:0,0:0:0:0:
168,200,157812,5,0,0:0:0:0:
168,224,157900,1,8,0:0:0:0:
104,272,157989,1,8,0:0:0:0:
104,248,158077,1,0,0:0:0:0:
112,172,158165,6,0,L|112:132,1,37.5
172,88,158342,1,0,0:0:0:0:
172,120,158430,1,0,0:0:0:0:
164,196,158518,6,0,B|116:200|104:156|89:139,1,75
264,76,158871,1,0,0:0:0:0:
348,280,159047,1,0,0:0:0:0:
281,266,159224,2,0,L|376:286,1,67.4999979400635
240,104,159577,2,0,L|164:148,1,67.4999979400635
208,180,159930,6,0,P|160:184|160:196,1,67.4999979400635
208,180,160283,6,0,P|168:207|174:217,1,67.4999979400635
276,208,160636,2,0,L|296:176,1,30
353,163,160989,2,0,P|321:195|285:151,1,82.5000025177003
212,104,161342,1,0,0:0:0:0:
128,56,161518,1,0,0:0:0:0:
96,156,161695,6,8,P|84:208|88:228,1,41.2500012588501
220,256,161871,2,8,P|198:253|180:245,1,41.2500012588501
144,76,162047,2,8,P|193:96|213:96,1,41.2500012588501
236,176,162223,2,8,P|241:155|251:137,1,41.2500012588501
244,176,162400,6,0,L|276:160,1,30
280,96,162753,6,0,P|312:108|340:168,1,93.75
344,252,163106,6,8,P|320:252|312:248,1,18.75
344,260,163195,2,8,P|321:268|312:267,1,18.75
344,268,163283,2,8,P|325:283|316:285,1,18.75
344,280,163459,5,0,0:0:0:0:
344,288,163812,2,4,P|296:292|232:272,1,97.4999955368044
360,56,164165,2,4,P|387:95|402:160,1,97.4999955368044
232,48,164518,6,0,P|200:52|184:60,1,48.7499977684022
296,104,164695,2,0,P|272:144|268:160,1,48.7499977684022
204,168,164871,2,0,P|232:204|304:208,1,112.500004291535
255,195,165224,2,0,P|291:167|291:95,1,112.500004291535
208,72,165577,6,0,B|300:64|308:48|308:48|328:80|328:80|358:50|404:52,1,225.000008583069
428,152,166018,2,0,P|388:132|384:128,1,28.1250010728836
332,168,166106,2,0,P|364:184|376:184,1,28.1250010728836
376,188,166283,1,0,0:0:0:0:
384,192,166636,1,0,0:0:0:0:
388,196,166989,5,0,0:0:0:0:
324,284,167165,1,0,0:0:0:0:
212,292,167342,1,0,0:0:0:0:
128,220,167518,1,0,0:0:0:0:
136,116,167695,6,0,P|168:112|252:140,1,112.500004291535
243,134,167959,1,0,0:0:0:0:
243,134,168047,1,0,0:0:0:0:
224,216,168224,6,0,P|256:212|340:240,1,112.500004291535
320,344,168753,2,0,L|356:328,5,28.1250010728836
400,260,169106,2,0,P|420:236|380:216,1,84.3750032186509
288,156,169459,6,0,L|240:184,1,56.2500021457673
172,104,169636,2,0,L|212:60,1,56.2500021457673
408,116,169812,1,0,0:0:0:0:
288,156,169989,1,0,0:0:0:0:
408,204,170165,1,0,0:0:0:0:
268,88,170342,1,0,0:0:0:0:
228,224,170518,1,0,0:0:0:0:
344,288,170695,5,0,0:0:0:0:
344,288,170871,1,0,0:0:0:0:
344,288,171047,1,0,0:0:0:0:
344,288,171224,6,0,B|376:248|376:248|384:236|384:236|376:248|376:248|316:208,1,150
212,188,171930,2,0,P|192:136|212:104,1,75
276,144,172283,2,0,L|104:156,1,150
96,176,172989,1,0,0:0:0:0:
108,200,173165,1,0,0:0:0:0:
140,220,173342,1,0,0:0:0:0:
184,220,173518,1,0,0:0:0:0:
228,196,173695,6,0,P|320:176|332:168,1,75
252,164,174047,2,0,P|272:256|280:268,1,75
272,256,174400,1,4,0:0:0:0:
300,280,174489,1,4,0:0:0:0:
324,304,174577,1,4,0:0:0:0:
328,368,174753,6,4,P|388:328|388:288,1,112.5
340,64,175106,6,4,P|266:63|250:99,1,112.5
103,183,175459,6,4,P|139:247|178:243,1,112.5
166,116,175812,6,4,P|102:152|106:191,1,112.5
104,224,176165,1,0,0:0:0:0:
304,288,176342,1,0,0:0:0:0:
264,104,176518,2,0,L|292:72,3,37.5
188,136,176871,6,4,L|248:216,1,75
340,152,177224,2,4,L|400:232,1,75
436,292,177577,1,0,0:0:0:0:
116,144,177930,1,0,0:0:0:0:
376,48,178283,5,0,0:0:0:0:
348,152,178459,1,0,0:0:0:0:
232,220,178636,1,0,0:0:0:0:
116,160,178812,2,0,P|92:108|80:16,1,150
212,72,179342,5,4,0:0:0:0:
424,80,179518,1,4,0:0:0:0:
220,196,179695,5,4,0:0:0:0:
376,20,179871,1,4,0:0:0:0:
264,24,180047,5,4,0:0:0:0:
408,152,180224,1,4,0:0:0:0:
480,160,180400,2,0,P|464:196|400:224,1,112.5
176,296,180753,6,0,P|152:228|196:172,1,140.625,2|0,0:0|0:0,0:0:0:0:
250,141,181106,2,0,P|256:200|254:210,1,46.875,2|0,0:0|0:0,0:0:0:0:
181,156,181283,2,0,P|175:97|177:87,1,46.875
235,54,181459,5,8,0:0:0:0:
101,81,181636,1,0,0:0:0:0:
251,127,181812,5,2,0:0:0:0:
115,106,181989,1,8,0:0:0:0:
241,201,182165,5,0,0:0:0:0:
120,134,182342,5,0,0:0:0:0:
148,254,182518,5,0,0:0:0:0:
235,54,182695,1,0,0:0:0:0:
256,218,182871,6,0,L|256:287,1,46.875,8|0,0:0|0:0,0:0:0:0:
332,194,183048,2,0,L|380:145,1,46.875
419,109,183224,1,0,0:0:0:0:
327,41,183401,1,0,0:0:0:0:
349,208,183577,1,2,0:0:0:0:
349,208,183930,6,0,L|418:208,1,46.875,2|0,0:0|0:0,0:0:0:0:
295,309,184106,2,0,L|343:260,1,46.875
262,215,184283,6,0,P|265:172|262:146,1,46.875,8|0,0:0|0:0,0:0:0:0:
204,80,184459,2,0,P|200:122|204:149,1,46.875
253,238,184636,6,0,P|225:205|204:189,1,46.875,2|0,0:0|0:0,0:0:0:0:
116,183,184812,2,0,P|143:215|164:231,1,46.875,8|0,0:0|0:0,0:0:0:0:
262,260,184989,6,0,P|219:256|173:298,1,93.75,0|2,0:0|0:0,0:0:0:0:
200,352,185253,6,0,P|242:355|289:314,1,93.75
262,260,185518,5,0,0:0:0:0:
341,271,185695,5,8,0:0:0:0:
378,271,185783,1,8,0:0:0:0:
415,271,185871,1,8,0:0:0:0:
477,169,186048,1,8,0:0:0:0:
378,271,186224,1,0,0:0:0:0:
287,85,186401,6,0,P|352:55|412:94,1,140.625,2|0,0:0|0:0,0:0:0:0:
362,168,186753,2,0,B|348:134|348:134|345:103,1,46.875,2|0,0:0|0:0,0:0:0:0:
435,64,186930,2,0,B|420:97|420:97|401:121,1,46.875
277,170,187106,5,2,0:0:0:0:
348,32,187283,1,0,0:0:0:0:
261,198,187459,5,2,0:0:0:0:
404,137,187636,1,8,0:0:0:0:
230,209,187812,5,0,0:0:0:0:
379,254,187989,1,2,0:0:0:0:
246,311,188165,1,2,0:0:0:0:
404,137,188342,1,0,0:0:0:0:
214,107,188518,6,0,L|144:107,1,46.875,8|0,0:0|0:0,0:0:0:0:
82,167,188695,2,0,L|152:167,1,46.875
265,165,188871,2,0,P|285:97|248:37,1,140.625
225,35,189224,6,0,B|260:47|299:36|299:36|339:44|389:38,1,140.625,2|0,0:0|0:0,0:0:0:0:
440,64,189577,2,0,L|380:64,1,46.875
265,165,189753,2,0,L|325:165,1,46.875
333,97,189930,6,0,P|327:38|329:28,1,46.875,8|0,0:0|0:0,0:0:0:0:
409,146,190106,2,0,P|415:205|413:215,1,46.875
381,259,190283,1,2,0:0:0:0:
348,108,190459,1,8,0:0:0:0:
294,298,190636,5,8,0:0:0:0:
219,68,190812,1,2,0:0:0:0:
401,197,190989,1,2,0:0:0:0:
169,222,191165,1,8,0:0:0:0:
364,96,191342,6,0,L|364:57,4,23.4375,8|8|8|8|8,0:0|0:0|0:0|0:0|0:0,0:0:0:0:
383,14,191695,6,0,P|382:67|390:113,1,93.75,8|0,0:0|0:0,0:0:0:0:
433,169,192048,6,0,B|466:146|466:146|464:20,1,163.12500497818,2|0,0:0|0:0,0:0:0:0:
344,36,192401,2,0,B|378:44|378:44|403:40,1,54.3750016593934,2|0,0:0|0:0,0:0:0:0:
271,57,192577,2,0,B|289:86|289:86|309:101,1,54.3750016593934
204,20,192753,6,0,B|196:75|196:75|221:132,1,108.750003318787,8|0,0:0|0:0,0:0:0:0:
346,307,193106,2,0,B|354:252|354:252|329:195,1,108.750003318787,2|8,0:0|0:0,0:0:0:0:
221,246,193459,2,0,L|277:251,1,54.3750016593934
478,246,193636,2,0,L|422:251,1,54.3750016593934,2|0,0:0|0:0,0:0:0:0:
267,148,193812,1,2,0:0:0:0:
409,150,193989,1,0,0:0:0:0:
337,84,194165,6,0,L|337:27,1,54.3750016593934,8|0,0:0|0:0,0:0:0:0:
338,158,194342,1,0,0:0:0:0:
339,232,194518,1,0,0:0:0:0:
340,306,194695,1,0,0:0:0:0:
337,84,194871,5,2,0:0:0:0:
337,84,195224,6,0,P|296:82|270:90,1,54.3750016593934,2|0,0:0|0:0,0:0:0:0:
293,194,195401,2,0,P|334:196|360:188,1,54.3750016593934
423,152,195577,6,0,P|425:111|417:85,1,54.3750016593934,8|0,0:0|0:0,0:0:0:0:
204,123,195753,2,0,P|202:164|210:190,1,54.3750016593934
329,334,195930,6,0,P|331:293|323:267,1,54.3750016593934,2|0,0:0|0:0,0:0:0:0:
122,50,196106,2,0,P|120:91|128:117,1,54.3750016593934,8|0,0:0|0:0,0:0:0:0:
134,228,196283,6,0,P|110:202|101:254,1,108.750003318787,0|2,0:0|0:0,0:0:0:0:
134,228,196548,6,0,P|98:226|129:269,1,108.750003318787
134,228,196812,5,0,0:0:0:0:
188,311,196989,1,8,0:0:0:0:
224,334,197077,1,8,0:0:0:0:
264,317,197165,1,8,0:0:0:0:
229,168,197342,1,8,0:0:0:0:
224,334,197518,1,0,0:0:0:0:
232,143,197695,6,0,B|239:109|226:33|226:33|249:55|299:51,1,163.12500497818,2|0,0:0|0:0,0:0:0:0:
327,52,198048,2,0,P|286:54|260:46,1,54.3750016593934,2|0,0:0|0:0,0:0:0:0:
376,159,198224,2,0,P|345:131|332:107,1,54.3750016593934
468,43,198401,6,8,P|440:73|416:86,1,54.3750016593934
233,172,198577,2,0,P|273:169|300:178,1,54.3750016593934
258,246,198753,1,2,0:0:0:0:
165,118,198930,1,8,0:0:0:0:
316,73,199106,5,0,0:0:0:0:
233,172,199283,1,2,0:0:0:0:
137,28,199459,5,2,0:0:0:0:
125,246,199636,1,0,0:0:0:0:
324,159,199812,5,8,0:0:0:0:
75,131,199989,1,0,0:0:0:0:
190,352,200165,2,0,P|248:336|359:360,1,163.12500497818
455,305,200518,6,0,P|387:284|348:356,1,163.12500497818,2|0,0:0|0:0,0:0:0:0:
408,346,200871,2,0,B|406:321|406:321|391:287,1,54.3750016593934,2|0,0:0|0:0,0:0:0:0:
235,252,201048,2,0,B|254:268|254:268|288:281,1,54.3750016593934
418,195,201224,6,0,B|393:197|393:197|359:212,1,54.3750016593934,8|0,0:0|0:0,0:0:0:0:
254,325,201401,2,0,B|270:305|270:305|283:271,1,54.3750016593934
257,121,201577,2,0,B|259:145|259:145|274:180,1,54.3750016593934,2|0,0:0|0:0,0:0:0:0:
361,285,201753,1,8,0:0:0:0:
393,41,201930,5,8,0:0:0:0:
82,118,202106,1,2,0:0:0:0:
361,285,202283,1,2,0:0:0:0:
228,20,202459,1,8,0:0:0:0:
168,325,202636,6,8,L|162:278,1,27.1875008296967
144,305,202724,6,8,L|172:267,1,27.1875008296967
141,273,202812,5,8,0:0:0:0:
293,60,202989,6,0,P|238:101|156:48,1,163.12500497818
161,61,203342,2,0,P|184:112|144:176,1,108.750003318787,4|0,0:0|0:0,0:0:0:0:
72,216,203695,1,2,0:0:0:0:
96,112,203871,1,0,0:0:0:0:
144,292,204047,2,0,L|148:208,1,81.56250248909,8|0,0:0|0:0,0:0:0:0:
152,136,204400,1,2,0:0:0:0:
168,328,204577,1,0,0:0:0:0:
236,208,204753,5,4,0:0:0:0:
200,344,204930,2,0,P|216:320|244:308,1,48.7499977684022,2|0,0:0|0:0,0:0:0:0:
368,340,205106,2,0,P|344:348|320:344,1,48.7499977684022,2|0,0:0|0:0,0:0:0:0:
152,208,205283,2,0,L|200:240,1,48.7499977684022
292,240,205459,2,0,B|276:192|276:192|288:144,1,97.4999955368044,8|0,0:0|0:0,0:0:0:0:
300,136,205812,2,0,P|340:132|384:136,1,75
284,248,206165,6,0,P|236:252|180:228,1,89.9999972534181,4|0,0:0|0:0,0:0:0:0:
184,44,206518,2,0,P|212:44|236:52,1,52.4999983978272,2|0,0:0|0:0,0:0:0:0:
244,172,206695,2,0,P|220:156|200:128,1,52.4999983978272
288,108,206871,2,0,P|348:80|364:16,1,104.999996795654,8|0,0:0|0:0,0:0:0:0:
452,220,207224,2,8,B|476:284|476:284|456:348,1,134.999995880127
456,347,207577,5,4,0:0:0:0:
272,272,207753,2,0,P|284:304|312:328,1,67.4999979400635,2|0,0:0|0:0,0:0:0:0:
304,180,207930,2,0,P|236:184|184:236,1,134.999995880127,2|0,0:0|0:0,0:0:0:0:
148,336,208283,1,0,0:0:0:0:
148,336,208371,1,0,0:0:0:0:
148,336,208459,1,0,0:0:0:0:
88,112,208636,5,8,0:0:0:0:
88,112,208989,2,0,P|136:120|184:112,1,97.4999955368044,4|0,0:0|0:0,0:0:0:0:
364,40,209342,1,2,0:0:0:0:
252,144,209518,1,0,0:0:0:0:
460,160,209695,2,0,B|404:132|404:132|372:144,1,97.4999955368044,8|0,0:0|0:0,0:0:0:0:
284,196,210047,5,2,0:0:0:0:
316,336,210224,1,0,0:0:0:0:
284,196,210400,2,0,L|288:252,1,48.7499977684022,4|0,0:0|0:0,0:0:0:0:
220,360,210577,2,0,L|216:304,1,48.7499977684022,2|0,0:0|0:0,0:0:0:0:
144,168,210753,2,0,L|148:224,1,48.7499977684022,2|0,0:0|0:0,0:0:0:0:
52,372,210930,2,0,L|48:320,1,48.7499977684022
44,184,211106,6,0,B|84:160|84:160|156:160,1,97.4999955368044,8|0,0:0|0:0,0:0:0:0:
248,240,211459,2,0,B|208:264|208:264|157:264,1,97.4999955368044
248,116,211812,2,0,P|308:124|352:176,1,112.500004291535,4|0,0:0|0:0,0:0:0:0:
364,168,212165,2,0,P|376:228|332:288,1,112.500004291535,2|0,0:0|0:0,0:0:0:0:
344,288,212518,2,0,B|404:272|404:272|452:288,1,112.500004291535,8|0,0:0|0:0,0:0:0:0:
451,287,212871,5,8,0:0:0:0:
292,376,213047,1,0,0:0:0:0:
320,152,213224,1,8,0:0:0:0:
288,360,213400,6,0,L|232:348,1,56.2500021457673,2|0,0:0|0:0,0:0:0:0:
328,140,213577,2,0,L|392:156,1,56.2500021457673,2|0,0:0|0:0,0:0:0:0:
264,224,213753,2,0,P|236:208|224:184,1,56.2500021457673
220,96,213930,2,0,L|200:136,4,28.1250010728836
220,96,214283,5,8,0:0:0:0:
176,197,214636,2,0,P|207:150|220:85,1,112.500004291535,4|0,0:0|0:0,0:0:0:0:
212,20,214989,1,2,0:0:0:0:
272,212,215165,1,0,0:0:0:0:
332,68,215342,2,0,B|340:40|340:40|352:136,1,112.500004291535,8|0,0:0|0:0,0:0:0:0:
376,248,215695,5,8,0:0:0:0:
208,164,215871,1,0,0:0:0:0:
448,128,216047,1,4,0:0:0:0:
448,128,216224,6,0,L|440:196,1,56.2500021457673,2|0,0:0|0:0,0:0:0:0:
364,288,216400,2,0,L|372:224,1,56.2500021457673,2|0,0:0|0:0,0:0:0:0:
292,88,216577,2,0,B|272:144|272:144|284:216,1,112.500004291535,0|8,0:0|0:0,0:0:0:0:
244,336,216930,1,0,0:0:0:0:
244,336,217018,1,0,0:0:0:0:
244,336,217106,2,0,B|208:280|208:280|208:228,1,112.500004291535
124,80,217459,6,0,P|140:136|120:204,1,112.500004291535,4|0,0:0|0:0,0:0:0:0:
48,324,217812,2,0,P|80:320|104:324,1,56.2500021457673,2|0,0:0|0:0,0:0:0:0:
248,288,217989,2,0,P|228:276|196:268,1,56.2500021457673
48,176,218165,2,0,P|108:156|180:168,1,134.999995880127,8|0,0:0|0:0,0:0:0:0:
356,264,218518,1,8,0:0:0:0:
296,144,218695,1,0,0:0:0:0:
464,184,218871,6,0,P|472:212|464:252,1,67.4999979400635,4|0,0:0|0:0,0:0:0:0:
352,320,219047,2,0,P|352:288|368:248,1,67.4999979400635,2|0,0:0|0:0,0:0:0:0:
360,120,219224,2,0,P|316:172|248:180,1,134.999995880127,2|0,0:0|0:0,0:0:0:0:
144,32,219577,1,0,0:0:0:0:
144,32,219665,1,0,0:0:0:0:
144,32,219753,1,0,0:0:0:0:
88,168,219930,5,8,0:0:0:0:
88,168,220283,2,0,L|128:264,1,97.4999955368044,4|0,0:0|0:0,0:0:0:0:
168,364,220636,1,2,0:0:0:0:
196,192,220812,1,0,0:0:0:0:
36,280,220989,2,0,P|52:324|96:348,1,97.4999955368044,8|0,0:0|0:0,0:0:0:0:
260,240,221342,5,8,0:0:0:0:
256,364,221518,1,0,0:0:0:0:
308,176,221695,1,4,0:0:0:0:
200,308,221871,2,0,L|268:304,1,48.7499977684022,2|0,0:0|0:0,0:0:0:0:
344,108,222047,2,0,L|276:112,1,48.7499977684022,2|0,0:0|0:0,0:0:0:0:
128,188,222224,2,0,P|172:208|248:184,1,97.4999955368044
416,92,222577,5,0,0:0:0:0:
416,92,222665,1,0,0:0:0:0:
416,84,222753,2,0,B|388:128|388:128|440:128|440:128,1,97.4999955368044
416,200,223106,2,0,B|416:256|416:256|360:256,1,112.500004291535,4|0,0:0|0:0,0:0:0:0:
288,280,223459,2,0,B|288:344|288:344|340:344,1,112.500004291535,2|0,0:0|0:0,0:0:0:0:
288,192,223812,2,0,B|288:136|288:136|224:136,1,112.500004291535,8|0,0:0|0:0,0:0:0:0:
108,136,224165,5,4,0:0:0:0:
108,224,224342,2,0,L|168:224,1,56.2500021457673,8|0,0:0|0:0,0:0:0:0:
272,340,224518,2,0,L|196:340,1,56.2500021457673,8|0,0:0|0:0,0:0:0:0:
272,268,224695,2,0,L|272:200,1,56.2500021457673,2|0,0:0|0:0,0:0:0:0:
112,296,224871,2,0,L|112:352,2,56.2500021457673,2|0|0,0:0|0:0|0:0,0:0:0:0:
280,272,225224,5,0,0:0:0:0:
280,272,225312,1,0,0:0:0:0:
280,272,225400,5,0,0:0:0:0:
70,248,225930,6,2,B|110:227|156:232|156:232|158:240|158:240|165:239|165:239|164:231|164:231|172:229|172:229|204:224,1,150,6|0,0:0|0:0,0:0:0:0:
229,84,226459,1,0,0:0:0:0:
366,234,226636,2,0,B|393:195|395:160|395:160|451:169|451:169|452:162|452:162|460:163|460:163|447:234,1,225,0|0,2:0|2:0,2:0:0:0:
405,295,227342,2,0,B|379:324|379:324|336:297|273:293|273:293|293:253|295:216|295:216|287:213|287:213|285:220|285:220|280:210|280:210|272:220|272:220|219:227,1,300,2|0,0:0|0:0,0:0:0:0:
159,302,228224,2,0,L|167:294,1,9.375,8|0,0:0|0:0,0:0:0:0:
124,230,228312,2,0,L|137:216,1,18.75,8|0,0:0|0:0,0:0:0:0:
106,150,228400,2,0,L|132:123,1,37.5,8|0,0:0|0:0,0:0:0:0:
273,116,228753,6,0,B|273:108|273:108|281:108|281:108|282:100|282:100|274:100|274:100|275:92|275:92|277:60|277:60|241:39|190:52,1,150,2|0,0:0|0:0,0:0:0:0:
81,70,229283,1,0,0:0:0:0:
168,188,229459,2,0,B|157:143|133:121|133:121|79:146|79:146|75:139|75:139|68:143|68:143|93:174|89:214,1,225
71,283,230165,2,0,B|64:301|47:324|47:324|58:368,1,75,2|0,0:0|0:0,0:0:0:0:
171,301,230518,2,0,B|231:279,1,48.7499977684022
283,254,230695,2,0,B|234:254,1,48.7499977684022
168,188,230871,2,0,B|183:183|183:183|181:176|181:176|189:174|189:174|191:181|191:181|228:166|267:179,1,112.500004291535
432,328,231577,6,0,B|432:320|432:320|424:320|424:320|424:328|424:328|383:342|352:324,1,84.3750032186509,2|0,0:0|0:0,0:0:0:0:
374,254,231930,2,0,B|313:232,1,48.7499977684022
262,207,232107,2,0,B|310:207,1,48.7499977684022
383,176,232283,2,0,B|361:126|406:83|383:24|383:24|375:24|375:24|375:32|375:32|339:31|295:46,1,225,2|0,0:0|0:0,0:0:0:0:
297,101,232989,2,0,B|296:79|296:79|311:43|311:43|319:44|319:44|320:36|320:36|273:48|213:10|164:46,1,225,2|0,0:0|0:0,0:0:0:0:
144,154,233695,6,2,P|167:206|211:230,1,75
235,143,234047,2,0,L|297:100,1,75
144,154,234400,6,2,P|168:181|179:218,1,75
71,306,234753,1,0,0:0:0:0:
35,100,234930,1,0,0:0:0:0:
118,178,235106,2,2,P|164:143|215:145,1,75,2|2,2:0|2:0,2:0:0:0:
158,69,235459,2,2,P|215:72|253:106,1,75
256,160,235812,6,6,P|360:272|200:216,1,450,6|0,0:0|0:0,0:0:0:0:
280,240,237047,1,0,0:0:0:0:
256,160,237224,6,0,B|295:149|330:147|330:147|341:177|341:177|344:185|344:185|352:182|352:182|355:189|355:189|347:192|347:192|350:200,1,150,2|0,0:0|0:0,0:0:0:0:
272,48,237753,1,0,0:0:0:0:
160,152,237930,2,0,B|117:137|90:111|90:111|118:63|118:63|111:59|111:59|115:52|115:52|152:49|186:84,1,225
280,240,238636,2,0,B|282:278|282:278|246:309|174:307|174:307|150:270|153:230|153:230|145:232|145:232|143:221|143:221|138:234|138:234|108:221|92:190,1,300,2|0,0:0|0:0,0:0:0:0:
78,106,239518,2,8,L|78:115,1,9.375
159,111,239606,2,8,L|159:129,1,18.75
229,148,239695,2,8,L|228:185,1,37.5
360,312,240047,6,0,B|356:305|356:305|362:301|362:301|358:294|358:294|352:298|352:298|348:291|348:291|329:233|280:173,1,150,2|0,0:0|0:0,0:0:0:0:
304,112,240577,1,0,0:0:0:0:
371,157,240753,6,0,B|375:163|375:163|381:159|381:159|385:166|385:166|379:170|379:170|383:177|383:177|398:195|413:227,1,75,2|0,0:0|0:0,0:0:0:0:
293,195,241106,2,0,B|289:201|289:201|282:197|282:197|278:204|278:204|285:208|285:208|280:215|280:215|265:233|253:264,1,75,2|0,0:0|0:0,0:0:0:0:
224,143,241459,6,0,B|216:143|216:143|216:152|216:152|208:151|208:151|208:143|208:143|200:144|200:144|174:142|141:145,1,75,2|0,0:0|0:0,0:0:0:0:
8,184,241812,2,8,B|79:177,1,48.7499977684022
121,208,241989,2,8,B|65:203,1,48.7499977684022
0,268,242165,2,0,B|15:269|15:269|16:261|16:261|24:262|24:262|23:270|23:270|74:285|110:270,1,112.500004291535
112,144,242871,6,0,B|116:137|116:137|109:133|109:133|113:126|113:126|120:130|120:130|124:123|124:123|140:95|140:95|152:96,1,75,2|0,0:0|0:0,0:0:0:0:
182,227,243239,1,8,0:0:0:0:
272,120,243423,1,8,0:0:0:0:
231,66,243607,2,0,B|273:129|270:212|270:212|262:214|262:214|260:207|260:207|205:221,1,225,2|0,0:0|0:0,0:0:0:0:
288,125,244343,2,0,B|318:192|327:269|327:269|317:271|317:271|317:264|317:264|287:271|262:284,1,225,2|0,0:0|0:0,0:0:0:0:
354,170,245153,2,0,B|374:238|393:316|393:316|385:318|385:318|383:311|383:311|350:321|319:342,1,225,2|0,0:0|0:0,0:0:0:0:
256,360,245964,6,4,B|256:312|256:312|208:312|208:312|208:264|208:264|160:264|160:264|160:216|160:216|112:216|112:216|112:168|112:168|64:168|64:168|64:120|64:120|64:72|64:72|112:72|112:72|112:24|112:24|160:24|160:24|208:24|208:24|208:72|208:72|256:72|256:72|304:72|304:72|304:24|304:24|352:24|352:24|400:24|400:24|400:72|400:72|448:72|448:72|448:120|448:120|448:168|448:168|400:168|400:168|400:216|400:216|352:216|352:216|352:264|352:264|304:264|304:264|304:312|304:312|264:312,1,1479.0000451355,2|4,0:0|0:0,0:0:0:0:
256,192,249994,12,0,252192,0:0:0:0:
