osu file format v14

[General]
AudioFilename: audio.mp3
AudioLeadIn: 0
PreviewTime: 48056
Countdown: 0
SampleSet: None
StackLeniency: 0.7
Mode: 0
LetterboxInBreaks: 0
WidescreenStoryboard: 1

[Editor]
DistanceSpacing: 1
BeatDivisor: 4
GridSize: 8
TimelineZoom: 2.5

[Metadata]
Title:HIBANA
TitleUnicode:HIBANA
Artist:Tenjin Kotone
ArtistUnicode:Tenjin Kotone
Creator:gundammango
Version:.
Source:tenjin kotone
Tags:tenjin kotone hibana deco*27
BeatmapID:2079105
BeatmapSetID:991448

[Difficulty]
HPDrainRate:5
CircleSize:3.8
OverallDifficulty:9
ApproachRate:9.4
SliderMultiplier:1.9
SliderTickRate:1

[Events]
//Background and Video events
0,0,"Hibana1.jpg",0,0
Video,0," - DECO_27cover.mp4"
//Break Periods
2,67150,76010
//Storyboard Layer 0 (Background)
//Storyboard Layer 1 (Fail)
//Storyboard Layer 2 (Pass)
//Storyboard Layer 3 (Foreground)
//Storyboard Sound Samples

[TimingPoints]
2450,300,4,2,22,40,1,0
2450,-100,4,2,22,40,0,0
4550,-200,4,2,22,20,0,0
4850,-133.333333333333,4,2,22,60,0,0
9650,-100,4,2,22,50,0,0
19250,-133.333333333333,4,2,22,20,0,0
24050,-133.333333333333,4,2,22,25,0,0
26450,-133.333333333333,4,2,22,30,0,0
27200,-133.333333333333,4,2,22,40,0,0
28850,-100,4,2,22,40,0,0
38450,-117.647058823529,4,2,22,30,0,0
43250,-133.333333333333,4,2,22,30,0,0
43850,-100,4,2,22,40,0,0
44450,-83.3333333333333,4,2,22,40,0,0
45050,-83.3333333333333,4,2,22,40,0,0
45650,-133.333333333333,4,2,22,30,0,0
48050,-83.3333333333333,4,2,22,60,0,1
66050,-83.3333333333333,4,2,22,60,0,0
76550,-133.333333333333,4,2,22,20,0,0
85100,-133.333333333333,4,2,22,30,0,0
86450,-100,4,2,22,40,0,0

[HitObjects]
63,143,2450,6,0,P|61:80|62:17,2,126.666666666667,0|0|0,1:0|1:0|1:0,0:0:0:0:
183,209,3050,2,0,P|183:272|181:335,2,126.666666666667,0|0|0,1:0|1:0|1:0,1:0:0:0:
327,129,3650,6,0,P|326:65|332:-6,2,126.666666666667,0|0|0,1:0|1:0|1:0,1:0:0:0:
327,129,4250,1,0,1:0:0:0:
459,217,4550,2,0,P|469:255|461:298,1,71.25,2|0,0:0|0:0,0:0:0:0:
465,286,4850,1,10,0:0:0:0:
431,276,4925,1,0,0:0:0:0:
397,285,5000,1,0,0:0:0:0:
374,311,5075,1,0,0:0:0:0:
368,346,5150,1,0,0:0:0:0:
339,323,5225,5,0,0:0:0:0:
306,312,5300,1,10,0:0:0:0:
270,308,5375,1,0,0:0:0:0:
235,313,5450,1,0,0:0:0:0:
202,325,5525,1,0,0:0:0:0:
170,342,5600,1,0,0:0:0:0:
141,362,5675,1,0,0:0:0:0:
103,344,5750,2,0,L|91:290,3,35.625001358986,10|0|0|0,0:0|0:0|0:0|0:0,0:0:0:0:
13,246,6050,6,0,L|20:211,3,35.625001358986,10|0|0|0,0:0|0:0|0:0|0:0,0:0:0:0:
103,148,6350,6,0,L|96:113,3,35.625001358986,0|0|10|0,0:0|0:0|0:0|0:0,0:0:0:0:
204,201,6650,1,0,0:0:0:0:
223,171,6725,1,0,0:0:0:0:
253,151,6800,1,0,0:0:0:0:
287,144,6875,1,0,0:0:0:0:
322,149,6950,1,10,0:0:0:0:
352,168,7025,1,0,0:0:0:0:
374,196,7100,2,0,L|376:240,1,35.625001358986
236,342,7250,5,14,0:0:0:0:
236,342,7325,1,0,0:0:0:0:
236,342,7400,2,0,L|184:353,1,35.625001358986
62,266,7550,1,10,0:0:0:0:
62,266,7625,1,0,0:0:0:0:
62,266,7700,2,0,L|10:277,1,35.625001358986
155,138,7850,1,10,0:0:0:0:
155,138,7925,1,0,0:0:0:0:
155,138,8000,2,0,L|164:85,1,35.625001358986,8|0,0:0|0:0,0:0:0:0:
292,240,8150,1,8,0:0:0:0:
292,240,8225,1,0,0:0:0:0:
292,240,8300,2,0,L|283:293,1,35.625001358986,8|8,0:0|0:0,0:0:0:0:
405,140,8450,5,0,1:0:0:0:
405,140,8900,1,0,1:0:0:0:
405,140,9350,2,0,P|384:88|405:16,1,106.875004076958,0|0,1:0|0:0,0:0:0:0:
365,15,9650,6,0,P|306:15|263:30,1,95,6|0,1:0|0:0,0:0:0:0:
183,159,9950,1,8,0:0:0:0:
188,13,10100,1,0,0:0:0:0:
280,172,10250,2,0,B|287:213|287:213|279:284,1,95,0|0,1:0|0:0,0:0:0:0:
122,384,10550,2,0,B|115:343|115:343|123:272,1,95,8|0,0:0|0:0,0:0:0:0:
199,134,10850,5,0,1:0:0:0:
45,192,11000,1,0,0:0:0:0:
253,239,11150,1,8,0:0:0:0:
47,63,11300,1,0,0:0:0:0:
226,108,11450,2,0,L|214:13,1,95,0|0,1:0|0:0,0:0:0:0:
382,216,11750,2,0,L|393:121,1,95,8|8,0:0|0:0,0:0:0:0:
152,270,12050,6,0,P|208:268|253:303,1,95,0|0,1:0|0:0,0:0:0:0:
100,361,12350,1,8,0:0:0:0:
195,192,12500,1,0,0:0:0:0:
53,104,12650,2,0,L|40:211,1,95,0|0,1:0|0:0,0:0:0:0:
154,9,12950,2,0,L|182:112,1,95,8|0,0:0|0:0,0:0:0:0:
260,225,13250,5,0,1:0:0:0:
320,103,13400,1,0,0:0:0:0:
435,255,13550,1,8,0:0:0:0:
399,48,13700,1,0,0:0:0:0:
324,295,13850,2,0,P|276:266|199:314,1,142.5,0|0,1:0|0:0,0:0:0:0:
155,351,14150,2,8,L|154:303,1,47.5,0|8,0:0|0:0,0:0:0:0:
62,216,14300,2,8,L|61:264,1,47.5
60,33,14450,6,0,P|119:37|170:43,1,95,0|0,1:0|0:0,0:0:0:0:
253,96,14750,1,8,0:0:0:0:
82,129,14900,1,0,0:0:0:0:
253,96,15050,2,0,P|248:143|250:192,1,95,0|0,1:0|0:0,0:0:0:0:
378,94,15350,2,0,P|383:47|381:-2,1,95,8|0,0:0|0:0,0:0:0:0:
286,169,15650,5,0,1:0:0:0:
472,189,15800,1,0,0:0:0:0:
263,319,15950,1,8,0:0:0:0:
342,91,16100,1,0,0:0:0:0:
376,306,16250,2,0,L|389:202,2,95,0|0|8,1:0|0:0|0:0,0:0:0:0:
187,118,16700,1,0,1:0:0:0:
187,118,16775,1,0,1:0:0:0:
187,118,16850,6,0,P|127:112|80:131,1,95,8|0,0:0|0:0,0:0:0:0:
124,261,17150,1,0,1:0:0:0:
215,34,17300,1,8,0:0:0:0:
266,251,17450,1,0,0:0:0:0:
104,52,17600,1,0,0:0:0:0:
327,180,17750,5,8,0:0:0:0:
72,151,17900,1,0,1:0:0:0:
338,91,18050,1,8,0:0:0:0:
123,299,18200,1,8,0:0:0:0:
123,299,18275,1,8,0:0:0:0:
123,299,18350,5,8,0:0:0:0:
220,95,18500,1,8,0:0:0:0:
286,272,18650,1,8,0:0:0:0:
107,123,18800,1,0,1:0:0:0:
363,167,18950,2,0,P|387:106|415:66,1,95,0|0,1:0|1:0,0:0:0:0:
355,346,19250,6,0,P|283:311|199:362,1,142.5,4|0,1:0|0:0,0:0:0:0:
145,371,19700,1,0,0:0:0:0:
97,299,19850,1,0,0:0:0:0:
41,371,20000,1,0,0:0:0:0:
97,299,20150,1,0,0:0:0:0:
19,219,20300,6,0,P|69:208|101:204,1,71.2500027179719
37,96,20600,2,0,P|86:112|115:124,1,71.2500027179719
171,20,20900,2,0,P|181:69|186:101,1,71.2500027179719
221,192,21200,1,0,0:0:0:0:
221,192,21350,1,0,0:0:0:0:
312,94,21500,1,0,0:0:0:0:
467,203,21650,6,0,P|470:131|470:60,1,142.500005435944
429,281,22100,1,0,0:0:0:0:
381,209,22250,1,0,0:0:0:0:
325,281,22400,1,0,0:0:0:0:
381,209,22550,1,0,0:0:0:0:
356,116,22700,6,0,P|309:122|287:134,1,71.2500027179719
276,21,23000,2,0,P|238:49|225:71,1,71.2500027179719
137,4,23300,2,0,P|130:50|136:75,1,71.2500027179719
268,175,23600,1,4,0:0:0:0:
268,175,23675,1,4,0:0:0:0:
268,175,23750,2,0,P|213:170|178:176,1,71.2500027179719
135,73,24050,5,0,0:0:0:0:
64,216,24200,1,0,0:0:0:0:
64,216,24500,1,0,0:0:0:0:
144,216,24650,1,0,0:0:0:0:
144,296,24800,1,0,0:0:0:0:
224,296,24950,1,0,0:0:0:0:
295,194,25100,6,0,L|309:290,1,71.2500027179719
410,141,25400,2,0,L|396:237,1,71.2500027179719
267,67,25700,2,0,B|326:47|326:47|423:66,1,142.500005435944
403,61,26300,1,0,0:0:0:0:
206,14,26450,6,0,L|172:26,1,35.625001358986,8|8,0:0|0:0,0:0:0:0:
0,113,26600,1,0,0:0:0:0:
95,1,26750,1,0,0:0:0:0:
180,167,26900,1,0,1:0:0:0:
180,167,26975,1,0,1:0:0:0:
180,167,27050,1,8,0:0:0:0:
298,43,27200,5,8,0:0:0:0:
320,252,27350,1,8,0:0:0:0:
194,51,27500,1,0,0:0:0:0:
113,268,27650,1,8,0:0:0:0:
412,161,27800,5,0,1:0:0:0:
412,161,28100,1,0,1:0:0:0:
412,161,28400,1,0,1:0:0:0:
260,292,28550,2,0,P|316:287|379:335,1,106.875004076958,0|0,1:0|0:0,0:0:0:0:
351,343,28850,6,0,P|248:331|156:360,1,190,4|8,1:0|0:0,0:0:0:0:
112,177,29300,1,0,0:0:0:0:
25,328,29450,1,0,1:0:0:0:
171,235,29600,2,0,B|189:206|189:206|195:120,1,95,0|8,0:0|0:0,0:0:0:0:
333,25,29900,6,0,P|336:107|338:139,1,95,0|0,0:0|1:0,0:0:0:0:
471,254,30200,2,0,P|468:172|466:140,1,95,0|8,0:0|0:0,0:0:0:0:
339,283,30500,2,0,P|336:330|335:377,1,95,0|0,0:0|1:0,1:0:0:0:
277,167,30800,1,0,0:0:0:0:
158,314,30950,1,8,0:0:0:0:
129,194,31100,1,0,0:0:0:0:
256,286,31250,6,0,P|290:216|391:220,1,190,0|8,1:0|0:0,0:0:0:0:
479,150,31700,1,0,0:0:0:0:
406,50,31850,1,0,1:0:0:0:
295,133,32000,2,0,B|281:101|281:101|284:24,1,95,0|8,0:0|0:0,0:0:0:0:
134,94,32300,6,0,P|136:47|138:0,1,95,0|0,0:0|1:0,0:0:0:0:
3,133,32600,2,8,P|1:180|0:228,1,95,0|8,0:0|0:0,0:0:0:0:
187,278,32900,2,0,P|81:295|67:385,1,190
256,350,33350,2,0,P|265:294|306:199,1,142.5,8|0,0:0|0:0,0:0:0:0:
296,214,33650,6,0,B|357:199|357:199|228:164,1,190,4|8,1:0|0:0,0:0:0:0:
431,222,34100,1,0,0:0:0:0:
225,133,34250,1,0,1:0:0:0:
391,74,34400,1,0,0:0:0:0:
207,234,34550,1,8,0:0:0:0:
141,106,34700,6,0,P|86:100|37:107,1,95,0|0,0:0|1:0,0:0:0:0:
291,27,35000,2,0,P|236:21|187:28,1,95,0|8,0:0|0:0,0:0:0:0:
439,106,35300,2,0,P|392:101|329:219,1,190
325,207,35900,1,0,0:0:0:0:
179,356,36050,5,0,1:0:0:0:
305,337,36200,1,0,0:0:0:0:
179,356,36350,2,0,P|176:282|186:237,1,95,8|0,0:0|0:0,0:0:0:0:
269,165,36650,1,0,1:0:0:0:
86,224,36800,1,0,0:0:0:0:
284,299,36950,1,8,0:0:0:0:
112,110,37100,1,0,0:0:0:0:
364,241,37250,5,8,0:0:0:0:
364,241,37325,1,0,0:0:0:0:
364,241,37400,1,0,1:0:0:0:
397,80,37550,1,0,1:0:0:0:
415,312,37700,1,8,0:0:0:0:
316,124,37850,1,8,0:0:0:0:
246,274,38000,1,0,1:0:0:0:
448,204,38150,2,0,B|408:166|408:166|394:64,1,142.5
378,48,38450,6,0,B|358:32|358:32|292:34,1,80.750001540184,4|0,1:0|0:0,0:0:0:0:
56,69,38750,2,0,L|179:86,1,121.125002310276,8|0,0:0|0:0,0:0:0:0:
216,111,39050,1,0,1:0:0:0:
66,253,39200,2,0,L|78:158,1,80.750001540184,0|8,0:0|0:0,0:0:0:0:
175,215,39500,2,0,L|163:310,1,80.750001540184
275,374,39800,5,0,0:0:0:0:
414,282,39950,1,8,0:0:0:0:
287,276,40100,1,0,1:0:0:0:
287,276,40175,1,0,1:0:0:0:
287,276,40250,1,0,1:0:0:0:
438,374,40400,1,0,0:0:0:0:
500,213,40550,2,0,B|509:176|509:176|482:78,1,121.125002310276,8|0,0:0|0:0,0:0:0:0:
470,62,40850,6,0,B|439:70|439:70|365:56,1,80.750001540184,0|0,1:0|0:0,0:0:0:0:
305,220,41150,2,0,L|308:81,1,121.125002310276,8|0,0:0|0:0,0:0:0:0:
295,60,41450,1,0,1:0:0:0:
149,210,41600,2,0,L|229:220,1,80.750001540184,0|8,0:0|0:0,0:0:0:0:
213,123,41900,2,0,L|132:112,1,80.750001540184
134,357,42200,5,0,1:0:0:0:
229,220,42350,1,8,0:0:0:0:
70,232,42500,1,0,1:0:0:0:
258,377,42650,1,0,1:0:0:0:
317,320,42800,1,0,0:0:0:0:
376,384,42950,2,0,B|393:337|393:337|389:250,1,121.125002310276,8|0,0:0|0:0,0:0:0:0:
351,168,43250,6,0,P|373:124|424:103,1,106.875004076958,10|0,0:0|0:0,0:0:0:0:
398,28,43550,2,0,P|356:17|289:24,1,106.875004076958,10|0,0:0|0:0,0:0:0:0:
219,152,43850,6,0,P|214:100|160:11,1,142.5,10|0,0:0|0:0,0:0:0:0:
111,75,44150,2,8,B|77:139|140:175|102:239,1,142.5,10|0,0:0|0:0,0:0:0:0:
242,254,44450,6,0,P|335:261|427:269,1,170.999994781494,10|0,0:0|0:0,0:0:0:0:
414,332,44750,2,0,B|337:291|310:375|239:323,1,170.999994781494,10|0,0:0|0:0,0:0:0:0:
184,312,45050,5,10,0:0:0:0:
152,312,45200,1,0,0:0:0:0:
73,194,45350,1,10,0:0:0:0:
41,194,45500,1,0,0:0:0:0:
197,62,45650,6,0,P|268:50|329:107,1,142.500005435944,12|0,0:0|0:0,0:0:0:0:
287,255,46100,2,0,P|290:185|249:129,1,142.500005435944,12|0,0:0|0:0,0:0:0:0:
279,345,46550,2,0,P|345:320|373:256,1,142.500005435944,8|0,0:0|0:0,0:0:0:0:
373,258,47450,1,8,0:0:0:0:
378,236,47525,1,8,0:0:0:0:
378,214,47600,1,8,0:0:0:0:
375,192,47675,1,8,0:0:0:0:
371,170,47750,1,8,0:0:0:0:
369,147,47825,1,8,0:0:0:0:
370,125,47900,1,8,0:0:0:0:
375,104,47975,1,8,0:0:0:0:
384,80,48050,6,0,P|414:125|409:191,1,113.999996520996,6|0,1:0|0:0,0:0:0:0:
238,103,48350,2,0,P|235:46|266:0,1,113.999996520996,10|0,0:0|0:0,0:0:0:0:
67,175,48650,2,0,B|148:174|148:174|241:210,1,170.999994781494,2|0,1:0|0:0,0:0:0:0:
278,270,48950,1,10,0:0:0:0:
140,365,49100,6,0,P|123:282|129:240,1,113.999996520996,0|2,0:0|1:0,0:0:0:0:
302,176,49400,1,0,0:0:0:0:
52,252,49550,1,10,0:0:0:0:
168,79,49700,1,0,0:0:0:0:
278,270,49850,2,0,L|285:387,1,113.999996520996,2|0,1:0|0:0,0:0:0:0:
440,163,50150,2,0,L|433:280,1,113.999996520996,10|0,0:0|0:0,0:0:0:0:
338,48,50450,6,0,P|403:44|454:47,1,113.999996520996,2|0,1:0|0:0,0:0:0:0:
279,140,50750,1,10,0:0:0:0:
418,125,50900,1,0,0:0:0:0:
224,48,51050,2,0,P|241:102|241:162,1,113.999996520996,2|0,1:0|0:0,0:0:0:0:
189,253,51350,1,10,0:0:0:0:
52,166,51500,2,0,B|89:114|89:114|72:297,1,227.999993041992,4|0,0:0|0:0,0:0:0:0:
181,384,51950,6,8,L|197:314,1,56.9999982604981
292,237,52100,2,8,L|304:292,1,56.9999982604981
428,384,52250,2,0,B|444:341|426:303|426:303|437:260,1,113.999996520996,2|0,1:0|0:0,0:0:0:0:
437,140,52550,1,10,0:0:0:0:
403,113,52625,1,8,0:0:0:0:
363,100,52700,1,8,0:0:0:0:
320,102,52775,1,8,0:0:0:0:
281,119,52850,6,0,P|339:143|407:126,1,113.999996520996,2|0,1:0|0:0,0:0:0:0:
239,26,53150,2,0,P|181:2|113:19,1,113.999996520996,10|0,0:0|0:0,0:0:0:0:
36,169,53450,2,0,B|117:168|117:168|210:204,1,170.999994781494,2|0,1:0|0:0,0:0:0:0:
242,268,53750,1,10,0:0:0:0:
340,379,53900,6,0,P|349:307|372:242,1,113.999996520996,0|2,0:0|1:0,0:0:0:0:
422,139,54200,1,0,0:0:0:0:
299,164,54350,1,10,0:0:0:0:
480,243,54500,1,0,0:0:0:0:
290,85,54650,2,0,P|335:51|389:34,1,113.999996520996,2|0,1:0|0:0,0:0:0:0:
169,93,54950,2,0,P|190:41|229:0,1,113.999996520996,14|0,0:0|0:0,0:0:0:0:
143,206,55250,6,0,P|84:198|29:201,1,113.999996520996,2|8,1:0|0:0,0:0:0:0:
171,320,55550,1,10,0:0:0:0:
54,297,55700,1,0,1:0:0:0:
226,239,55850,2,0,P|220:319|227:374,1,113.999996520996,0|0,1:0|0:0,0:0:0:0:
354,285,56150,1,10,0:0:0:0:
486,325,56300,6,0,B|449:377|449:377|466:194,1,227.999993041992,4|0,0:0|0:0,0:0:0:0:
472,42,56750,2,8,L|457:110,1,56.9999982604981,10|8,0:0|0:0,0:0:0:0:
355,141,56900,2,8,L|342:85,1,56.9999982604981
213,0,57050,2,0,L|189:118,1,113.999996520996,2|0,1:0|0:0,0:0:0:0:
14,222,57350,2,0,P|73:173|140:231,1,170.999994781494,10|0,0:0|0:0,0:0:0:0:
196,349,57650,6,0,L|220:224,1,113.999996520996,6|0,1:0|0:0,0:0:0:0:
384,118,57950,2,0,L|405:229,1,113.999996520996,10|0,0:0|0:0,0:0:0:0:
218,332,58250,6,0,L|242:207,1,113.999996520996,2|0,1:0|0:0,0:0:0:0:
406,101,58550,2,0,L|427:212,1,113.999996520996,10|0,0:0|0:0,0:0:0:0:
256,72,58850,6,0,P|190:46|133:60,1,113.999996520996,2|0,1:0|0:0,0:0:0:0:
1,211,59150,2,0,P|51:235|107:230,1,113.999996520996,10|0,0:0|0:0,0:0:0:0:
262,101,59450,6,0,P|196:75|139:89,1,113.999996520996,2|0,1:0|0:0,0:0:0:0:
7,240,59750,2,0,P|57:264|113:259,1,113.999996520996,10|0,0:0|0:0,0:0:0:0:
361,182,60050,6,0,P|358:115|385:63,1,113.999996520996,2|0,1:0|0:0,0:0:0:0:
404,255,60350,2,0,P|463:285|495:335,1,113.999996520996,10|0,0:0|0:0,0:0:0:0:
319,255,60650,2,0,P|262:291|203:293,1,113.999996520996,2|0,1:0|0:0,0:0:0:0:
110,351,60950,1,10,0:0:0:0:
16,126,61100,6,0,P|7:209|6:254,1,113.999996520996,4|0,0:0|1:0,0:0:0:0:
189,105,61400,1,0,0:0:0:0:
16,126,61550,1,10,0:0:0:0:
115,243,61700,1,0,0:0:0:0:
193,63,61850,2,0,P|270:46|321:47,1,113.999996520996,2|0,1:0|0:0,0:0:0:0:
447,198,62150,2,0,B|377:225|348:158|271:211,1,170.999994781494,4|0,0:0|0:0,0:0:0:0:
241,355,62450,6,0,L|217:230,1,113.999996520996,2|0,1:0|0:0,0:0:0:0:
52,125,62750,2,0,L|31:236,1,113.999996520996,10|0,0:0|0:0,0:0:0:0:
218,339,63050,6,0,L|194:214,1,113.999996520996,2|0,1:0|0:0,0:0:0:0:
30,108,63350,2,0,L|9:219,1,113.999996520996,10|0,0:0|0:0,0:0:0:0:
180,79,63650,6,0,P|246:53|303:67,1,113.999996520996,2|0,1:0|0:0,0:0:0:0:
435,218,63950,2,0,P|385:242|329:237,1,113.999996520996,10|0,0:0|0:0,0:0:0:0:
174,108,64250,6,0,P|240:82|297:96,1,113.999996520996,2|0,1:0|0:0,0:0:0:0:
236,249,64550,1,10,0:0:0:0:
50,238,64700,2,0,P|107:216|182:215,1,113.999996520996,0|0,1:0|0:0,0:0:0:0:
352,290,65000,5,0,1:0:0:0:
181,313,65150,1,12,0:0:0:0:
278,164,65300,1,2,1:0:0:0:
358,384,65450,2,0,P|373:318|471:270,1,170.999994781494,10|0,0:0|0:0,0:0:0:0:
458,269,65750,1,8,0:0:0:0:
456,226,65825,1,8,0:0:0:0:
455,184,65900,1,8,0:0:0:0:
453,141,65975,1,8,0:0:0:0:
452,98,66050,1,8,0:0:0:0:
244,19,66950,5,0,1:0:0:0:
40,47,76550,6,0,L|34:136,1,71.2500027179719
136,230,76850,6,0,B|107:214|107:214|113:100,1,142.500005435944
198,36,77300,1,0,0:0:0:0:
197,141,77450,1,0,0:0:0:0:
198,36,77600,1,0,0:0:0:0:
197,141,77750,1,0,0:0:0:0:
325,90,77900,6,0,L|329:18,1,71.2500027179719
403,159,78200,2,0,L|407:87,1,71.2500027179719
331,237,78500,2,0,L|326:165,1,71.2500027179719
415,239,78800,1,0,0:0:0:0:
458,313,78950,1,0,0:0:0:0:
400,375,79100,1,0,0:0:0:0:
369,303,79250,6,0,B|331:331|331:331|230:322,1,142.500005435944
152,264,79700,1,0,0:0:0:0:
151,369,79850,1,0,0:0:0:0:
152,264,80000,1,0,0:0:0:0:
151,369,80150,1,0,0:0:0:0:
56,250,80300,6,0,L|140:242,1,71.2500027179719
94,165,80600,2,0,L|10:157,1,71.2500027179719
56,80,80900,2,0,L|140:72,1,71.2500027179719
242,8,81350,6,0,P|233:71|246:127,1,106.875004076958
240,113,81650,2,0,P|310:79|378:120,1,142.500005435944
262,260,82100,1,0,0:0:0:0:
306,182,82250,1,0,0:0:0:0:
351,260,82400,1,0,0:0:0:0:
218,182,82550,1,0,0:0:0:0:
173,260,82700,1,0,0:0:0:0:
166,276,83000,5,0,0:0:0:0:
64,337,83300,1,0,0:0:0:0:
64,337,83450,2,0,B|35:240|92:275|54:181,1,142.500005435944
60,198,84050,5,0,0:0:0:0:
178,93,84200,1,0,0:0:0:0:
161,214,84350,1,0,0:0:0:0:
108,51,84500,1,0,0:0:0:0:
324,196,84650,5,0,0:0:0:0:
96,130,84800,1,0,0:0:0:0:
326,89,84950,1,0,0:0:0:0:
167,247,85100,1,0,0:0:0:0:
244,58,85250,5,0,0:0:0:0:
305,304,85400,1,0,0:0:0:0:
305,304,85475,1,0,0:0:0:0:
305,304,85550,1,0,0:0:0:0:
396,129,85700,1,0,0:0:0:0:
412,337,85850,5,0,0:0:0:0:
289,135,86000,1,0,0:0:0:0:
289,135,86075,1,0,0:0:0:0:
289,135,86150,1,0,0:0:0:0:
200,312,86300,1,0,0:0:0:0:
182,312,86375,1,0,0:0:0:0:
164,311,86450,6,0,P|120:314|75:291,1,95
46,119,86750,1,0,0:0:0:0:
20,223,86900,1,0,0:0:0:0:
132,127,87050,2,0,B|128:73|128:73|143:22,1,95
346,70,87350,1,0,0:0:0:0:
299,150,87500,6,0,P|314:105|345:70,1,95
446,254,87800,2,0,P|430:209|400:173,1,95
288,339,88100,2,0,P|303:294|333:258,1,95
370,382,88400,1,0,0:0:0:0:
219,284,88550,1,0,0:0:0:0:
197,376,88700,1,0,0:0:0:0:
34,248,88850,6,0,P|84:251|137:247,1,95
166,42,89150,1,0,0:0:0:0:
230,185,89300,1,0,0:0:0:0:
98,125,89450,2,0,P|48:128|-5:124,1,95
3,125,89750,1,0,0:0:0:0:
333,110,89900,6,0,P|325:59|319:11,1,95
433,209,90200,2,0,P|440:158|447:110,1,95
316,201,90500,2,0,P|388:231|414:346,1,190
259,298,90950,2,0,P|326:330|270:353,1,142.5
252,378,91250,6,0,P|200:369|157:379,1,95
56,189,91550,2,0,P|44:242|45:297,1,95
207,185,91850,1,0,0:0:0:0:
56,189,92000,1,0,0:0:0:0:
210,190,92150,1,0,0:0:0:0:
119,34,92300,6,0,P|33:38|6:48,1,95
312,108,92600,2,0,P|226:112|199:122,1,95
446,44,92900,2,0,B|464:1|464:1|463:150,1,190
363,261,93350,2,0,P|431:260|462:281,1,95
279,201,93650,5,0,0:0:0:0:
163,340,93800,1,0,0:0:0:0:
193,157,93950,1,0,0:0:0:0:
267,285,94100,2,0,L|281:389,1,95
121,237,94400,1,0,0:0:0:0:
307,175,94550,1,0,0:0:0:0:
120,114,94700,1,0,0:0:0:0:
96,114,94775,1,0,0:0:0:0:
72,114,94850,1,0,0:0:0:0:
235,38,95000,1,0,0:0:0:0:
259,38,95075,1,0,0:0:0:0:
283,38,95150,1,0,0:0:0:0:
