osu file format v14

[General]
AudioFilename: audio.mp3
AudioLeadIn: 0
PreviewTime: 61003
Countdown: 0
SampleSet: Soft
StackLeniency: 0.2
Mode: 0
LetterboxInBreaks: 0
WidescreenStoryboard: 0

[Editor]
DistanceSpacing: 0.6
BeatDivisor: 4
GridSize: 4
TimelineZoom: 1.6

[Metadata]
Title:Darling Dance
TitleUnicode:ダーリンダンス
Artist:Tenjin Kotone
ArtistUnicode:天神子兎音
Creator:Houshou Hari
Version:papple's Normal
Source:
Tags:かいりきベア kairiki bear バチ子 bachiko virtual youtuber vtuber ボーカロイド ボカロ vocaloid 初音ミク hatsune miku japanese rock female cover song papple104 pappl_e_104 kuse kubsnia_zhoyl_ ujimatcha djent_sul_e
BeatmapID:2670319
BeatmapSetID:1270156

[Difficulty]
HPDrainRate:3
CircleSize:3.2
OverallDifficulty:5
ApproachRate:5
SliderMultiplier:1.2
SliderTickRate:1

[Events]
//Background and Video events
0,0,"videoplayback.mp4_20201002_170714.628(RGB)(noise)(Level3).png",0,0
//Break Periods
2,86595,97744
//Storyboard Layer 0 (Background)
//Storyboard Layer 1 (Fail)
//Storyboard Layer 2 (Pass)
//Storyboard Layer 3 (Foreground)
//Storyboard Layer 4 (Overlay)
//Storyboard Sound Samples

[TimingPoints]
121,392.156862745098,4,2,1,50,1,0
4826,-100,4,2,1,70,0,0
17375,-100,4,2,1,50,0,0
29924,-100,4,2,1,70,0,0
36199,-100,4,2,1,50,0,0
48748,-100,4,2,1,70,0,0
61297,-100,4,2,1,80,0,1
73846,-100,4,2,1,80,0,0
98944,-100,4,2,1,50,0,0
111493,-100,4,2,1,70,0,0
124042,-100,4,2,1,80,0,1
136591,-100,4,2,1,70,0,0
160121,-100,4,2,1,80,0,1
169532,-100,4,2,1,80,0,0
186787,-100,4,2,1,70,0,0
201493,-100,4,2,1,70,0,0
201787,-100,4,2,1,30,0,0

[Colours]
Combo1 : 186,166,236
Combo2 : 218,6,126
Combo3 : 128,80,255
Combo4 : 211,59,168

[HitObjects]
237,144,1689,5,4,1:0:0:0:
149,225,2081,1,8,0:0:0:0:
226,317,2473,2,0,P|269:307|314:306,2,90,0|8|8,1:0|0:0|0:0,0:0:0:0:
172,343,3258,2,0,P|85:327|32:256,1,180,4|12,1:0|0:0,0:0:0:0:
125,102,4434,1,8,0:0:0:0:
237,144,4826,6,0,L|229:203,2,60,4|2|8,1:0|0:0|0:0,0:0:0:0:
320,57,5611,2,0,P|378:67|430:41,1,120,0|8,1:0|0:0,0:0:0:0:
466,155,6395,1,0,1:0:0:0:
417,264,6787,1,8,0:0:0:0:
346,168,7179,2,0,P|293:141|235:152,1,120,0|8,1:0|0:0,0:0:0:0:
177,257,7964,6,0,L|117:249,2,60,0|2|8,1:0|0:0|0:0,0:0:0:0:
219,369,8748,2,0,L|337:353,1,120,0|8,1:0|0:0,0:0:0:0:
417,264,9532,2,0,P|455:218|465:160,1,120,0|8,1:0|0:0,0:0:0:0:
447,103,10121,1,2,0:0:0:0:
444,106,10317,2,0,P|383:108|331:81,1,120,0|8,1:0|0:0,0:0:0:0:
235,151,11101,6,0,L|243:211,2,60,4|2|8,1:0|0:0|0:0,0:0:0:0:
137,81,11885,2,0,L|121:199,1,120,0|8,1:0|0:0,0:0:0:0:
173,308,12670,1,0,1:0:0:0:
243,211,13062,1,8,0:0:0:0:
357,246,13454,2,0,L|373:364,1,120,0|8,1:0|0:0,0:0:0:0:
486,324,14238,6,0,L|494:264,2,60,0|2|8,1:0|0:0|0:0,0:0:0:0:
373,364,15022,2,0,P|317:342|258:346,1,120,0|8,1:0|0:0,0:0:0:0:
210,236,15807,2,0,B|120:247|120:247|92:237,1,120,0|8,1:0|0:0,0:0:0:0:
38,212,16395,1,2,0:0:0:0:
35,209,16591,2,0,L|51:91,1,120,0|8,1:0|0:0,0:0:0:0:
168,65,17375,6,0,L|160:5,2,60,4|2|8,1:0|0:0|0:0,0:0:0:0:
262,140,18160,2,0,P|315:114|374:123,1,120,0|8,1:0|0:0,0:0:0:0:
411,170,18748,1,2,0:0:0:0:
414,173,18944,2,0,L|503:160,2,90,0|0|2,1:0|3:0|0:0,0:0:0:0:
364,206,19728,1,0,1:0:0:0:
262,140,20121,2,0,P|203:131|150:157,1,120,8|0,0:0|1:0,0:0:0:0:
132,214,20709,6,0,L|140:274,1,60,2|8,0:0|0:0,0:0:0:0:
27,314,21297,1,0,1:0:0:0:
20,194,21689,2,0,P|48:185|78:186,1,60,8|2,0:0|0:0,0:0:0:0:
132,214,22081,5,0,1:0:0:0:
228,142,22473,1,8,0:0:0:0:
168,37,22866,2,0,P|123:35|83:14,2,90,0|8|10,1:0|0:0|0:0,0:0:0:0:
221,10,23650,1,4,1:0:0:0:
277,32,23846,6,0,L|337:24,1,60,2|8,0:0|0:0,0:0:0:0:
416,114,24434,2,0,P|458:99|502:103,2,90,0|8|10,1:0|0:0|0:0,0:0:0:0:
356,218,25415,2,0,L|364:278,1,60,0|8,0:0|0:0,0:0:0:0:
280,363,26003,2,0,P|235:366|193:352,2,90,0|8|10,1:0|0:0|0:0,0:0:0:0:
251,246,26983,6,0,L|243:186,1,60,2|8,0:0|0:0,0:0:0:0:
232,127,27375,1,2,0:0:0:0:
235,124,27571,2,0,P|279:127|321:113,2,90,0|0|2,1:0|3:0|0:0,0:0:0:0:
187,88,28356,5,0,1:0:0:0:
73,126,28748,1,8,0:0:0:0:
137,227,29140,2,0,P|136:256|126:285,1,60,8|2,0:0|1:0,0:0:0:0:
82,325,29532,1,8,0:0:0:0:
190,375,29924,6,0,L|250:367,1,60,4|2,1:0|0:0,0:0:0:0:
296,329,30317,1,8,0:0:0:0:
385,249,30709,2,0,P|429:254|471:240,2,90,0|0|2,1:0|3:0|0:0,0:0:0:0:
336,214,31493,1,0,1:0:0:0:
422,131,31885,1,8,0:0:0:0:
342,41,32277,2,0,L|224:57,1,120,0|8,1:0|0:0,0:0:0:0:
105,30,33062,6,0,P|83:50|70:77,1,60,0|2,1:0|0:0,0:0:0:0:
76,137,33454,1,8,0:0:0:0:
153,229,33846,2,0,L|242:242,2,90,0|0|2,1:0|3:0|0:0,0:0:0:0:
99,255,34630,2,0,P|86:312|114:363,1,120,0|8,1:0|0:0,0:0:0:0:
173,379,35219,1,2,0:0:0:0:
176,382,35415,2,0,L|294:366,1,120,0|8,1:0|0:0,0:0:0:0:
395,300,36199,6,0,L|455:308,2,60,4|2|8,1:0|0:0|0:0,0:0:0:0:
287,248,36983,2,0,P|268:191|289:136,1,120,0|8,1:0|0:0,0:0:0:0:
346,115,37571,1,2,0:0:0:0:
349,112,37768,2,0,L|336:23,2,90,0|0|2,1:0|3:0|0:0,0:0:0:0:
375,166,38552,1,0,1:0:0:0:
287,248,38944,2,0,P|231:227|175:245,1,120,8|0,0:0|1:0,0:0:0:0:
152,300,39532,6,0,L|92:292,1,60,2|8,0:0|0:0,0:0:0:0:
18,197,40121,1,0,1:0:0:0:
77,93,40513,2,0,P|105:85|135:84,1,60,8|2,0:0|0:0,0:0:0:0:
192,103,40905,5,0,1:0:0:0:
287,30,41297,1,8,0:0:0:0:
351,131,41689,2,0,L|338:220,2,90,0|8|10,1:0|0:0|0:0,0:0:0:0:
393,88,42473,1,4,1:0:0:0:
436,130,42670,6,0,P|443:158|444:188,1,60,2|8,0:0|0:0,0:0:0:0:
421,306,43258,2,0,L|510:319,2,90,0|8|10,1:0|0:0|0:0,0:0:0:0:
338,220,44238,2,0,P|308:220|279:228,1,60,0|8,0:0|0:0,0:0:0:0:
161,249,44826,2,0,L|174:338,2,90,0|8|10,1:0|0:0|0:0,0:0:0:0:
279,228,45807,6,0,L|287:168,1,60,2|8,0:0|0:0,0:0:0:0:
295,109,46199,1,2,0:0:0:0:
298,106,46395,2,0,P|342:102|385:115,2,90,0|0|2,1:0|3:0|0:0,0:0:0:0:
251,143,47179,5,0,1:0:0:0:
140,95,47571,1,8,0:0:0:0:
24,126,47964,2,0,P|20:81|33:38,2,90,8|8|10,0:0|0:0|0:0,0:0:0:0:
54,178,48748,6,0,B|67:267|67:267|56:295,1,120,4|8,1:0|0:0,0:0:0:0:
144,376,49532,2,0,B|233:363|233:363|261:373,1,120,0|8,1:0|0:0,0:0:0:0:
356,299,50317,2,0,L|416:307,2,40,0|10|10,1:0|0:0|0:0,0:0:0:0:
328,271,50709,2,0,B|315:182|315:182|326:154,1,120,0|0,1:0|1:0,0:0:0:0:
119,31,51885,6,0,B|91:20|91:20|2:33,1,120,4|8,1:0|0:0,0:0:0:0:
79,124,52670,2,0,B|108:134|108:134|197:121,1,120,0|8,1:0|0:0,0:0:0:0:
289,44,53454,2,0,L|294:4,2,40,0|10|10,1:0|0:0|0:0,0:0:0:0:
311,78,53846,2,0,B|322:106|322:106|309:195,1,120,0|0,1:0|1:0,0:0:0:0:
128,352,55022,6,0,B|72:369|72:369|12:361,1,120,4|8,1:0|0:0,0:0:0:0:
63,252,55807,2,0,B|120:235|120:235|180:243,1,120,0|8,1:0|0:0,0:0:0:0:
276,172,56591,2,0,L|268:112,2,40,0|10|10,1:0|0:0|0:0,0:0:0:0:
309,195,56983,1,0,1:0:0:0:
340,311,57375,1,0,1:0:0:0:
232,363,57768,5,12,0:0:0:0:
146,280,58160,2,0,P|88:291|37:263,1,120,4|8,1:0|0:0,0:0:0:0:
75,149,58944,2,0,L|62:60,2,90,0|8|10,1:0|0:0|0:0,0:0:0:0:
107,199,59728,2,0,P|143:173|188:171,1,90,0|8,1:0|0:0,0:0:0:0:
260,117,60317,2,0,P|311:145|368:133,1,120,10|0,0:0|1:0,0:0:0:0:
403,85,60905,1,8,0:0:0:0:
495,162,61297,6,0,L|487:222,1,60,4|2,1:0|0:0,0:0:0:0:
480,281,61689,1,8,0:0:0:0:
390,361,62081,2,0,P|362:350|332:350,1,60,0|2,1:0|0:0,0:0:0:0:
277,327,62473,2,0,P|249:337|219:337,1,60,8|2,0:0|0:0,0:0:0:0:
167,308,62866,6,0,L|78:321,1,90,0|10,1:0|0:0,0:0:0:0:
41,238,63454,1,10,0:0:0:0:
44,235,63650,2,0,L|133:222,1,90,0|10,1:0|0:0,0:0:0:0:
191,153,64238,1,10,0:0:0:0:
194,150,64434,6,0,L|254:158,1,60,0|2,1:0|0:0,0:0:0:0:
313,165,64826,1,8,0:0:0:0:
329,284,65219,2,0,P|356:273|386:273,1,60,0|2,1:0|1:0,0:0:0:0:
414,220,65611,2,0,P|441:230|471:230,1,60,8|2,0:0|0:0,0:0:0:0:
505,180,66003,6,0,L|489:62,1,120,0|8,1:0|0:0,0:0:0:0:
440,27,66591,2,0,L|322:43,1,120,2|2,3:2|1:0,0:0:0:0:
287,92,67179,1,8,0:0:0:0:
192,18,67571,6,0,L|132:26,1,60,4|2,1:0|0:0,0:0:0:0:
73,33,67964,1,8,0:0:0:0:
11,135,68356,2,0,P|22:163|22:193,1,60,0|2,1:0|0:0,0:0:0:0:
49,246,68748,2,0,P|38:274|38:304,1,60,8|2,0:0|0:0,0:0:0:0:
73,352,69140,6,0,L|162:339,1,90,0|10,1:0|0:0,0:0:0:0:
219,269,69728,1,10,0:0:0:0:
222,266,69924,2,0,L|311:279,1,90,0|10,1:0|0:0,0:0:0:0:
395,245,70513,1,10,0:0:0:0:
398,242,70709,6,0,L|390:182,1,60,0|2,1:0|0:0,0:0:0:0:
383,123,71101,1,8,0:0:0:0:
419,8,71493,2,0,P|389:1|360:4,1,60,0|2,1:0|1:0,0:0:0:0:
306,31,71885,1,8,0:0:0:0:
260,142,72277,5,0,1:0:0:0:
257,145,72473,1,10,0:0:0:0:
254,148,72670,2,0,L|136:132,1,120,8|8,0:0|0:0,0:0:0:0:
30,190,73454,1,8,0:0:0:0:
132,252,73846,6,0,P|141:280|143:310,1,60,4|2,1:0|0:0,0:0:0:0:
181,357,74238,2,0,P|209:347|239:345,1,60,8|2,0:0|0:0,0:0:0:0:
295,365,74630,2,0,L|384:352,2,90,0|8|10,1:0|0:0|0:0,0:0:0:0:
303,245,75611,1,2,0:0:0:0:
306,242,75807,2,0,L|366:250,1,60,8|2,0:0|0:0,0:0:0:0:
415,216,76199,2,0,P|458:224|500:209,2,90,0|8|10,1:0|0:0|0:0,0:0:0:0:
387,163,76983,6,0,L|379:103,1,60,0|2,1:0|0:0,0:0:0:0:
372,44,77375,1,8,0:0:0:0:
254,19,77768,2,0,L|246:79,1,60,0|2,1:0|0:0,0:0:0:0:
199,116,78160,2,0,L|207:176,1,60,8|2,0:0|0:0,0:0:0:0:
215,235,78552,6,0,L|304:222,1,90,4|8,1:0|0:0,0:0:0:0:
379,173,79140,1,10,0:0:0:0:
382,170,79336,2,0,L|471:183,1,90,0|8,1:0|0:0,0:0:0:0:
487,272,79924,1,10,0:0:0:0:
484,268,80120,6,0,P|454:269|425:279,1,60,4|2,1:0|0:0,0:0:0:0:
397,332,80513,2,0,P|367:330|338:320,1,60,8|2,0:0|0:0,0:0:0:0:
279,315,80905,2,0,L|190:328,2,90,0|8|10,1:0|0:0|0:0,0:0:0:0:
213,215,81885,1,2,0:0:0:0:
210,212,82081,2,0,L|150:220,1,60,8|2,0:0|0:0,0:0:0:0:
91,212,82473,2,0,P|93:256|76:298,2,90,0|8|10,1:0|0:0|0:0,0:0:0:0:
52,166,83258,6,0,L|60:106,1,60,0|2,1:0|0:0,0:0:0:0:
67,47,83650,1,8,0:0:0:0:
176,96,84042,2,0,P|205:94|234:84,1,60,0|2,1:0|1:0,0:0:0:0:
281,47,84434,1,8,0:0:0:0:
400,57,84826,5,0,1:0:0:0:
403,60,85022,1,2,1:0:0:0:
406,63,85219,2,0,L|390:181,1,120,8|8,0:0|0:0,0:0:0:0:
374,301,86003,1,12,0:0:0:0:
278,229,86395,5,4,1:0:0:0:
376,3,98944,5,4,1:0:0:0:
246,204,99728,6,0,L|259:293,2,90,8|8|8,0:0|0:0|0:0,0:0:0:0:
237,144,100513,2,0,L|148:157,2,90,8|8|8,0:0|0:0|0:0,0:0:0:0:
271,95,101297,2,0,L|360:108,2,90,8|8|8,0:0|0:0|0:0,0:0:0:0:
164,38,102277,6,0,L|156:98,1,60,6|8,0:0|0:0,0:0:0:0:
64,173,102866,1,0,1:0:0:0:
145,262,103258,2,0,P|173:253|203:254,1,60,8|2,0:0|0:0,0:0:0:0:
257,281,103650,5,0,1:0:0:0:
364,228,104042,1,8,0:0:0:0:
474,275,104434,2,0,P|485:232|477:188,2,90,0|8|10,1:0|0:0|0:0,0:0:0:0:
438,323,105219,1,4,1:0:0:0:
383,347,105415,6,0,L|323:355,1,60,2|8,0:0|0:0,0:0:0:0:
226,284,106003,2,0,L|137:297,2,90,0|8|10,1:0|0:0|0:0,0:0:0:0:
244,165,106983,2,0,L|184:157,1,60,2|8,0:0|0:0,0:0:0:0:
109,64,107571,2,0,L|20:51,2,90,0|8|10,1:0|0:0|0:0,0:0:0:0:
224,30,108552,6,0,P|252:39|282:38,1,60,2|8,0:0|0:0,0:0:0:0:
323,81,108944,1,2,0:0:0:0:
326,84,109140,2,0,P|369:73|413:81,2,90,0|0|2,1:0|3:0|0:0,0:0:0:0:
278,120,109925,1,0,1:0:0:0:
372,194,110317,1,8,0:0:0:0:
298,288,110709,2,0,L|209:275,2,90,8|8|10,0:0|0:0|0:0,0:0:0:0:
352,313,111493,6,0,B|380:302|380:302|469:315,1,120,4|8,1:0|0:0,0:0:0:0:
488,196,112277,2,0,B|460:207|460:207|371:194,1,120,0|8,1:0|0:0,0:0:0:0:
323,83,113062,2,0,L|383:75,2,40,0|10|10,1:0|0:0|0:0,0:0:0:0:
286,68,113454,2,0,B|258:57|258:57|169:70,1,120,0|0,1:0|1:0,0:0:0:0:
3,242,114630,6,0,B|92:229|92:229|120:240,1,120,4|8,1:0|0:0,0:0:0:0:
201,329,115415,2,0,B|290:342|290:342|318:331,1,120,0|8,1:0|0:0,0:0:0:0:
319,211,116199,2,0,L|379:203,2,40,0|10|10,1:0|0:0|0:0,0:0:0:0:
287,187,116591,2,0,B|274:98|274:98|285:70,1,120,0|0,1:0|1:0,0:0:0:0:
494,187,117768,6,0,B|502:247|502:247|485:303,1,120,4|8,1:0|0:0,0:0:0:0:
369,270,118552,2,0,B|309:278|309:278|253:261,1,120,0|8,1:0|0:0,0:0:0:0:
139,302,119336,2,0,L|147:362,2,40,0|10|10,1:0|0:0|0:0,0:0:0:0:
133,262,119728,1,0,1:0:0:0:
18,296,120120,1,0,1:0:0:0:
46,179,120513,5,12,0:0:0:0:
161,145,120905,2,0,L|279:161,1,120,4|8,1:0|0:0,0:0:0:0:
335,55,121689,2,0,P|379:47|415:22,2,90,0|8|10,1:0|0:0|0:0,0:0:0:0:
276,45,122473,2,0,L|187:58,1,90,0|8,1:0|0:0,0:0:0:0:
161,145,123062,2,0,L|279:161,1,120,10|0,0:0|1:0,0:0:0:0:
339,170,123650,1,8,0:0:0:0:
449,122,124042,6,0,P|458:150|459:180,1,60,4|2,1:0|0:0,0:0:0:0:
439,237,124434,1,8,0:0:0:0:
383,343,124826,2,0,L|323:335,1,60,0|2,1:0|0:0,0:0:0:0:
267,356,125219,2,0,L|207:364,1,60,8|2,0:0|0:0,0:0:0:0:
157,332,125611,6,0,P|132:294|132:250,1,90,0|10,1:0|0:0,0:0:0:0:
219,270,126199,1,10,0:0:0:0:
222,273,126395,2,0,P|246:235|246:191,1,90,0|10,1:0|0:0,0:0:0:0:
179,132,126983,1,10,0:0:0:0:
176,129,127179,6,0,L|116:137,1,60,0|2,1:0|0:0,0:0:0:0:
63,110,127571,1,8,0:0:0:0:
146,23,127964,2,0,P|175:24|204:33,1,60,0|2,1:0|1:0,0:0:0:0:
254,67,128356,2,0,P|283:65|312:56,1,60,8|2,0:0|0:0,0:0:0:0:
363,24,128748,2,0,L|379:142,1,120,0|8,1:0|0:0,0:0:0:0:
431,173,129336,2,0,L|415:291,1,120,2|0,3:2|1:0,0:0:0:0:
406,351,129924,1,8,0:0:0:0:
296,301,130317,6,0,P|266:302|237:311,1,60,4|2,1:0|0:0,0:0:0:0:
194,352,130709,1,8,0:0:0:0:
80,314,131101,2,0,L|72:254,1,60,0|2,1:0|0:0,0:0:0:0:
118,216,131493,2,0,L|126:156,1,60,8|2,0:0|0:0,0:0:0:0:
134,97,131885,6,0,P|178:100|215:76,1,90,0|10,1:0|0:0,0:0:0:0:
281,15,132473,1,10,0:0:0:0:
284,12,132670,2,0,P|328:8|365:32,1,90,0|10,1:0|0:0,0:0:0:0:
455,45,133258,1,10,0:0:0:0:
458,48,133454,6,0,L|450:108,1,60,0|2,1:0|0:0,0:0:0:0:
444,167,133846,1,8,0:0:0:0:
331,208,134238,2,0,P|302:198|272:197,1,60,0|2,1:0|1:0,0:0:0:0:
216,218,134630,1,8,0:0:0:0:
103,175,135022,5,0,1:0:0:0:
100,178,135219,1,10,0:0:0:0:
97,181,135415,2,0,L|113:299,1,120,8|8,0:0|0:0,0:0:0:0:
209,371,136199,1,8,0:0:0:0:
321,328,136591,6,0,P|379:319|425:281,1,120,4|8,1:0|0:0,0:0:0:0:
330,207,137375,2,0,P|287:196|243:203,2,90,0|8|8,1:0|0:0|0:0,0:0:0:0:
378,171,138160,5,0,1:0:0:0:
278,103,138552,1,8,0:0:0:0:
386,51,138944,2,0,L|475:64,2,90,0|8|8,1:0|0:0|0:0,0:0:0:0:
345,7,139728,6,0,L|227:23,1,120,0|8,1:0|0:0,0:0:0:0:
125,89,140513,2,0,P|80:81|37:93,2,90,0|8|8,1:0|0:0|0:0,0:0:0:0:
170,129,141297,6,0,L|162:189,2,60,0|0|8,1:0|0:0|0:0,0:0:0:0:
286,158,142081,2,0,L|294:218,2,60,0|0|0,1:0|3:0|0:0,0:0:0:0:
375,78,142866,6,0,P|430:96|456:148,1,120,4|8,1:0|0:0,0:0:0:0:
409,259,143650,2,0,P|452:251|492:270,2,90,0|8|8,1:0|0:0|0:0,0:0:0:0:
374,307,144434,5,0,1:0:0:0:
294,218,144826,1,8,0:0:0:0:
191,281,145219,2,0,L|204:370,2,90,0|8|8,1:0|0:0|0:0,0:0:0:0:
142,246,146003,6,0,L|158:128,1,120,0|8,1:0|0:0,0:0:0:0:
250,50,146787,2,0,P|215:21|172:8,2,90,0|8|8,1:0|0:0|0:0,0:0:0:0:
276,104,147571,6,0,L|336:96,2,60,0|0|8,1:0|0:0|0:0,0:0:0:0:
322,215,148356,2,0,L|382:223,2,60,0|2|0,1:0|0:0|0:0,0:0:0:0:
234,297,149140,1,0,1:0:0:0:
384,348,150709,6,0,P|411:358|441:356,1,60,0|2,1:0|0:0,0:0:0:0:
489,320,151101,2,0,P|499:292|497:262,1,60,8|2,0:0|0:0,0:0:0:0:
461,215,151493,1,0,1:0:0:0:
314,24,152277,6,0,P|286:13|256:15,1,60,0|2,1:0|0:0,0:0:0:0:
209,52,152670,2,0,P|198:79|200:109,1,60,8|2,0:0|0:0,0:0:0:0:
237,157,153062,1,0,1:0:0:0:
355,137,153454,5,8,0:0:0:0:
375,255,153846,2,0,P|345:253|317:263,1,60,0|2,1:0|3:2,0:0:0:0:
285,314,154238,2,0,P|255:315|227:305,1,60,0|10,0:0|0:0,0:0:0:0:
193,256,154630,2,0,L|104:269,1,90,0|8,1:0|0:0,0:0:0:0:
19,238,155219,1,10,0:0:0:0:
22,235,155415,2,0,P|48:199|89:180,1,90,0|8,1:0|0:0,0:0:0:0:
154,118,156003,2,0,P|192:162|250:173,1,120,8|0,0:0|1:0,0:0:0:0:
303,145,156591,1,8,0:0:0:0:
387,59,156983,5,0,1:0:0:0:
154,118,157768,1,8,0:0:0:0:
391,149,158552,2,0,P|433:137|464:104,2,90,0|8|10,1:0|0:0|0:0,0:0:0:0:
255,70,160121,6,0,P|225:67|197:77,1,60,4|2,1:0|0:0,0:0:0:0:
154,119,160513,1,8,0:0:0:0:
35,134,160905,2,0,L|43:194,1,60,0|2,1:0|1:0,0:0:0:0:
96,221,161297,2,0,L|88:281,1,60,8|2,0:0|0:0,0:0:0:0:
83,340,161689,2,0,P|135:312|193:321,1,120,0|8,1:0|0:0,0:0:0:0:
239,361,162277,2,0,P|266:308|257:250,1,120,2|2,3:2|0:0,0:0:0:0:
212,210,162866,1,8,0:0:0:0:
308,139,163258,6,0,L|368:147,1,60,4|2,1:0|0:0,0:0:0:0:
422,170,163650,1,8,0:0:0:0:
503,257,164042,2,0,P|505:286|495:314,1,60,0|2,1:0|0:0,0:0:0:0:
445,347,164434,2,0,P|415:349|387:339,1,60,8|2,0:0|0:0,0:0:0:0:
355,289,164826,6,0,L|266:302,1,90,0|10,1:0|0:0,0:0:0:0:
199,241,165415,1,10,0:0:0:0:
196,238,165611,2,0,L|209:149,1,90,0|10,1:0|0:0,0:0:0:0:
270,83,166199,1,10,0:0:0:0:
267,80,166395,6,0,P|242:63|212:58,1,60,0|2,1:0|0:0,0:0:0:0:
156,76,166787,1,8,0:0:0:0:
66,156,167179,2,0,L|74:216,1,60,0|2,1:0|1:0,0:0:0:0:
82,275,167571,1,8,0:0:0:0:
168,359,167964,5,0,1:0:0:0:
171,362,168160,1,10,0:0:0:0:
174,365,168356,2,0,L|292:349,1,120,8|8,0:0|0:0,0:0:0:0:
393,283,169140,1,12,0:0:0:0:
286,229,169532,6,0,P|275:201|277:171,1,60,4|2,1:0|0:0,0:0:0:0:
313,123,169924,2,0,P|342:124|370:114,1,60,8|2,0:0|0:0,0:0:0:0:
414,73,170317,2,0,L|503:86,2,90,0|8|10,1:0|0:0|0:0,0:0:0:0:
311,15,171297,1,2,0:0:0:0:
308,12,171493,2,0,L|248:20,1,60,8|2,0:0|0:0,0:0:0:0:
200,55,171885,2,0,P|159:36|114:38,2,90,0|8|10,1:0|0:0|0:0,0:0:0:0:
234,105,172670,6,0,L|226:165,1,60,0|2,1:0|0:0,0:0:0:0:
219,224,173062,1,8,0:0:0:0:
99,226,173454,2,0,P|88:253|90:283,1,60,0|2,1:0|1:0,0:0:0:0:
126,332,173846,2,0,P|155:330|183:340,1,60,8|2,0:0|0:0,0:0:0:0:
230,379,174238,6,0,L|319:366,1,90,0|10,1:0|0:0,0:0:0:0:
353,283,174826,1,10,0:0:0:0:
350,280,175022,2,0,L|261:267,1,90,0|10,1:0|0:0,0:0:0:0:
216,189,175611,1,10,0:0:0:0:
219,186,175807,6,0,P|246:175|276:176,1,60,4|2,1:0|0:0,0:0:0:0:
320,135,176199,2,0,P|330:107|329:77,1,60,8|2,0:0|0:0,0:0:0:0:
295,28,176591,2,0,L|384:15,2,90,0|8|10,1:0|0:0|0:0,0:0:0:0:
197,98,177571,1,2,0:0:0:0:
194,101,177768,2,0,L|134:93,1,60,8|2,0:0|0:0,0:0:0:0:
77,111,178160,2,0,P|78:66|59:26,2,90,0|8|10,1:0|0:0|0:0,0:0:0:0:
44,161,178944,6,0,L|52:221,1,60,0|2,1:0|0:0,0:0:0:0:
61,280,179336,1,8,0:0:0:0:
170,230,179728,2,0,P|199:229|227:239,1,60,0|2,1:0|1:0,0:0:0:0:
268,284,180121,1,8,0:0:0:0:
386,265,180513,5,0,1:0:0:0:
389,262,180709,1,2,1:0:0:0:
392,259,180905,2,0,L|376:141,1,120,8|8,0:0|0:0,0:0:0:0:
287,60,181689,1,12,0:0:0:0:
174,102,182081,6,0,P|187:128|207:150,1,60,4|2,1:0|0:0,0:0:0:0:
261,177,182473,1,8,0:0:0:0:
376,141,182866,2,0,L|436:149,1,60,0|2,1:0|1:0,0:0:0:0:
485,183,183258,1,8,0:0:0:0:
392,259,183650,5,0,1:0:0:0:
389,262,183846,1,2,1:0:0:0:
386,265,184042,2,0,L|268:281,1,120,8|8,0:0|0:0,0:0:0:0:
178,362,184826,1,8,0:0:0:0:
96,274,185219,2,0,L|112:156,2,120,8|8|8,0:0|0:0|0:0,0:0:0:0:
178,362,186395,1,8,0:0:0:0:
267,281,186787,6,0,P|294:270|324:271,1,60,4|2,1:0|0:0,0:0:0:0:
377,301,187179,1,8,0:0:0:0:
415,187,187571,2,0,P|457:199|499:185,2,90,0|0|2,1:0|3:0|0:0,0:0:0:0:
376,141,188356,1,0,1:0:0:0:
309,41,188748,1,8,0:0:0:0:
201,94,189140,2,0,L|83:78,1,120,0|8,1:0|0:0,0:0:0:0:
12,175,189924,6,0,P|25:201|28:231,1,60,0|2,1:0|0:0,0:0:0:0:
12,289,190317,1,8,0:0:0:0:
131,291,190709,2,0,L|118:380,2,90,0|0|2,1:0|3:0|0:0,0:0:0:0:
140,232,191493,2,0,P|189:263|248:258,1,120,0|8,1:0|0:0,0:0:0:0:
295,220,192081,1,2,0:0:0:0:
298,217,192277,2,0,L|282:99,1,120,0|8,1:0|0:0,0:0:0:0:
392,50,193062,6,0,L|400:110,1,60,4|2,1:0|0:0,0:0:0:0:
409,169,193454,1,8,0:0:0:0:
395,288,193846,2,0,P|439:284|479:302,2,90,0|0|2,1:0|3:0|0:0,0:0:0:0:
348,325,194630,1,0,1:0:0:0:
248,258,195022,1,8,0:0:0:0:
172,351,195415,2,0,P|135:304|128:245,1,120,0|8,1:0|0:0,0:0:0:0:
199,148,196199,6,0,P|173:132|144:125,1,60,0|2,1:0|0:0,0:0:0:0:
85,133,196591,1,8,0:0:0:0:
128,245,196983,2,0,P|84:253|40:245,2,90,0|0|2,1:0|3:0|0:0,0:0:0:0:
187,251,197768,2,0,B|277:262|277:262|305:252,1,120,0|8,1:0|0:0,0:0:0:0:
359,227,198356,1,2,0:0:0:0:
362,224,198552,2,0,L|480:240,1,120,0|8,1:0|0:0,0:0:0:0:
497,121,199336,6,0,L|437:113,1,60,4|2,1:0|3:2,0:0:0:0:
378,104,199728,1,0,0:0:0:0:
259,85,200121,2,0,P|250:41|219:9,2,90,8|0|2,0:0|0:0|3:2,0:0:0:0:
233,139,200905,2,0,L|144:126,2,90,8|8|0,0:0|0:0|1:0,0:0:0:0:
