osu file format v14

[General]
AudioFilename: audio.mp3
AudioLeadIn: 0
PreviewTime: 61003
Countdown: 0
SampleSet: Soft
StackLeniency: 0.5
Mode: 0
LetterboxInBreaks: 0
WidescreenStoryboard: 0

[Editor]
Bookmarks: 4826,17375,29924,36199,48748,61297,73846,86395,98944,111493,124042,136591,149140,156983,169532,186787
DistanceSpacing: 0.6
BeatDivisor: 4
GridSize: 4
TimelineZoom: 2.1

[Metadata]
Title:Darling Dance
TitleUnicode:ダーリンダンス
Artist:Tenjin Kotone
ArtistUnicode:天神子兎音
Creator:Houshou Hari
Version:chu~
Source:
Tags:かいりきベア kairiki bear バチ子 bachiko virtual youtuber vtuber ボーカロイド ボカロ vocaloid 初音ミク hatsune miku japanese rock female cover song papple104 pappl_e_104 kuse kubsnia_zhoyl_ ujimatcha djent_sul_e
BeatmapID:2639581
BeatmapSetID:1270156

[Difficulty]
HPDrainRate:6
CircleSize:4
OverallDifficulty:8
ApproachRate:9
SliderMultiplier:1.6
SliderTickRate:1

[Events]
//Background and Video events
0,0,"videoplayback.mp4_20201002_170714.628(RGB)(noise)(Level3).png",0,0
//Break Periods
2,86595,98344
//Storyboard Layer 0 (Background)
//Storyboard Layer 1 (Fail)
//Storyboard Layer 2 (Pass)
//Storyboard Layer 3 (Foreground)
//Storyboard Layer 4 (Overlay)
//Storyboard Sound Samples

[TimingPoints]
121,392.156862745098,4,2,1,50,1,0
4826,-83.3333333333333,4,2,1,70,0,0
17375,-100,4,2,1,50,0,0
28356,-90.9090909090909,4,2,1,50,0,0
29924,-83.3333333333333,4,2,1,70,0,0
36199,-100,4,2,1,50,0,0
48748,-83.3333333333333,4,2,1,70,0,0
61297,-66.6666666666667,4,2,1,80,0,1
73846,-83.3333333333333,4,2,1,80,0,0
98944,-100,4,2,1,50,0,0
109924,-90.9090909090909,4,2,1,50,0,0
111493,-83.3333333333333,4,2,1,70,0,0
124042,-66.6666666666667,4,2,1,80,0,1
136591,-100,4,2,1,70,0,0
151493,-333.333333333333,4,2,1,70,0,0
152277,-100,4,2,1,70,0,0
153062,-333.333333333333,4,2,1,70,0,0
153846,-83.3333333333333,4,2,1,70,0,0
159140,-166.666666666667,4,2,1,70,0,0
160121,-66.6666666666667,4,2,1,80,0,1
169532,-83.3333333333333,4,2,1,80,0,0
186787,-83.3333333333333,4,2,1,70,0,0
201493,-166.666666666667,4,2,1,70,0,0
201787,-166.666666666667,4,2,1,30,0,0

[Colours]
Combo1 : 186,166,236
Combo2 : 218,6,126
Combo3 : 128,80,255
Combo4 : 211,59,168

[HitObjects]
10,211,1689,6,0,P|37:246|25:297,1,80,4|0,1:0|0:0,0:0:0:0:
28,308,1983,1,0,0:0:0:0:
18,335,2081,6,0,P|52:321|112:337,1,80,8|0,0:0|0:0,0:0:0:0:
118,341,2375,1,0,0:0:0:0:
142,355,2473,6,0,P|184:358|224:345,1,80,0|0,1:0|3:0,0:0:0:0:
309,380,2768,2,0,P|332:345|341:303,1,80,8|0,0:0|3:0,0:0:0:0:
414,247,3062,2,0,P|402:218|384:198,1,40,8|0,0:0|0:0,0:0:0:0:
351,89,3258,5,4,1:0:0:0:
175,275,3552,1,12,0:0:0:0:
414,247,3846,1,12,0:0:0:0:
268,163,4042,5,0,1:0:0:0:
241,170,4140,1,0,1:0:0:0:
213,169,4238,1,0,1:0:0:0:
186,159,4336,1,0,1:0:0:0:
166,139,4434,5,8,0:0:0:0:
133,103,4532,1,0,0:0:0:0:
86,92,4630,1,8,0:0:0:0:
39,105,4728,1,8,0:0:0:0:
4,137,4826,6,0,L|10:199,1,47.9999985351563,4|0,1:0|0:0,0:0:0:0:
86,300,5022,1,2,0:0:0:0:
113,287,5121,1,2,0:0:0:0:
142,292,5219,1,8,0:0:0:0:
8,355,5415,1,2,0:0:0:0:
208,239,5611,6,0,P|227:291|177:370,1,143.999995605469,0|0,1:0|3:0,0:0:0:0:
142,292,6003,1,8,0:0:0:0:
340,369,6199,1,2,0:0:0:0:
512,245,6395,6,0,B|442:219|442:219|381:261,1,143.999995605469,0|0,1:0|3:0,0:0:0:0:
455,314,6787,1,8,0:0:0:0:
438,93,6983,1,2,0:0:0:0:
221,46,7179,6,0,P|202:98|252:177,1,143.999995605469,0|0,1:0|3:0,0:0:0:0:
332,107,7571,2,0,P|309:100|285:98,1,47.9999985351563,8|0,0:0|0:0,0:0:0:0:
101,132,7768,1,2,0:0:0:0:
332,107,7964,6,0,P|349:90|362:70,1,47.9999985351563,0|0,1:0|0:0,0:0:0:0:
483,80,8160,1,2,0:0:0:0:
489,109,8258,1,2,0:0:0:0:
506,132,8356,1,8,0:0:0:0:
332,107,8552,1,2,0:0:0:0:
473,227,8748,6,0,P|414:186|345:204,1,143.999995605469,0|0,1:0|3:0,0:0:0:0:
400,269,9140,1,8,0:0:0:0:
483,80,9336,1,2,0:0:0:0:
332,107,9532,5,0,1:0:0:0:
305,118,9630,1,0,0:0:0:0:
276,120,9728,1,0,3:0:0:0:
247,114,9826,1,0,3:0:0:0:
222,99,9924,1,8,0:0:0:0:
201,78,10022,1,0,0:0:0:0:
190,50,10121,1,2,0:0:0:0:
190,50,10317,5,0,1:0:0:0:
215,101,10415,1,0,0:0:0:0:
206,158,10513,1,8,0:0:0:0:
162,195,10611,1,8,0:0:0:0:
109,218,10709,5,8,0:0:0:0:
99,245,10807,1,0,0:0:0:0:
99,273,10905,1,10,0:0:0:0:
110,299,11003,1,8,0:0:0:0:
131,318,11101,6,0,L|187:306,1,47.9999985351563,4|0,1:0|0:0,0:0:0:0:
328,292,11297,1,2,0:0:0:0:
340,317,11395,1,2,0:0:0:0:
333,345,11493,1,8,0:0:0:0:
255,221,11689,1,2,0:0:0:0:
419,234,11885,6,0,P|477:220|509:147,1,143.999995605469,0|0,1:0|3:0,0:0:0:0:
428,152,12277,1,8,0:0:0:0:
502,309,12473,1,2,0:0:0:0:
333,345,12670,6,0,B|274:300|274:300|201:312,1,143.999995605469,0|0,1:0|3:0,0:0:0:0:
253,384,13062,1,8,0:0:0:0:
311,148,13258,1,2,0:0:0:0:
90,245,13454,6,0,P|32:231|0:158,1,143.999995605469,0|0,1:0|3:0,0:0:0:0:
83,121,13846,2,0,P|84:145|77:168,1,47.9999985351563,8|0,0:0|0:0,0:0:0:0:
0,304,14042,1,2,0:0:0:0:
83,121,14238,6,0,P|104:110|128:107,1,47.9999985351563,0|0,1:0|0:0,0:0:0:0:
235,112,14434,1,2,0:0:0:0:
252,88,14532,1,2,0:0:0:0:
254,59,14630,1,8,0:0:0:0:
83,121,14826,1,2,0:0:0:0:
190,186,15022,6,0,P|278:186|316:142,1,143.999995605469,0|0,1:0|3:0,0:0:0:0:
235,112,15415,1,8,0:0:0:0:
211,285,15611,1,2,0:0:0:0:
364,341,15807,5,0,1:0:0:0:
334,341,15905,1,0,0:0:0:0:
306,344,16003,1,0,3:0:0:0:
281,360,16101,1,0,3:0:0:0:
256,375,16199,1,8,0:0:0:0:
228,381,16297,1,0,0:0:0:0:
199,384,16395,1,2,0:0:0:0:
199,384,16591,5,0,1:0:0:0:
173,332,16689,1,0,0:0:0:0:
123,302,16787,1,8,0:0:0:0:
65,299,16885,1,8,0:0:0:0:
12,323,16983,5,8,0:0:0:0:
22,296,17081,1,0,0:0:0:0:
24,267,17179,1,10,0:0:0:0:
20,238,17277,1,8,0:0:0:0:
13,210,17375,6,0,P|3:162|16:124,1,80,4|2,1:0|0:0,0:0:0:0:
80,170,17670,1,0,0:0:0:0:
2,210,17768,2,0,P|-8:162|5:124,1,80,8|2,0:0|0:0,0:0:0:0:
171,20,18160,5,0,1:0:0:0:
171,20,18454,1,0,3:0:0:0:
232,73,18552,2,0,P|253:27|243:-11,1,80,8|2,0:0|0:0,0:0:0:0:
173,170,18944,5,0,1:0:0:0:
173,170,19238,1,0,3:0:0:0:
199,246,19336,2,0,P|240:216|250:178,1,80,8|2,0:0|0:0,0:0:0:0:
99,300,19728,5,0,1:0:0:0:
99,300,20022,1,0,3:0:0:0:
84,379,20120,2,0,P|134:374|162:346,1,80,8|2,0:0|0:0,0:0:0:0:
368,275,20513,1,0,1:0:0:0:
457,378,20709,6,0,L|454:324,1,40,2|0,0:0|3:0,0:0:0:0:
336,210,20905,1,8,0:0:0:0:
342,233,21003,1,0,0:0:0:0:
354,254,21101,1,2,0:0:0:0:
474,52,21297,1,0,1:0:0:0:
454,66,21395,2,0,L|361:66,1,80,0|0,3:0|3:0,0:0:0:0:
237,19,21689,1,8,0:0:0:0:
247,41,21787,1,0,0:0:0:0:
246,65,21885,1,2,0:0:0:0:
50,180,22081,6,0,L|98:173,1,40,0|0,1:0|0:0,0:0:0:0:
243,150,22277,1,0,0:0:0:0:
131,312,22473,6,0,L|179:305,1,40,8|0,0:0|0:0,0:0:0:0:
324,282,22669,1,2,0:0:0:0:
142,235,22866,6,0,P|127:282|137:329,1,80,0|0,1:0|3:0,0:0:0:0:
21,336,23160,2,0,P|54:372|99:387,1,80,8|0,0:0|3:0,0:0:0:0:
189,384,23454,1,10,0:0:0:0:
37,223,23650,5,4,1:0:0:0:
84,149,23846,1,2,0:0:0:0:
146,216,24042,1,8,0:0:0:0:
204,150,24238,1,2,0:0:0:0:
204,150,24336,1,2,0:0:0:0:
204,150,24434,1,0,1:0:0:0:
271,211,24630,1,0,3:0:0:0:
271,211,24728,1,8,0:0:0:0:
327,135,25022,1,10,0:0:0:0:
434,317,25219,5,0,1:0:0:0:
499,244,25415,1,0,0:0:0:0:
412,194,25611,1,8,0:0:0:0:
482,127,25807,1,2,0:0:0:0:
482,127,25905,1,2,0:0:0:0:
482,127,26003,1,0,1:0:0:0:
390,66,26199,1,0,3:0:0:0:
390,66,26297,1,8,0:0:0:0:
459,6,26493,1,0,3:0:0:0:
459,6,26591,1,10,0:0:0:0:
287,71,26787,6,0,P|238:74|201:50,1,80,0|2,1:0|0:0,0:0:0:0:
258,0,27081,1,0,0:0:0:0:
284,74,27179,2,0,P|235:77|198:53,1,80,8|2,0:0|0:0,0:0:0:0:
27,0,27571,6,0,P|11:36|16:75,1,80,0|0,1:0|0:0,0:0:0:0:
75,121,27866,1,0,3:0:0:0:
126,67,27964,2,0,P|111:56|92:47,1,40,8|0,0:0|0:0,0:0:0:0:
23,174,28160,2,0,P|38:185|56:193,1,40,2|0,0:0|0:0,0:0:0:0:
188,289,28356,5,0,1:0:0:0:
188,289,28552,2,0,L|177:225,1,44.0000013427735,2|0,1:0|1:0,0:0:0:0:
324,146,28748,5,8,0:0:0:0:
324,146,28944,2,0,L|330:95,1,44.0000013427735,2|0,1:0|1:0,0:0:0:0:
200,11,29140,5,8,0:0:0:0:
200,11,29336,2,0,L|204:54,1,44.0000013427735,2|0,1:0|1:0,0:0:0:0:
230,154,29532,5,8,0:0:0:0:
277,150,29630,1,0,0:0:0:0:
324,146,29728,1,10,0:0:0:0:
371,142,29826,1,8,0:0:0:0:
418,138,29924,6,0,L|411:187,1,47.9999985351563,4|0,1:0|0:0,0:0:0:0:
370,282,30120,1,2,0:0:0:0:
341,290,30219,1,2,0:0:0:0:
321,311,30317,1,8,0:0:0:0:
482,284,30513,1,2,0:0:0:0:
256,255,30709,6,0,P|244:349|282:388,1,143.999995605469,0|0,1:0|3:0,0:0:0:0:
321,311,31101,1,8,0:0:0:0:
129,381,31297,1,2,0:0:0:0:
0,224,31493,6,0,B|57:185|57:185|136:199,1,143.999995605469,0|0,1:0|3:0,0:0:0:0:
75,271,31885,1,8,0:0:0:0:
37,48,32081,1,2,0:0:0:0:
258,0,32277,6,0,P|270:94|232:133,1,143.999995605469,0|0,1:0|3:0,0:0:0:0:
153,80,32670,2,0,P|170:63|192:55,1,47.9999985351563,8|0,0:0|0:0,0:0:0:0:
376,26,32866,1,2,0:0:0:0:
153,80,33062,6,0,P|133:61|108:50,1,47.9999985351563,0|0,1:0|0:0,0:0:0:0:
12,98,33258,1,2,0:0:0:0:
6,124,33356,1,2,0:0:0:0:
7,149,33454,1,8,0:0:0:0:
153,80,33650,1,2,0:0:0:0:
76,246,33846,6,0,P|122:194|196:197,1,143.999995605469,0|0,1:0|3:0,0:0:0:0:
157,275,34238,1,8,0:0:0:0:
12,98,34434,1,2,0:0:0:0:
153,80,34630,5,0,1:0:0:0:
177,94,34728,1,0,0:0:0:0:
205,99,34826,1,0,3:0:0:0:
234,94,34924,1,0,3:0:0:0:
258,79,35022,1,8,0:0:0:0:
276,57,35120,1,0,0:0:0:0:
285,30,35218,1,2,0:0:0:0:
285,30,35415,5,0,1:0:0:0:
273,86,35513,1,0,0:0:0:0:
287,141,35611,1,8,0:0:0:0:
335,172,35709,1,8,0:0:0:0:
391,181,35807,5,8,0:0:0:0:
411,201,35905,1,0,0:0:0:0:
421,227,36003,1,10,0:0:0:0:
427,255,36101,1,8,0:0:0:0:
425,278,36199,6,0,P|377:268|342:281,1,80,4|2,1:0|0:0,0:0:0:0:
387,348,36493,1,0,0:0:0:0:
425,267,36591,2,0,P|377:257|342:270,1,80,8|2,0:0|0:0,0:0:0:0:
163,373,36983,5,0,1:0:0:0:
163,373,37277,1,0,3:0:0:0:
108,310,37375,2,0,P|83:349|83:385,1,80,8|2,0:0|0:0,0:0:0:0:
186,207,37768,5,0,1:0:0:0:
186,207,38062,1,0,3:0:0:0:
213,127,38160,2,0,P|166:124|135:142,1,80,8|2,0:0|0:0,0:0:0:0:
341,143,38552,5,0,1:0:0:0:
341,143,38846,1,0,3:0:0:0:
424,127,38944,2,0,P|402:85|371:67,1,80,8|2,0:0|0:0,0:0:0:0:
158,11,39336,1,0,1:0:0:0:
90,131,39532,6,0,L|86:83,1,40,2|0,0:0|3:0,0:0:0:0:
178,24,39728,1,8,0:0:0:0:
202,28,39826,1,0,0:0:0:0:
227,25,39924,1,2,0:0:0:0:
429,72,40121,2,0,P|396:100|350:102,1,80,0|0,1:0|0:0,0:0:0:0:
366,24,40415,1,0,3:0:0:0:
435,81,40513,2,0,P|402:109|356:111,1,80,8|2,0:0|0:0,0:0:0:0:
226,189,40905,6,0,L|232:249,1,40,0|0,1:0|0:0,0:0:0:0:
247,355,41101,1,0,0:0:0:0:
87,214,41297,6,0,L|93:274,1,40,8|0,0:0|0:0,0:0:0:0:
108,380,41493,1,2,0:0:0:0:
229,228,41689,6,0,P|268:218|312:230,1,80,0|0,1:0|3:0,0:0:0:0:
385,170,41983,2,0,P|404:204|404:249,1,80,8|0,0:0|3:0,0:0:0:0:
339,333,42277,1,10,0:0:0:0:
109,336,42473,5,4,1:0:0:0:
188,267,42670,1,2,0:0:0:0:
188,267,42768,1,2,0:0:0:0:
188,267,42866,1,8,0:0:0:0:
87,214,43062,1,2,0:0:0:0:
160,141,43258,1,0,1:0:0:0:
70,99,43454,1,0,3:0:0:0:
70,99,43552,1,8,0:0:0:0:
134,21,43846,1,10,0:0:0:0:
254,186,44042,5,0,1:0:0:0:
254,186,44140,1,2,0:0:0:0:
254,186,44238,1,0,0:0:0:0:
320,123,44434,1,8,0:0:0:0:
351,207,44630,1,2,0:0:0:0:
418,150,44826,1,0,1:0:0:0:
450,233,45022,1,0,3:0:0:0:
450,233,45121,1,8,0:0:0:0:
512,173,45317,1,0,3:0:0:0:
512,173,45415,1,10,0:0:0:0:
444,317,45611,6,0,P|471:344|518:350,1,80,0|2,1:0|0:0,0:0:0:0:
509,273,45905,1,0,0:0:0:0:
435,326,46003,2,0,P|462:353|509:359,1,80,8|2,0:0|0:0,0:0:0:0:
499,139,46395,6,0,P|462:123|423:129,1,80,0|0,1:0|0:0,0:0:0:0:
381,188,46690,1,0,3:0:0:0:
430,241,46788,2,0,P|443:226|452:208,1,40,8|0,0:0|0:0,0:0:0:0:
331,134,46983,2,0,P|318:149|309:167,1,40,2|0,0:0|0:0,0:0:0:0:
298,21,47179,5,0,1:0:0:0:
298,21,47375,2,0,L|305:70,1,40,2|0,1:0|1:0,0:0:0:0:
209,189,47571,5,8,0:0:0:0:
209,189,47767,2,0,L|202:238,1,40,2|0,1:0|1:0,0:0:0:0:
315,336,47964,6,0,B|386:314|362:366|440:342,2,120,8|8|10,0:0|0:0|0:0,0:0:0:0:
186,334,48748,5,4,1:0:0:0:
192,253,48879,5,10,0:0:0:0:
113,248,49009,5,10,0:0:0:0:
107,328,49140,5,8,0:0:0:0:
147,318,49532,5,0,1:0:0:0:
121,288,49663,5,10,0:0:0:0:
151,262,49793,5,10,0:0:0:0:
177,292,49924,5,8,0:0:0:0:
66,86,50317,6,0,L|135:90,1,63.9999980468751,0|10,1:0|0:0,0:0:0:0:
192,17,50578,1,10,0:0:0:0:
240,96,50709,2,0,L|309:100,1,63.9999980468751,0|10,1:0|0:0,0:0:0:0:
369,36,50970,1,10,0:0:0:0:
420,107,51101,2,0,B|396:151|429:180|429:180|450:159|443:130,1,127.99999609375,0|0,1:0|1:0,0:0:0:0:
424,155,51493,6,0,P|423:124|442:99,2,63.9999980468751,12|2|2,0:0|0:0|0:0,0:0:0:0:
457,255,51885,5,4,1:0:0:0:
376,244,52016,5,10,0:0:0:0:
365,325,52147,5,10,0:0:0:0:
446,336,52277,5,8,0:0:0:0:
407,318,52670,5,0,1:0:0:0:
382,286,52801,5,10,0:0:0:0:
414,261,52932,5,10,0:0:0:0:
439,293,53062,5,8,0:0:0:0:
198,366,53454,6,0,L|194:286,1,63.9999980468751,0|10,1:0|0:0,0:0:0:0:
116,267,53715,1,10,0:0:0:0:
155,192,53846,2,0,L|151:112,1,63.9999980468751,0|10,1:0|0:0,0:0:0:0:
71,93,54107,1,10,0:0:0:0:
101,9,54238,2,0,B|126:38|126:38|227:34,1,127.99999609375,0|0,1:0|1:0,0:0:0:0:
364,38,54630,6,0,P|336:57|319:89,2,63.9999980468751,12|2|2,0:0|0:0|0:0,0:0:0:0:
388,184,55022,5,4,1:0:0:0:
311,180,55153,5,10,0:0:0:0:
234,176,55284,5,10,0:0:0:0:
157,172,55415,5,8,0:0:0:0:
214,209,55807,5,0,1:0:0:0:
253,207,55938,5,10,0:0:0:0:
291,205,56069,5,10,0:0:0:0:
330,203,56200,5,8,0:0:0:0:
6,341,56591,6,0,L|100:332,1,63.9999980468751,0|10,1:0|0:0,0:0:0:0:
249,303,56853,1,10,0:0:0:0:
176,327,56983,2,0,L|270:318,1,63.9999980468751,0|10,1:0|0:0,0:0:0:0:
477,286,57245,1,10,0:0:0:0:
354,316,57375,2,0,B|404:328|404:328|491:306,1,127.99999609375,0|0,1:0|1:0,0:0:0:0:
504,145,57768,6,0,P|476:159|463:188,2,63.9999980468751,12|2|2,0:0|0:0|0:0,0:0:0:0:
367,221,58160,6,0,L|316:209,1,47.9999985351563,4|0,1:0|0:0,0:0:0:0:
199,186,58356,1,10,0:0:0:0:
189,165,58454,1,8,0:0:0:0:
192,143,58552,1,8,0:0:0:0:
297,105,58748,1,2,1:0:0:0:
225,264,58944,6,0,P|177:266|137:241,1,95.9999970703126,0|0,1:0|3:0,0:0:0:0:
78,307,59238,2,0,P|51:267|57:212,1,95.9999970703126,8|0,0:0|3:0,0:0:0:0:
110,162,59532,1,10,0:0:0:0:
239,350,59728,5,0,1:0:0:0:
297,105,60022,5,8,0:0:0:0:
447,307,60317,6,0,P|385:285|341:295,1,95.9999970703126,10|0,0:0|1:0,0:0:0:0:
329,298,60611,1,0,0:0:0:0:
305,280,60709,1,0,1:0:0:0:
296,252,60807,1,0,1:0:0:0:
300,223,60905,5,8,0:0:0:0:
341,182,61003,1,8,0:0:0:0:
352,125,61101,1,10,0:0:0:0:
330,71,61199,1,8,0:0:0:0:
280,42,61297,5,4,1:0:0:0:
110,162,61493,1,2,0:0:0:0:
272,137,61689,5,8,0:0:0:0:
75,84,61885,1,2,0:0:0:0:
201,0,62081,5,0,1:0:0:0:
163,243,62277,1,2,0:0:0:0:
158,277,62375,1,2,0:0:0:0:
154,311,62473,2,0,P|207:326|265:291,1,120.000004577637,8|2,0:0|0:0,0:0:0:0:
493,226,62866,6,0,P|440:241|382:206,1,120.000004577637,0|2,1:0|3:2,0:0:0:0:
385,211,63160,1,10,0:0:0:0:
385,211,63258,1,0,1:0:0:0:
444,13,63454,2,0,P|463:32|463:66,1,60.0000022888184,10|0,0:0|0:0,0:0:0:0:
493,226,63650,6,0,P|440:241|382:206,1,120.000004577637,0|2,1:0|3:2,0:0:0:0:
385,211,63944,1,10,0:0:0:0:
385,211,64042,1,0,0:0:0:0:
444,13,64238,2,0,P|463:32|463:66,1,60.0000022888184,10|0,0:0|0:0,0:0:0:0:
285,162,64434,6,0,P|298:108|357:75,1,120.000004577637,0|2,1:0|0:0,0:0:0:0:
350,75,64728,1,2,0:0:0:0:
350,75,64826,1,8,0:0:0:0:
446,166,65022,1,2,0:0:0:0:
258,244,65219,2,0,P|231:232|214:207,1,60.0000022888184,0|0,1:0|0:0,0:0:0:0:
151,116,65415,5,2,1:0:0:0:
151,116,65513,1,0,1:0:0:0:
151,116,65611,2,0,P|154:145|140:172,1,60.0000022888184,8|0,0:0|0:0,0:0:0:0:
94,273,65807,2,0,P|117:255|148:253,1,60.0000022888184,2|0,0:0|0:0,0:0:0:0:
258,244,66003,1,0,1:0:0:0:
451,338,66297,5,0,3:0:0:0:
451,338,66395,2,0,P|406:380|336:372,1,120.000004577637,8|2,0:0|3:2,0:0:0:0:
242,180,66787,5,0,3:0:0:0:
250,212,66885,1,10,0:0:0:0:
258,244,66983,1,2,1:0:0:0:
410,82,67179,5,8,0:0:0:0:
410,82,67375,2,0,L|401:151,1,60.0000022888184,2|2,0:0|0:0,0:0:0:0:
378,301,67571,5,4,1:0:0:0:
234,148,67768,1,2,0:0:0:0:
264,354,67964,5,8,0:0:0:0:
365,169,68160,1,2,0:0:0:0:
179,261,68356,5,0,1:0:0:0:
143,108,68552,1,2,0:0:0:0:
136,79,68650,1,2,0:0:0:0:
130,50,68748,2,0,P|174:17|243:25,1,120.000004577637,8|2,0:0|0:0,0:0:0:0:
443,190,69140,6,0,P|399:157|330:165,1,120.000004577637,0|2,1:0|3:2,0:0:0:0:
336,161,69434,1,10,0:0:0:0:
336,161,69532,1,0,0:0:0:0:
307,380,69728,2,0,P|332:369|346:337,1,60.0000022888184,10|0,0:0|0:0,0:0:0:0:
443,190,69924,6,0,P|399:157|330:165,1,120.000004577637,0|2,1:0|3:2,0:0:0:0:
336,161,70218,1,10,0:0:0:0:
336,161,70316,1,0,0:0:0:0:
307,380,70513,2,0,P|332:369|346:337,1,60.0000022888184,10|0,0:0|0:0,0:0:0:0:
210,167,70709,6,0,P|203:221|244:277,1,120.000004577637,0|2,1:0|0:0,0:0:0:0:
238,273,71003,1,2,0:0:0:0:
238,273,71101,1,8,0:0:0:0:
373,239,71297,1,2,0:0:0:0:
222,86,71493,6,0,P|193:82|165:92,1,60.0000022888184,0|0,1:0|0:0,0:0:0:0:
102,43,71689,1,2,1:0:0:0:
102,43,71787,1,0,1:0:0:0:
102,43,71885,6,0,P|83:69|79:101,1,60.0000022888184,8|0,0:0|0:0,0:0:0:0:
3,125,72081,2,0,P|16:154|41:173,1,60.0000022888184,2|0,0:0|0:0,0:0:0:0:
167,243,72277,6,0,P|185:217|189:186,1,60.0000022888184,0|0,1:0|0:0,0:0:0:0:
3,125,72473,2,0,P|16:154|41:173,1,60.0000022888184,10|0,0:0|0:0,0:0:0:0:
167,243,72670,6,0,P|207:167|164:92,1,180.000006866455,8|0,0:0|3:0,0:0:0:0:
78,95,73062,1,8,0:0:0:0:
24,251,73258,5,2,1:0:0:0:
53,254,73356,1,2,1:2:0:0:
81,244,73454,1,8,0:0:0:0:
242,163,73650,5,0,0:0:0:0:
281,346,73846,1,4,1:0:0:0:
452,276,74042,1,2,0:0:0:0:
280,366,74238,5,8,0:0:0:0:
453,296,74434,1,2,0:0:0:0:
299,169,74630,6,0,P|259:134|200:130,1,95.9999970703126,0|2,1:0|3:2,0:0:0:0:
134,84,74924,2,0,P|165:48|211:35,1,95.9999970703126,8|0,0:0|3:0,0:0:0:0:
305,20,75219,1,10,0:0:0:0:
229,207,75415,5,0,1:0:0:0:
53,135,75611,2,0,P|38:89|48:43,2,95.9999970703126,2|8|2,0:0|0:0|0:0,0:0:0:0:
299,169,76199,6,0,P|259:134|200:130,1,95.9999970703126,0|2,1:0|3:2,0:0:0:0:
134,84,76493,2,0,P|165:48|211:35,1,95.9999970703126,8|0,0:0|3:0,0:0:0:0:
305,20,76788,1,10,0:0:0:0:
229,207,76983,5,0,1:0:0:0:
57,231,77179,1,2,0:0:0:0:
195,345,77375,5,8,0:0:0:0:
37,219,77571,1,2,0:0:0:0:
56,338,77768,5,0,1:0:0:0:
240,197,77964,1,2,0:0:0:0:
217,373,78160,5,8,0:0:0:0:
250,187,78356,1,2,0:0:0:0:
377,326,78552,6,0,L|482:316,1,95.9999970703126,4|2,1:0|3:2,0:0:0:0:
472,316,78846,1,8,0:0:0:0:
472,316,78944,1,0,0:0:0:0:
494,200,79140,2,0,L|506:134,1,47.9999985351563,10|0,0:0|0:0,0:0:0:0:
392,240,79336,6,0,L|296:249,1,95.9999970703126,0|2,1:0|3:2,0:0:0:0:
296,249,79630,1,8,0:0:0:0:
296,249,79728,1,0,0:0:0:0:
318,132,79924,2,0,L|330:66,1,47.9999985351563,10|0,0:0|0:0,0:0:0:0:
216,172,80120,5,4,1:0:0:0:
405,150,80317,1,2,0:0:0:0:
259,22,80513,5,8,0:0:0:0:
419,149,80709,1,2,0:0:0:0:
216,172,80905,6,0,P|168:196|144:250,1,95.9999970703126,0|2,1:0|3:2,0:0:0:0:
75,292,81199,2,0,P|52:250|56:202,1,95.9999970703126,8|0,0:0|3:0,0:0:0:0:
75,107,81493,1,10,0:0:0:0:
226,252,81689,5,0,1:0:0:0:
92,384,81885,2,0,P|44:382|5:354,2,95.9999970703126,2|8|2,0:0|0:0|0:0,0:0:0:0:
216,172,82473,6,0,P|168:196|144:250,1,95.9999970703126,0|2,1:0|3:2,0:0:0:0:
75,292,82767,2,0,P|52:250|56:202,1,95.9999970703126,8|0,0:0|3:0,0:0:0:0:
75,107,83061,1,10,0:0:0:0:
226,252,83258,6,0,P|270:280|329:275,1,95.9999970703126,0|2,1:0|0:0,0:0:0:0:
312,280,83552,1,0,0:0:0:0:
312,280,83650,1,8,0:0:0:0:
272,114,83846,1,2,0:0:0:0:
129,143,84042,6,0,P|116:164|111:189,1,47.9999985351563,0|0,1:0|0:0,0:0:0:0:
26,222,84238,1,2,1:0:0:0:
26,222,84336,1,0,1:0:0:0:
26,222,84434,2,0,P|37:243|56:260,1,47.9999985351563,8|0,0:0|0:0,0:0:0:0:
42,350,84630,2,0,P|65:350|89:343,1,47.9999985351563,2|0,0:0|0:0,0:0:0:0:
263,322,84826,6,0,P|251:301|232:283,1,47.9999985351563,0|0,1:0|0:0,0:0:0:0:
26,222,85022,1,2,1:0:0:0:
37,243,85120,1,0,1:0:0:0:
54,259,85218,1,8,0:0:0:0:
178,356,85415,1,0,1:0:0:0:
249,193,85611,6,0,P|225:192|201:199,1,47.9999985351563,8|0,0:0|0:0,0:0:0:0:
42,350,85807,1,2,1:0:0:0:
66,351,85905,1,0,1:0:0:0:
89,343,86003,1,12,0:0:0:0:
89,343,86395,5,4,1:0:0:0:
423,41,98944,5,4,1:0:0:0:
423,41,99532,5,0,1:0:0:0:
411,62,99630,1,0,1:0:0:0:
401,83,99728,2,0,P|360:88|322:119,1,80,8|0,0:0|3:0,0:0:0:0:
259,63,100022,2,0,P|244:99|248:139,1,80,8|0,0:0|3:0,0:0:0:0:
170,175,100317,1,8,0:0:0:0:
366,330,100513,6,0,P|340:297|294:280,1,80,8|0,0:0|3:0,0:0:0:0:
312,197,100807,2,0,P|272:202|240:225,1,80,8|0,0:0|3:0,0:0:0:0:
170,175,101102,1,8,0:0:0:0:
44,345,101297,6,0,L|25:259,1,80,8|0,0:0|3:0,0:0:0:0:
98,218,101591,2,0,L|115:296,1,80,8|0,0:0|3:0,0:0:0:0:
137,378,101885,1,8,0:0:0:0:
366,330,102081,5,0,1:0:0:0:
344,321,102179,1,0,1:0:0:0:
320,318,102277,1,6,0:0:0:0:
409,217,102473,5,8,0:0:0:0:
431,208,102571,1,0,0:0:0:0:
455,205,102669,1,2,0:0:0:0:
468,22,102866,1,0,1:0:0:0:
447,33,102964,2,0,L|451:123,1,80,0|0,3:0|3:0,0:0:0:0:
359,127,103258,5,8,0:0:0:0:
337,118,103356,1,0,0:0:0:0:
313,115,103454,1,2,0:0:0:0:
135,150,103650,6,0,L|138:189,1,40,0|0,1:0|0:0,0:0:0:0:
186,307,103846,1,2,0:0:0:0:
0,227,104042,6,0,L|3:266,1,40,8|0,0:0|0:0,0:0:0:0:
51,384,104238,1,2,0:0:0:0:
186,307,104434,6,0,P|220:280|265:278,1,80,0|2,1:0|3:2,0:0:0:0:
273,187,104728,2,0,P|313:203|337:241,1,80,8|0,0:0|3:0,0:0:0:0:
334,326,105022,1,10,0:0:0:0:
512,275,105219,5,4,1:0:0:0:
434,237,105415,1,2,0:0:0:0:
434,237,105513,1,2,0:0:0:0:
434,237,105611,1,8,0:0:0:0:
495,169,105807,1,2,0:0:0:0:
418,131,106003,1,0,1:0:0:0:
484,73,106199,1,2,3:2:0:0:
484,73,106297,1,8,0:0:0:0:
400,36,106493,1,0,2:0:0:0:
400,36,106591,1,10,0:0:0:0:
346,189,106787,5,0,1:0:0:0:
346,189,106885,1,2,0:0:0:0:
346,189,106983,1,2,0:0:0:0:
327,90,107179,1,8,0:0:0:0:
247,144,107375,1,2,0:0:0:0:
228,52,107571,1,0,1:0:0:0:
149,113,107768,1,2,3:2:0:0:
149,113,107866,1,8,0:0:0:0:
133,20,108062,1,0,3:0:0:0:
133,20,108160,1,10,0:0:0:0:
0,119,108356,6,0,P|30:145|83:148,1,80,0|2,1:0|0:0,0:0:0:0:
61,76,108650,1,0,0:0:0:0:
0,129,108748,2,0,P|30:155|83:158,1,80,8|2,0:0|0:0,0:0:0:0:
230,235,109140,6,0,P|188:236|145:271,1,80,0|0,1:0|0:0,0:0:0:0:
137,328,109434,1,0,3:0:0:0:
206,353,109532,2,0,P|212:334|211:314,1,40,8|0,0:0|0:0,0:0:0:0:
68,298,109728,2,0,P|61:316|62:336,1,40,2|0,0:0|0:0,0:0:0:0:
230,235,109924,5,0,1:0:0:0:
230,235,110120,2,0,P|243:204|246:177,1,44.0000013427735,2|0,1:0|1:0,0:0:0:0:
274,49,110317,5,8,0:0:0:0:
274,49,110513,2,0,P|279:70|289:89,1,44.0000013427735,2|0,1:0|1:0,0:0:0:0:
351,182,110709,6,0,B|429:174|402:228|473:222,2,132.00000402832,8|8|10,0:0|0:0|0:0,0:0:0:0:
174,136,111493,5,4,1:0:0:0:
78,125,111624,5,10,0:0:0:0:
89,28,111754,5,10,0:0:0:0:
186,39,111885,5,8,0:0:0:0:
135,47,112277,5,0,1:0:0:0:
97,78,112408,5,10,0:0:0:0:
127,116,112538,5,10,0:0:0:0:
165,86,112669,5,8,0:0:0:0:
77,259,113062,6,0,L|153:245,1,63.9999980468751,0|10,1:0|0:0,0:0:0:0:
176,332,113323,1,10,0:0:0:0:
246,278,113454,2,0,L|322:264,1,63.9999980468751,0|10,1:0|0:0,0:0:0:0:
345,351,113715,1,10,0:0:0:0:
415,297,113846,2,0,B|455:266|444:211|444:211|415:212|400:233,1,127.99999609375,0|0,1:0|1:0,0:0:0:0:
459,239,114238,6,0,P|451:269|432:295,2,63.9999980468751,12|2|2,0:0|0:0|0:0,0:0:0:0:
454,123,114630,5,4,1:0:0:0:
358,131,114761,5,10,0:0:0:0:
350,35,114892,5,10,0:0:0:0:
446,27,115022,5,8,0:0:0:0:
399,45,115415,5,0,1:0:0:0:
368,81,115546,5,10,0:0:0:0:
404,112,115676,5,10,0:0:0:0:
435,76,115806,5,8,0:0:0:0:
241,27,116199,6,0,L|230:107,1,63.9999980468751,0|10,1:0|0:0,0:0:0:0:
259,173,116460,1,10,0:0:0:0:
174,186,116591,2,0,L|163:266,1,63.9999980468751,0|10,1:0|0:0,0:0:0:0:
192,332,116853,1,10,0:0:0:0:
107,345,116983,2,0,B|68:330|68:330|41:235,1,127.99999609375,0|0,1:0|1:0,0:0:0:0:
23,129,117375,6,0,P|50:122|87:136,2,63.9999980468751,12|2|2,0:0|0:0|0:0,0:0:0:0:
174,186,117768,5,4,1:0:0:0:
250,178,117898,5,10,0:0:0:0:
326,171,118029,5,10,0:0:0:0:
402,164,118160,5,8,0:0:0:0:
346,149,118552,5,0,1:0:0:0:
308,145,118682,5,10,0:0:0:0:
270,141,118813,5,10,0:0:0:0:
232,138,118944,5,8,0:0:0:0:
445,61,119336,6,0,L|365:67,1,63.9999980468751,0|10,1:0|0:0,0:0:0:0:
231,23,119598,1,10,0:0:0:0:
305,40,119728,2,0,L|225:46,1,63.9999980468751,0|10,1:0|0:0,0:0:0:0:
20,17,119990,1,10,0:0:0:0:
153,34,120120,2,0,B|107:52|107:52|25:38,1,127.99999609375,0|0,1:0|1:0,0:0:0:0:
0,147,120513,6,0,P|-4:178|5:208,2,63.9999980468751,12|2|2,0:0|0:0|0:0,0:0:0:0:
126,162,120905,6,0,L|178:165,1,47.9999985351563,4|0,1:0|0:0,0:0:0:0:
305,91,121101,1,10,0:0:0:0:
316,70,121199,1,8,0:0:0:0:
313,46,121297,1,8,0:0:0:0:
166,11,121493,1,2,0:0:0:0:
267,172,121689,6,0,P|323:178|362:158,1,95.9999970703126,0|2,1:0|3:2,0:0:0:0:
421,239,121983,2,0,P|455:193|457:149,1,95.9999970703126,8|0,0:0|3:0,0:0:0:0:
403,94,122277,1,10,0:0:0:0:
332,293,122473,5,0,1:0:0:0:
221,93,122768,5,8,0:0:0:0:
75,255,123062,6,0,P|116:233|168:239,1,95.9999970703126,10|0,0:0|1:0,0:0:0:0:
190,248,123356,1,0,0:0:0:0:
217,256,123454,1,0,1:0:0:0:
245,256,123552,1,0,1:0:0:0:
272,247,123650,5,8,0:0:0:0:
306,200,123748,1,0,0:0:0:0:
360,180,123846,1,10,0:0:0:0:
417,186,123944,1,8,0:0:0:0:
467,212,124042,5,4,1:0:0:0:
339,317,124238,1,2,0:0:0:0:
276,129,124434,5,8,0:0:0:0:
432,300,124630,1,2,0:0:0:0:
422,104,124826,5,0,1:0:0:0:
320,345,125022,1,2,0:0:0:0:
291,366,125120,1,2,0:0:0:0:
255,373,125219,2,0,P|199:376|151:336,1,120.000004577637,8|2,0:0|0:0,0:0:0:0:
0,244,125611,6,0,P|56:247|104:207,1,120.000004577637,0|2,1:0|3:2,0:0:0:0:
103,208,125905,1,10,0:0:0:0:
103,208,126003,1,0,0:0:0:0:
43,20,126199,2,0,P|20:48|13:83,1,60.0000022888184,10|0,0:0|0:0,0:0:0:0:
0,244,126395,6,0,P|56:247|104:207,1,120.000004577637,0|2,1:0|3:2,0:0:0:0:
103,208,126689,1,10,0:0:0:0:
103,208,126787,1,0,0:0:0:0:
43,20,126983,2,0,P|20:48|13:83,1,60.0000022888184,10|0,0:0|0:0,0:0:0:0:
219,176,127179,6,0,P|193:126|134:104,1,120.000004577637,0|2,1:0|0:0,0:0:0:0:
136,104,127473,1,2,0:0:0:0:
136,104,127571,1,8,0:0:0:0:
0,244,127768,1,2,0:0:0:0:
192,297,127964,2,0,L|256:271,1,60.0000022888184,0|0,1:0|0:0,0:0:0:0:
341,214,128160,5,2,1:0:0:0:
341,214,128258,1,0,1:0:0:0:
341,214,128356,2,0,L|330:282,1,60.0000022888184,8|0,0:0|0:0,0:0:0:0:
337,384,128552,2,0,L|283:341,1,60.0000022888184,2|0,0:0|0:0,0:0:0:0:
192,297,128748,1,0,1:0:0:0:
472,212,129042,5,0,3:0:0:0:
472,212,129140,2,0,L|434:343,1,120.000004577637,8|2,0:0|3:2,0:0:0:0:
290,346,129532,5,0,1:0:0:0:
254,351,129630,1,10,0:0:0:0:
218,357,129728,1,0,1:0:0:0:
42,265,129924,5,8,0:0:0:0:
42,265,130120,2,0,L|101:255,1,60.0000022888184,2|2,0:0|0:0,0:0:0:0:
281,234,130317,5,4,1:0:0:0:
71,164,130513,1,2,0:0:0:0:
296,139,130709,5,8,0:0:0:0:
101,255,130905,1,2,0:0:0:0:
173,81,131101,5,0,1:0:0:0:
195,290,131297,1,2,0:0:0:0:
204,325,131395,1,2,0:0:0:0:
229,350,131493,2,0,P|296:355|343:320,1,120.000004577637,8|2,0:0|0:0,0:0:0:0:
458,188,131885,6,0,P|399:195|349:164,1,120.000004577637,0|2,1:0|3:2,0:0:0:0:
349,164,132179,1,10,0:0:0:0:
349,164,132277,1,0,0:0:0:0:
384,0,132473,2,0,P|406:21|421:52,1,60.0000022888184,10|0,0:0|0:0,0:0:0:0:
458,188,132670,6,0,P|399:195|349:164,1,120.000004577637,0|2,1:0|3:2,0:0:0:0:
349,164,132964,1,10,0:0:0:0:
349,164,133062,1,0,0:0:0:0:
384,0,133258,2,0,P|406:21|421:52,1,60.0000022888184,10|0,0:0|0:0,0:0:0:0:
259,159,133454,6,0,P|281:104|333:76,1,120.000004577637,0|2,1:0|0:0,0:0:0:0:
333,76,133748,1,2,0:0:0:0:
333,76,133846,1,8,0:0:0:0:
458,188,134042,1,2,0:0:0:0:
266,282,134238,6,0,P|240:297|211:300,1,60.0000022888184,0|0,1:0|0:0,0:0:0:0:
178,384,134434,1,2,1:0:0:0:
178,384,134532,1,0,1:0:0:0:
178,384,134630,2,0,P|147:367|131:341,1,60.0000022888184,8|0,0:0|0:0,0:0:0:0:
46,360,134826,2,0,P|45:325|59:298,1,60.0000022888184,2|0,0:0|0:0,0:0:0:0:
131,167,135022,6,0,P|161:183|177:209,1,60.0000022888184,0|0,1:0|0:0,0:0:0:0:
46,360,135219,2,0,P|45:325|59:298,1,60.0000022888184,10|0,0:0|0:0,0:0:0:0:
131,167,135415,6,0,P|204:213|210:299,1,180.000006866455,8|0,0:0|3:0,0:0:0:0:
132,346,135807,1,8,0:0:0:0:
0,233,136003,1,2,1:0:0:0:
24,217,136101,1,0,1:0:0:0:
53,213,136199,1,8,0:0:0:0:
204,69,136395,5,0,0:0:0:0:
277,221,136591,2,0,L|447:201,1,160,4|8,1:0|0:0,0:0:0:0:
436,202,137375,5,0,1:0:0:0:
304,137,137571,5,2,0:0:0:0:
289,132,137670,1,8,0:0:0:0:
420,119,137964,5,8,0:0:0:0:
317,324,138160,2,0,L|141:312,1,160,0|8,1:0|0:0,0:0:0:0:
157,313,138944,5,0,1:0:0:0:
112,187,139140,5,2,0:0:0:0:
105,202,139238,1,8,0:0:0:0:
44,354,139532,5,8,0:0:0:0:
19,113,139728,2,0,L|177:94,1,160,0|8,1:0|0:0,0:0:0:0:
177,94,140513,5,0,1:0:0:0:
251,190,140709,5,2,0:0:0:0:
249,178,140807,1,8,0:0:0:0:
229,0,141101,5,8,0:0:0:0:
483,22,141297,2,0,L|307:10,1,160,0|8,1:0|0:0,0:0:0:0:
229,0,141885,1,0,1:0:0:0:
357,57,142081,6,0,L|454:39,1,80,0|0,1:0|3:0,0:0:0:0:
448,54,142375,1,8,0:0:0:0:
452,69,142473,1,0,0:0:0:0:
452,84,142571,1,0,3:0:0:0:
449,99,142670,1,8,0:0:0:0:
449,99,142866,5,4,1:0:0:0:
282,149,143258,1,8,0:0:0:0:
437,186,143650,5,0,1:0:0:0:
279,132,143846,1,2,0:0:0:0:
282,149,143944,1,8,0:0:0:0:
308,281,144140,1,2,0:0:0:0:
311,298,144239,1,8,0:0:0:0:
26,237,144434,5,0,1:0:0:0:
193,187,144826,1,8,0:0:0:0:
38,150,145218,5,0,1:0:0:0:
195,169,145415,1,2,0:0:0:0:
193,187,145513,1,8,0:0:0:0:
171,320,145709,1,2,0:0:0:0:
169,338,145807,1,8,0:0:0:0:
448,273,146003,5,0,1:0:0:0:
281,323,146395,1,8,0:0:0:0:
436,360,146787,5,0,1:0:0:0:
448,273,146983,1,2,0:0:0:0:
430,278,147081,1,8,0:0:0:0:
281,323,147277,1,2,0:0:0:0:
263,329,147375,1,8,0:0:0:0:
8,365,147571,5,0,1:0:0:0:
175,315,147963,1,8,0:0:0:0:
20,278,148355,5,0,1:0:0:0:
8,365,148552,1,2,0:0:0:0:
26,360,148650,1,8,0:0:0:0:
175,315,148846,1,2,0:0:0:0:
193,310,148944,1,8,0:0:0:0:
256,192,149140,5,0,1:0:0:0:
256,192,149238,12,10,150513,0:0:0:0:
353,261,150709,6,0,P|392:260|428:279,1,80,0|2,1:0|0:0,0:0:0:0:
423,272,151101,2,0,P|383:253|339:258,1,80,8|2,0:0|0:0,0:0:0:0:
184,325,151493,6,0,P|217:333|260:314,1,71.9999978027344,0|10,1:0|0:0,0:0:0:0:
278,70,152277,6,0,L|289:150,1,80,0|2,1:0|0:0,0:0:0:0:
299,141,152670,2,0,L|285:40,1,80,8|2,0:0|0:0,0:0:0:0:
104,35,153062,6,0,L|111:88,1,47.9999985351563,0|8,1:0|0:0,0:0:0:0:
17,307,153846,6,0,P|53:282|111:284,1,95.9999970703126,0|2,1:0|3:2,0:0:0:0:
131,288,154140,1,8,0:0:0:0:
158,295,154238,2,0,P|231:299|264:275,1,95.9999970703126,0|10,0:0|0:0,0:0:0:0:
368,129,154630,6,0,L|401:36,1,95.9999970703126,0|2,1:0|3:2,0:0:0:0:
299,77,154924,2,0,L|235:1,1,95.9999970703126,8|0,0:0|0:0,0:0:0:0:
225,107,155219,1,10,0:0:0:0:
4,147,155415,5,0,1:0:0:0:
244,291,155709,5,8,0:0:0:0:
70,384,156003,6,0,L|90:259,1,95.9999970703126,8|0,0:0|1:0,0:0:0:0:
101,264,156297,1,0,0:0:0:0:
124,248,156395,1,0,1:0:0:0:
153,248,156493,1,0,1:0:0:0:
122,357,156591,6,0,P|53:359|6:280,1,143.999995605469,8|0,0:0|0:0,0:0:0:0:
0,200,156983,1,0,1:0:0:0:
512,183,157768,5,8,0:0:0:0:
512,183,158356,5,8,0:0:0:0:
485,194,158454,1,8,0:0:0:0:
460,209,158552,2,0,P|422:193|355:187,1,95.9999970703126,0|2,1:0|3:2,0:0:0:0:
367,72,158846,2,0,P|334:96|295:151,1,95.9999970703126,8|0,0:0|3:2,0:0:0:0:
245,294,159140,6,0,P|224:260|292:288,1,191.999994140625,10|0,0:0|0:0,0:0:0:0:
71,369,160121,6,0,P|94:294|86:227,1,120.000004577637,4|2,1:0|0:0,0:0:0:0:
92,253,160415,1,2,0:0:0:0:
92,253,160513,1,8,0:0:0:0:
3,153,160709,1,2,0:0:0:0:
176,118,160905,2,0,P|201:98|220:67,1,60.0000022888184,0|0,1:0|0:0,0:0:0:0:
283,6,161101,5,2,1:0:0:0:
283,6,161199,1,0,1:0:0:0:
283,6,161297,2,0,P|285:38|304:68,1,60.0000022888184,8|0,0:0|0:0,0:0:0:0:
325,155,161493,2,0,P|294:141|258:142,1,60.0000022888184,2|0,0:0|0:0,0:0:0:0:
225,292,161689,6,0,P|302:297|345:270,1,120.000004577637,0|2,1:0|0:0,0:0:0:0:
344,283,161983,1,0,3:0:0:0:
351,288,162081,2,0,P|303:322|281:377,1,120.000004577637,8|2,0:0|3:2,0:0:0:0:
512,316,162473,5,0,1:0:0:0:
476,314,162571,1,10,0:0:0:0:
439,311,162670,1,2,0:0:0:0:
225,292,162866,5,8,0:0:0:0:
225,292,163062,2,0,L|217:224,1,60.0000022888184,2|2,0:0|0:0,0:0:0:0:
201,85,163258,5,4,1:0:0:0:
87,242,163454,1,2,0:0:0:0:
265,150,163650,5,8,0:0:0:0:
64,160,163846,1,2,0:0:0:0:
198,367,164042,5,0,1:0:0:0:
174,149,164238,1,2,0:0:0:0:
176,111,164336,1,2,0:0:0:0:
201,85,164434,2,0,P|262:58|318:76,1,120.000004577637,8|2,0:0|0:0,0:0:0:0:
512,210,164826,6,0,P|450:183|393:201,1,120.000004577637,0|2,1:0|3:2,0:0:0:0:
400,196,165121,1,10,0:0:0:0:
400,196,165219,1,0,0:0:0:0:
378,368,165415,2,0,P|404:355|426:335,1,60.0000022888184,10|0,0:0|0:0,0:0:0:0:
512,210,165611,6,0,P|471:155|414:143,1,120.000004577637,0|2,1:0|3:2,0:0:0:0:
422,142,165906,1,10,0:0:0:0:
422,142,166004,1,0,0:0:0:0:
317,280,166200,2,0,P|346:282|375:275,1,60.0000022888184,10|0,0:0|0:0,0:0:0:0:
354,77,166395,6,0,P|327:139|345:195,1,120.000004577637,0|2,1:0|0:0,0:0:0:0:
339,187,166689,1,2,0:0:0:0:
339,187,166787,1,8,0:0:0:0:
491,74,166983,1,2,0:0:0:0:
279,0,167179,6,0,P|255:16|238:41,1,60.0000022888184,0|0,1:0|0:0,0:0:0:0:
137,42,167375,1,2,1:0:0:0:
137,42,167473,1,0,1:0:0:0:
137,42,167571,2,0,P|137:68|151:98,1,60.0000022888184,8|0,0:0|0:0,0:0:0:0:
102,189,167768,2,0,P|125:201|158:204,1,60.0000022888184,2|0,0:0|0:0,0:0:0:0:
339,191,167964,6,0,P|337:161|323:134,1,60.0000022888184,0|0,1:0|0:0,0:0:0:0:
102,189,168160,2,0,P|125:201|158:204,1,60.0000022888184,10|0,0:0|0:0,0:0:0:0:
387,100,168356,6,0,P|344:66|252:134,1,180.000006866455,8|0,0:0|3:0,0:0:0:0:
255,207,168748,1,8,0:0:0:0:
463,169,168944,5,2,1:0:0:0:
468,133,169042,1,0,1:0:0:0:
474,97,169140,5,12,0:0:0:0:
477,144,169238,1,0,0:0:0:0:
480,191,169336,1,10,0:0:0:0:
484,238,169434,1,8,0:0:0:0:
487,276,169532,5,4,1:0:0:0:
255,207,169728,1,2,0:0:0:0:
295,363,169924,5,8,0:0:0:0:
393,151,170121,1,2,0:0:0:0:
441,362,170317,6,0,P|404:327|353:334,1,95.9999970703126,0|2,1:0|3:2,0:0:0:0:
292,288,170611,2,0,P|243:302|223:350,1,95.9999970703126,8|0,0:0|3:0,0:0:0:0:
156,384,170905,1,10,0:0:0:0:
54,223,171101,6,0,L|171:231,1,95.9999970703126,0|2,1:0|0:0,0:0:0:0:
172,212,171395,1,0,0:0:0:0:
177,184,171493,1,8,0:0:0:0:
146,12,171689,5,2,0:0:0:0:
139,40,171787,1,2,0:0:0:0:
147,68,171885,2,0,P|187:98|237:85,1,95.9999970703126,0|2,1:0|3:2,0:0:0:0:
303,122,172179,2,0,P|349:102|363:52,1,95.9999970703126,8|0,0:0|3:0,0:0:0:0:
426,12,172473,1,10,0:0:0:0:
475,235,172670,5,0,1:0:0:0:
303,122,172866,1,2,0:0:0:0:
332,276,173062,5,8,0:0:0:0:
490,147,173258,1,2,0:0:0:0:
459,329,173454,5,0,1:0:0:0:
277,206,173650,1,2,1:0:0:0:
253,192,173748,1,0,1:0:0:0:
227,183,173846,2,0,P|173:177|129:213,1,95.9999970703126,8|2,0:0|0:0,0:0:0:0:
71,363,174238,6,0,P|133:378|167:363,1,95.9999970703126,0|2,1:0|3:2,0:0:0:0:
160,367,174532,1,10,0:0:0:0:
160,367,174630,1,0,0:0:0:0:
310,317,174826,2,0,P|281:319|258:333,1,47.9999985351563,10|0,0:0|0:0,0:0:0:0:
119,298,175022,6,0,P|80:270|64:225,1,95.9999970703126,0|2,1:0|3:2,0:0:0:0:
65,227,175317,1,10,0:0:0:0:
65,227,175415,1,0,0:0:0:0:
21,75,175611,2,0,P|35:100|36:127,1,47.9999985351563,10|0,0:0|0:0,0:0:0:0:
0,188,175807,5,4,1:0:0:0:
137,37,176003,1,2,0:0:0:0:
181,194,176199,5,8,0:0:0:0:
21,75,176395,1,2,0:0:0:0:
270,47,176591,6,0,P|284:104|271:148,1,95.9999970703126,0|2,1:0|3:2,0:0:0:0:
357,181,176885,2,0,P|314:221|270:232,1,95.9999970703126,8|0,0:0|3:0,0:0:0:0:
284,323,177179,1,10,0:0:0:0:
131,119,177375,6,0,P|178:107|238:122,1,95.9999970703126,0|2,1:0|0:0,0:0:0:0:
251,124,177670,1,0,0:0:0:0:
275,139,177768,1,8,0:0:0:0:
459,127,177964,1,2,0:0:0:0:
488,122,178062,1,2,0:0:0:0:
512,108,178160,6,0,P|498:165|511:209,1,95.9999970703126,0|2,1:0|3:2,0:0:0:0:
425,242,178454,2,0,P|467:282|511:293,1,95.9999970703126,8|0,0:0|3:0,0:0:0:0:
498,384,178748,1,10,0:0:0:0:
284,323,178944,6,0,L|186:314,1,95.9999970703126,0|2,1:0|0:0,0:0:0:0:
188,314,179238,1,2,0:0:0:0:
188,314,179336,1,8,0:0:0:0:
30,305,179532,1,2,0:0:0:0:
185,151,179728,6,0,P|204:168|214:205,1,47.9999985351563,0|0,1:0|0:0,0:0:0:0:
155,79,179924,1,2,1:0:0:0:
155,79,180022,1,0,1:0:0:0:
155,79,180121,2,0,P|179:71|216:80,1,47.9999985351563,8|0,0:0|0:0,0:0:0:0:
77,68,180317,2,0,P|82:43|108:15,1,47.9999985351563,2|0,0:0|0:0,0:0:0:0:
59,203,180513,6,0,P|35:210|-2:202,1,47.9999985351563,0|0,1:0|0:0,0:0:0:0:
155,79,180709,1,2,1:0:0:0:
177,71,180807,1,0,1:0:0:0:
201,73,180905,1,8,0:0:0:0:
138,213,181101,1,0,1:0:0:0:
28,130,181297,6,0,P|9:113|-1:76,1,47.9999985351563,8|0,0:0|0:0,0:0:0:0:
185,151,181493,1,2,1:0:0:0:
202,166,181591,1,0,1:0:0:0:
212,188,181689,5,12,0:0:0:0:
194,232,181787,1,0,0:0:0:0:
196,279,181885,1,10,0:0:0:0:
229,312,181983,1,8,0:0:0:0:
275,321,182081,6,0,L|371:311,1,95.9999970703126,4|2,1:0|0:0,0:0:0:0:
370,311,182375,1,0,0:0:0:0:
370,311,182473,1,8,0:0:0:0:
470,174,182670,1,2,0:0:0:0:
287,114,182866,6,0,P|264:119|242:135,1,47.9999985351563,0|0,1:0|0:0,0:0:0:0:
360,49,183062,1,2,1:0:0:0:
360,49,183160,1,0,1:0:0:0:
360,49,183258,2,0,P|344:31|318:20,1,47.9999985351563,8|0,0:0|0:0,0:0:0:0:
452,79,183454,2,0,P|458:56|455:28,1,47.9999985351563,2|0,1:0|1:0,1:0:0:0:
399,238,183650,6,0,P|414:255|440:266,1,47.9999985351563,0|0,1:0|0:0,0:0:0:0:
360,49,183846,1,2,1:0:0:0:
343,31,183944,1,0,1:0:0:0:
321,21,184042,1,8,0:0:0:0:
307,210,184238,1,0,1:0:0:0:
470,174,184434,6,0,P|492:168|515:151,1,47.9999985351563,8|0,0:0|0:0,0:0:0:0:
286,112,184630,1,2,1:0:0:0:
262,117,184728,1,0,1:0:0:0:
241,130,184826,5,8,0:0:0:0:
199,152,184924,1,8,0:0:0:0:
152,143,185022,1,10,0:0:0:0:
121,108,185120,1,8,0:0:0:0:
118,61,185218,5,8,0:0:0:0:
401,33,185611,5,8,0:0:0:0:
429,316,186003,6,0,P|394:281|336:278,1,95.9999970703126,8|2,0:0|1:0,0:0:0:0:
320,276,186297,1,0,1:0:0:0:
294,290,186395,5,8,0:0:0:0:
249,326,186493,1,0,0:0:0:0:
204,362,186591,1,10,0:0:0:0:
147,371,186689,1,8,0:0:0:0:
90,360,186787,6,0,L|79:299,1,47.9999985351563,4|0,1:0|0:0,0:0:0:0:
85,186,186983,1,2,0:0:0:0:
113,184,187081,1,2,0:0:0:0:
140,172,187179,1,8,0:0:0:0:
0,146,187375,1,2,0:0:0:0:
200,229,187571,6,0,P|220:162|184:102,1,143.999995605469,0|0,1:0|3:0,0:0:0:0:
140,172,187964,1,8,0:0:0:0:
310,83,188160,1,2,0:0:0:0:
512,99,188356,6,0,B|448:137|448:137|381:116,1,143.999995605469,0|0,1:0|3:0,0:0:0:0:
438,51,188748,1,8,0:0:0:0:
465,287,188944,1,2,0:0:0:0:
295,258,189140,6,0,P|258:317|279:384,1,143.999995605469,0|0,1:0|3:0,0:0:0:0:
375,361,189532,2,0,P|360:341|341:327,1,47.9999985351563,8|0,0:0|0:0,0:0:0:0:
183,262,189728,1,2,0:0:0:0:
341,327,189924,6,0,P|367:312|383:292,1,47.9999985351563,0|0,1:0|0:0,0:0:0:0:
417,190,190121,1,2,0:0:0:0:
389,183,190219,1,2,0:0:0:0:
365,168,190317,1,8,0:0:0:0:
512,185,190513,1,2,0:0:0:0:
282,177,190709,6,0,P|303:110|367:84,1,143.999995605469,0|0,1:0|3:0,0:0:0:0:
365,168,191101,1,8,0:0:0:0:
197,83,191297,1,2,0:0:0:0:
59,190,191493,5,0,1:0:0:0:
74,166,191591,1,0,0:0:0:0:
78,137,191689,1,0,3:0:0:0:
73,108,191787,1,0,3:0:0:0:
65,80,191885,1,8,0:0:0:0:
45,58,191983,1,0,0:0:0:0:
20,42,192081,1,2,0:0:0:0:
20,42,192277,5,0,1:0:0:0:
65,80,192375,1,0,0:0:0:0:
122,87,192473,1,8,0:0:0:0:
173,61,192571,1,8,0:0:0:0:
207,13,192670,5,8,0:0:0:0:
235,14,192768,1,0,0:0:0:0:
260,26,192866,1,10,0:0:0:0:
276,49,192964,1,8,0:0:0:0:
286,75,193062,6,0,L|279:135,1,47.9999985351563,4|0,1:0|0:0,0:0:0:0:
296,248,193258,1,2,0:0:0:0:
323,247,193356,1,2,0:0:0:0:
349,234,193454,1,8,0:0:0:0:
217,195,193650,1,2,0:0:0:0:
420,278,193846,6,0,P|428:207|374:153,1,143.999995605469,0|0,1:0|3:0,0:0:0:0:
349,234,194238,1,8,0:0:0:0:
512,135,194434,1,2,0:0:0:0:
388,61,194630,6,0,B|320:89|320:89|240:61,1,143.999995605469,0|0,1:0|3:0,0:0:0:0:
318,0,195022,1,8,0:0:0:0:
324,248,195219,1,2,0:0:0:0:
141,263,195415,6,0,P|94:315|102:384,1,143.999995605469,0|0,1:0|3:0,0:0:0:0:
205,379,195807,2,0,P|193:357|175:342,1,47.9999985351563,8|0,0:0|0:0,0:0:0:0:
7,271,196003,1,2,0:0:0:0:
175,342,196199,6,0,P|197:334|217:318,1,47.9999985351563,0|0,1:0|0:0,0:0:0:0:
258,222,196395,1,2,0:0:0:0:
238,200,196493,1,2,0:0:0:0:
210,190,196591,1,8,0:0:0:0:
310,303,196787,1,2,0:0:0:0:
231,110,196983,6,0,P|158:126|130:204,1,143.999995605469,0|0,1:0|3:0,0:0:0:0:
210,190,197375,1,8,0:0:0:0:
137,11,197571,1,2,0:0:0:0:
317,81,197768,5,0,1:0:0:0:
344,96,197866,1,0,0:0:0:0:
375,102,197964,1,0,3:0:0:0:
407,98,198062,1,0,3:0:0:0:
435,83,198160,1,8,0:0:0:0:
457,60,198258,1,0,0:0:0:0:
470,31,198356,1,2,0:0:0:0:
470,31,198552,5,0,1:0:0:0:
420,59,198650,1,0,0:0:0:0:
400,113,198748,1,8,0:0:0:0:
415,168,198846,1,8,0:0:0:0:
461,202,198944,5,8,0:0:0:0:
478,224,199042,1,0,0:0:0:0:
483,252,199140,1,10,0:0:0:0:
479,280,199238,1,8,0:0:0:0:
458,300,199336,6,0,L|347:287,1,95.9999970703126,4|2,1:0|3:2,0:0:0:0:
267,324,199630,1,8,0:0:0:0:
267,324,199728,2,0,L|256:267,1,47.9999985351563,0|0,0:0|3:0,0:0:0:0:
147,208,199924,2,0,L|156:255,1,47.9999985351563,10|0,0:0|0:0,0:0:0:0:
179,359,200121,5,8,0:0:0:0:
263,159,200317,1,2,1:0:0:0:
179,359,200513,6,0,P|127:352|70:362,1,95.9999970703126,8|2,0:0|3:2,0:0:0:0:
57,367,200807,1,2,0:0:0:0:
35,384,200905,5,8,0:0:0:0:
27,192,201199,5,8,0:0:0:0:
26,15,201493,5,0,1:0:0:0:
41,312,201787,6,0,L|34:383,1,71.9999978027344
