osu file format v14

[General]
AudioFilename: audio.mp3
AudioLeadIn: 0
PreviewTime: 44811
Countdown: 0
SampleSet: Soft
StackLeniency: 0.3
Mode: 0
LetterboxInBreaks: 0
WidescreenStoryboard: 1

[Editor]
Bookmarks: 14265,31720,36084,40447,44811,53538,62265,64447,68811,77538,81902,86265,90629,108084,110265,114629,118993,123356,127720,132084,134265,136447,138629,140811,142993,147356,149538,151720,153902,158265,165902,175720,180084,188811,190084,190356,190447,190629,190720,190902
DistanceSpacing: 1.1
BeatDivisor: 3
GridSize: 32
TimelineZoom: 1.5

[Metadata]
Title:Chururira Chururira Daddadda!
TitleUnicode:チュルリラ・チュルリラ・ダッダッダ!
Artist:Tenjin Kotone
ArtistUnicode:天神子兔音
Creator:StrengeMistake
Version:Normal
Source:
Tags:Wada Takeaki KurageP virtual youtuber vtuber vocaloid cover Calvaria Japanese Rock
BeatmapID:2321700
BeatmapSetID:1057170

[Difficulty]
HPDrainRate:4
CircleSize:3.3
OverallDifficulty:4
ApproachRate:6
SliderMultiplier:1
SliderTickRate:1

[Events]
//Background and Video events
0,0,"74885603_p0 (2).png",0,0
//Break Periods
2,109905,113564
//Storyboard Layer 0 (Background)
//Storyboard Layer 1 (Fail)
//Storyboard Layer 2 (Pass)
//Storyboard Layer 3 (Foreground)
//Storyboard Layer 4 (Overlay)
//Storyboard Sound Samples

[TimingPoints]
69,272.727272727273,4,2,2,60,1,0
13978,-100,4,2,2,40,0,0
31705,-100,4,2,2,50,0,0
44796,-100,4,2,2,70,0,0
61977,-100,4,2,2,30,0,0
62250,-100,4,2,0,60,0,0
63341,-100,4,2,0,70,0,0
68796,-100,4,2,2,40,0,0
77523,-100,4,2,2,50,0,0
90614,-100,4,2,2,70,0,0
107795,-100,4,2,2,30,0,0
108069,-100,4,2,0,60,0,0
109159,-100,4,2,0,70,0,0
114614,-125,4,2,3,40,0,0
139705,-100,4,2,2,55,0,0
139978,-100,4,2,2,60,0,0
140250,-100,4,2,2,65,0,0
140523,-100,4,2,2,70,0,0
165796,-100,4,2,2,60,0,0
165887,-100,4,2,2,70,0,0
175705,-100,4,2,0,60,0,0
176796,-100,4,2,0,70,0,0
177887,-100,4,2,0,60,0,0
178978,-100,4,2,0,70,0,0
180069,-100,4,2,2,60,0,0
191523,-100,4,2,2,5,0,0

[Colours]
Combo1 : 128,0,64
Combo2 : 128,64,0
Combo3 : 255,0,128
Combo4 : 128,0,255

[HitObjects]
195,1,1159,6,0,L|185:107,1,100,2|2,0:0|0:0,0:0:0:0:
105,176,1705,2,0,P|55:176|12:210,2,100,2|2|2,0:0|0:0|0:0,0:0:0:0:
208,213,2523,1,2,0:0:0:0:
309,256,2796,2,0,L|299:355,1,100,2|2,0:1|0:1,0:0:0:0:
407,378,3341,6,0,P|456:378|496:349,1,100,2|2,0:0|0:0,0:0:0:0:
482,239,3887,1,2,0:0:0:0:
468,130,4159,1,2,0:0:0:0:
376,68,4432,2,0,P|326:67|286:96,1,100,10|2,0:0|0:0,0:0:0:0:
178,75,4978,2,0,L|73:67,1,100,2|2,0:1|0:1,0:0:0:0:
14,157,5523,6,0,P|63:170|85:219,1,100,6|10,0:0|0:0,0:0:0:0:
170,280,6069,2,0,P|121:293|99:342,2,100,0|10|0,0:0|0:0|0:0,0:0:0:0:
277,254,6887,1,10,0:0:0:0:
385,236,7159,2,0,L|394:124,1,100,2|10,0:1|0:1,0:0:0:0:
316,56,7705,6,0,P|272:79|223:76,1,100,2|10,0:0|0:0,0:0:0:0:
115,54,8250,2,0,P|65:50|22:74,1,100,2|10,0:0|0:0,0:0:0:0:
14,184,8796,1,2,0:0:0:0:
6,293,9069,1,10,0:0:0:0:
89,364,9341,2,0,P|138:360|181:384,1,100,2|10,0:1|0:1,0:0:0:0:
291,381,9887,6,0,L|301:278,1,100,2|10,0:0|0:0,0:0:0:0:
400,236,10432,2,0,P|449:232|492:256,2,100,0|10|0,0:0|0:0|0:0,0:0:0:0:
312,168,11250,1,10,0:0:0:0:
224,101,11523,2,0,L|233:1,1,100,2|10,0:1|0:1,0:0:0:0:
124,17,12069,6,0,L|114:116,1,100,2|10,0:0|0:0,0:0:0:0:
24,179,12614,1,2,0:0:0:0:
11,288,12887,1,10,0:0:0:0:
83,369,13159,2,0,P|131:375|175:352,1,100,2|10,0:0|0:0,0:0:0:0:
185,242,13705,2,0,L|194:117,1,100,10|10,0:0|0:0,0:0:0:0:
285,200,14250,6,0,L|276:325,1,100,2|0,0:0|0:0,0:0:0:0:
378,253,14796,2,0,L|387:128,1,100,2|2,0:0|0:0,0:0:0:0:
451,64,15341,2,0,P|407:44|357:49,2,100,2|2|2,0:0|0:0|0:0,0:0:0:0:
490,167,16159,1,0,0:0:0:0:
467,274,16432,6,0,P|401:345|304:339,1,200,2|2,0:0|0:0,0:0:0:0:
200,306,17250,1,2,0:0:0:0:
96,268,17523,2,0,L|106:153,1,100,2|2,0:0|0:0,0:0:0:0:
203,118,18069,2,0,L|193:233,1,100,2|2,0:0|0:0,0:0:0:0:
296,260,18614,6,0,P|354:280|466:205,1,200,2|2,0:0|0:0,0:0:0:0:
468,101,19432,1,2,0:0:0:0:
399,15,19705,2,0,P|355:7|298:31,2,100,2|2|2,0:0|0:0|0:0,0:0:0:0:
364,119,20523,1,0,0:0:0:0:
425,210,20796,6,0,P|438:261|420:314,1,100,2|2,0:0|0:0,0:0:0:0:
327,355,21341,2,0,P|314:304|332:251,1,100,2|2,0:0|0:0,0:0:0:0:
241,188,21887,2,0,B|212:170|212:170|132:186,2,100,2|2|2,0:0|0:0|0:0,0:0:0:0:
340,140,22705,1,0,0:0:0:0:
315,32,22978,6,0,P|268:15|221:30,1,100,2|0,0:0|0:0,0:0:0:0:
115,59,23523,2,0,B|83:77|83:77|70:169,1,100,2|2,0:0|0:0,0:0:0:0:
125,237,24069,2,0,L|16:245,2,100,2|2|2,0:0|0:0|0:0,0:0:0:0:
222,288,24887,1,2,0:0:0:0:
322,333,25159,6,0,P|409:347|474:264,1,200,2|2,0:0|0:0,0:0:0:0:
482,157,25978,1,2,0:0:0:0:
449,52,26250,2,0,L|342:37,1,100,2|2,0:0|0:0,0:0:0:0:
286,128,26796,2,0,L|393:143,1,100,2|2,0:0|0:0,0:0:0:0:
415,246,27341,6,0,B|326:216|322:326|234:298,1,200,2|2,0:0|0:0,0:0:0:0:
134,253,28159,1,0,0:0:0:0:
34,205,28432,2,0,L|28:92,2,100,2|2|2,0:0|0:0|0:0,0:0:0:0:
45,314,29250,1,2,0:0:0:0:
144,361,29523,5,2,0:0:0:0:
144,361,29796,1,2,0:0:0:0:
236,299,30069,1,2,0:0:0:0:
236,299,30341,1,2,0:0:0:0:
327,237,30614,2,0,B|410:160|437:272|526:187,1,200,10|2,0:3|0:0,0:0:0:0:
495,90,31432,1,10,0:0:0:0:
402,31,31705,6,0,P|348:61|296:45,1,100,6|8,0:0|0:0,0:0:0:0:
211,11,32250,2,0,B|170:17|170:17|159:98,1,100,2|8,0:0|0:0,0:0:0:0:
238,156,32796,2,0,P|207:186|139:179,1,100,2|8,0:0|0:0,0:0:0:0:
84,102,33341,2,0,P|36:100|-1:132,2,100,2|10|2,0:0|0:0|0:0,0:0:0:0:
60,209,34159,6,0,P|52:262|78:311,1,100,8|0,0:0|0:0,0:0:0:0:
156,372,34705,1,10,0:0:0:0:
219,282,34978,2,0,B|265:252|265:252|334:281,1,100,0|10,0:0|0:0,0:0:0:0:
398,330,35523,2,0,B|440:347|440:347|486:317,1,100,0|10,0:0|0:0,0:0:0:0:
471,208,36069,5,2,0:0:0:0:
376,153,36341,2,0,P|318:138|265:154,1,100,12|2,0:0|0:0,0:0:0:0:
321,249,36887,2,0,P|307:307|322:360,1,100,12|2,0:0|0:0,0:0:0:0:
417,304,37432,2,0,P|476:318|528:303,1,100,12|2,0:0|0:0,0:0:0:0:
472,208,37978,2,0,P|487:149|471:97,1,100,12|2,0:0|0:0,0:0:0:0:
390,46,38523,6,0,B|351:38|351:38|281:72,1,100,14|0,0:1|0:0,0:0:0:0:
282,173,39069,2,0,P|242:244|199:168,1,200,8|10,0:0|0:0,0:0:0:0:
188,62,39887,2,0,P|154:29|99:24,1,100,2|10,0:0|0:0,0:0:0:0:
0,64,40432,5,2,0:0:0:0:
20,172,40705,2,0,P|8:229|23:274,1,100,8|0,0:0|0:0,0:0:0:0:
123,308,41250,2,0,B|178:278|178:278|321:315,1,200,8|8,0:0|0:0,0:0:0:0:
415,352,42069,2,0,P|471:337|498:292,1,100,0|8,0:0|0:0,0:0:0:0:
497,198,42614,5,2,0:0:0:0:
497,198,42887,1,2,0:0:0:0:
399,147,43159,1,2,0:0:0:0:
399,147,43432,1,2,0:0:0:0:
301,196,43705,2,0,P|253:218|201:210,2,100,2|2|2,0:0|0:0|0:0,0:0:0:0:
309,86,44523,1,8,0:3:0:0:
205,49,44796,6,0,L|87:60,1,100,6|8,0:0|0:0,0:0:0:0:
9,4,45341,2,0,P|-2:69|15:109,1,100,2|8,0:0|0:0,0:0:0:0:
103,157,45887,1,2,0:0:0:0:
113,266,46159,1,10,0:0:0:0:
66,365,46432,2,0,L|189:370,1,100,2|8,0:0|0:0,0:0:0:0:
276,367,46978,6,0,P|330:361|372:330,2,100,2|10|2,0:0|0:0|0:0,0:0:0:0:
287,257,47796,1,10,0:0:0:0:
265,149,48069,1,2,0:0:0:0:
188,70,48341,2,0,P|229:43|278:38,1,100,10|10,0:0|0:3,0:0:0:0:
386,65,48887,1,10,0:0:0:0:
454,150,49159,6,0,P|466:203|454:247,1,100,2|8,0:0|0:0,0:0:0:0:
351,285,49705,2,0,P|339:232|351:188,1,100,2|8,0:0|0:0,0:0:0:0:
251,140,50250,2,0,B|221:125|221:125|131:148,2,100,2|10|2,0:0|0:0|0:0,0:0:0:0:
268,249,51069,1,8,0:0:0:0:
238,354,51341,6,0,P|177:374|133:350,1,100,2|10,0:0|0:0,0:0:0:0:
73,285,51887,1,2,0:0:0:0:
73,285,52159,1,10,0:0:0:0:
3,199,52432,2,0,L|11:94,1,100,2|10,0:0|0:0,0:0:0:0:
120,93,52978,2,0,L|112:198,1,100,2|10,0:0|0:0,0:0:0:0:
181,278,53523,6,0,P|228:294|291:276,1,100,6|8,0:0|0:0,0:0:0:0:
340,194,54069,2,0,P|387:178|450:196,1,100,2|8,0:0|0:0,0:0:0:0:
489,283,54614,1,2,0:0:0:0:
427,374,54887,1,10,0:0:0:0:
320,347,55160,2,0,P|271:337|240:295,1,100,2|8,0:0|0:0,0:0:0:0:
210,195,55705,6,0,L|206:80,1,100,2|10,0:0|0:0,0:0:0:0:
97,77,56250,2,0,L|93:176,1,100,2|10,0:0|0:0,0:0:0:0:
90,287,56796,2,0,P|39:299|7:335,2,100,2|10|10,0:0|0:0|0:3,0:0:0:0:
197,312,57614,1,10,0:0:0:0:
305,331,57887,6,0,P|356:319|388:283,1,100,2|8,0:0|0:0,0:0:0:0:
479,224,58432,2,0,P|443:185|395:176,1,100,2|8,0:0|0:0,0:0:0:0:
300,127,58978,2,0,P|284:177|300:222,2,100,2|10|2,0:0|0:0|0:0,0:0:0:0:
391,65,59796,2,0,P|492:49|464:111,1,200,8|8,0:0|0:0,0:0:0:0:
418,186,60614,1,2,0:0:0:0:
453,290,60887,1,10,0:0:0:0:
380,371,61159,2,0,P|317:370|282:330,2,100,2|10|2,0:0|0:0|0:0,0:0:0:0:
258,187,62250,5,2,1:2:0:0:
140,373,62796,1,2,1:2:0:0:
37,177,63341,1,2,1:2:0:0:
147,181,63614,1,2,1:2:0:0:
258,187,63887,1,2,1:2:0:0:
42,200,68796,6,0,L|33:313,1,100,6|2,0:0|0:0,0:0:0:0:
130,352,69341,1,2,0:0:0:0:
130,352,69614,1,10,0:0:0:0:
230,305,69887,2,0,P|291:302|345:337,2,100,2|10|2,0:0|0:0|0:0,0:0:0:0:
140,240,70705,1,8,0:0:0:0:
50,175,70978,6,0,P|44:116|155:44,1,200,2|2,0:0|0:0,0:0:0:0:
247,91,71796,1,10,0:0:0:0:
349,50,72069,2,0,P|411:38|454:53,1,100,2|10,0:0|0:0,0:0:0:0:
495,145,72614,2,0,P|433:157|390:142,1,100,2|10,0:0|0:0,0:0:0:0:
302,200,73159,6,0,B|243:169|243:169|104:212,1,200,2|2,0:1|0:0,0:0:0:0:
39,288,73978,1,10,0:0:0:0:
9,182,74250,2,0,L|8:82,2,100,2|10|2,0:0|0:0|0:0,0:0:0:0:
115,208,75069,1,8,0:0:0:0:
195,133,75341,5,2,0:0:0:0:
195,133,75614,1,10,0:0:0:0:
298,182,75887,1,2,0:0:0:0:
298,182,76159,1,10,0:0:0:0:
376,104,76432,2,0,L|478:87,1,100,10|10,0:3|0:0,0:0:0:0:
493,196,76978,2,0,L|391:213,1,100,2|10,0:0|0:0,0:0:0:0:
304,275,77523,6,0,P|259:311|261:375,1,100,6|8,0:0|0:0,0:0:0:0:
146,380,78069,2,0,P|134:332|94:304,1,100,2|8,0:0|0:0,0:0:0:0:
15,228,78614,2,0,B|0:187|0:187|24:116,2,100,2|8|2,0:0|0:0|0:0,0:0:0:0:
117,186,79432,1,10,0:0:0:0:
217,231,79705,6,0,P|270:246|320:227,2,100,2|8|0,0:0|0:0|0:0,0:0:0:0:
267,132,80523,2,0,L|274:20,1,100,10|2,0:0|0:0,0:0:0:0:
379,0,81069,1,10,0:0:0:0:
481,38,81341,2,0,L|487:137,1,100,2|10,0:3|0:0,0:0:0:0:
496,247,81887,5,2,0:0:0:0:
395,290,82159,2,0,P|347:303|298:293,1,100,12|2,0:0|0:0,0:0:0:0:
198,341,82705,2,0,P|184:293|194:244,1,100,12|2,0:0|0:0,0:0:0:0:
147,144,83250,2,0,P|194:130|243:140,1,100,12|2,0:0|0:0,0:0:0:0:
344,93,83796,2,0,P|357:140|347:189,1,100,12|2,0:0|0:0,0:0:0:0:
290,283,84341,6,0,P|279:331|292:379,1,100,14|0,0:1|0:0,0:0:0:0:
390,328,84887,2,0,P|457:362|445:270,1,200,8|10,0:0|0:0,0:0:0:0:
434,164,85705,2,0,B|403:146|403:146|317:170,1,100,2|10,0:0|0:0,0:0:0:0:
246,219,86250,1,2,0:0:0:0:
150,164,86523,2,0,P|136:219|146:264,1,100,10|0,0:0|0:0,0:0:0:0:
140,370,87069,2,0,B|204:335|204:335|337:368,1,200,8|8,0:0|0:0,0:0:0:0:
432,332,87887,2,0,P|446:277|436:232,1,100,0|8,0:0|0:0,0:0:0:0:
352,165,88432,5,2,0:0:0:0:
352,165,88705,1,2,0:0:0:0:
256,215,88978,1,2,0:0:0:0:
256,215,89250,1,2,0:0:0:0:
163,155,89523,2,0,L|51:150,2,100,10|10|10,0:3|0:3|0:0,0:0:0:0:
260,103,90341,1,8,0:3:0:0:
352,165,90614,6,0,P|400:151|446:164,1,100,6|8,0:0|0:0,0:0:0:0:
395,262,91159,2,0,P|346:275|300:262,1,100,2|8,0:0|0:0,0:0:0:0:
196,224,91705,2,0,L|186:323,1,100,2|10,0:0|0:0,0:0:0:0:
77,341,92250,2,0,L|87:242,1,100,2|8,0:0|0:0,0:0:0:0:
105,132,92796,6,0,B|74:115|74:115|3:132,2,100,2|10|2,0:0|0:0|0:0,0:0:0:0:
202,182,93614,1,10,0:0:0:0:
302,137,93887,1,2,0:0:0:0:
399,183,94159,2,0,P|446:200|492:185,1,100,10|10,0:0|0:3,0:0:0:0:
510,76,94705,1,10,0:0:0:0:
406,39,94978,6,0,P|348:23|302:44,1,100,2|8,0:0|0:0,0:0:0:0:
217,92,95523,2,0,P|200:138|213:185,1,100,2|8,0:0|0:0,0:0:0:0:
303,250,96069,2,0,L|407:262,2,100,2|10|2,0:0|0:0|0:0,0:0:0:0:
202,295,96887,1,8,0:0:0:0:
101,339,97159,6,0,P|54:309|38:241,1,100,2|10,0:0|0:0,0:0:0:0:
24,165,97705,1,2,0:0:0:0:
24,165,97978,1,10,0:0:0:0:
69,65,98250,2,0,P|128:31|174:48,1,100,2|10,0:0|0:0,0:0:0:0:
249,95,98796,2,0,P|297:97|336:66,1,100,2|10,0:0|0:0,0:0:0:0:
438,26,99341,6,0,L|425:139,1,100,6|8,0:0|0:0,0:0:0:0:
471,226,99887,2,0,L|484:339,1,100,2|8,0:0|0:0,0:0:0:0:
386,378,100432,1,2,0:0:0:0:
287,328,100705,2,0,P|224:315|192:344,1,100,10|2,0:0|0:0,0:0:0:0:
100,384,101250,1,8,0:0:0:0:
20,308,101523,6,0,P|7:253|25:201,1,100,2|10,0:0|0:0,0:0:0:0:
114,157,102069,2,0,P|126:211|108:263,1,100,2|10,0:0|0:0,0:0:0:0:
201,321,102614,2,0,B|233:337|233:337|318:319,2,100,2|10|10,0:0|0:0|0:3,0:0:0:0:
244,220,103432,1,10,0:0:0:0:
212,115,103705,6,0,P|231:68|275:39,1,100,2|8,0:0|0:0,0:0:0:0:
316,140,104250,2,0,P|346:179|349:232,1,100,2|8,0:0|0:0,0:0:0:0:
244,220,104796,2,0,P|194:226|147:202,2,100,2|10|2,0:0|0:0|0:0,0:0:0:0:
316,140,105614,6,0,B|411:94|419:192|516:144,1,200,8|10,0:0|0:0,0:0:0:0:
466,45,106432,1,2,0:0:0:0:
361,11,106705,1,10,0:0:0:0:
259,54,106978,2,0,P|196:64|152:43,2,100,2|10|2,0:0|0:0|0:0,0:0:0:0:
401,222,108069,5,2,1:2:0:0:
233,364,108614,1,2,1:2:0:0:
26,290,109159,1,2,1:2:0:0:
106,214,109432,1,2,1:2:0:0:
194,148,109705,1,2,1:2:0:0:
47,217,114614,6,0,P|80:197|119:203,1,80,10|8,0:1|0:0,0:0:0:0:
195,249,115159,2,0,P|233:254|267:235,1,80,10|8,0:1|0:0,0:0:0:0:
347,273,115705,2,0,L|341:377,2,80,10|10|10,0:1|0:0|0:1,0:0:0:0:
416,220,116523,1,8,0:0:0:0:
350,161,116796,6,0,L|355:56,2,80,10|8|10,0:1|0:0|0:1,0:0:0:0:
280,214,117614,1,10,0:0:0:0:
211,268,117887,2,0,L|205:372,2,80,10|10|10,0:1|0:0|0:1,0:0:0:0:
144,209,118705,1,10,0:0:0:0:
93,137,118978,6,0,P|84:103|98:61,1,80,10|10,0:1|0:0,0:0:0:0:
170,10,119523,2,0,L|258:3,1,80,10|8,0:1|0:0,0:0:0:0:
324,50,120069,1,10,0:1:0:0:
401,9,120341,2,0,P|412:50|402:89,1,80,10|10,0:0|0:1,0:0:0:0:
457,155,120887,1,8,0:0:0:0:
400,221,121159,6,0,P|390:259|402:297,2,80,10|8|10,0:1|0:0|0:1,0:0:0:0:
316,191,121978,2,0,L|230:201,1,80,10|10,0:0|0:1,0:0:0:0:
158,159,122523,2,0,P|119:150|81:162,1,80,10|10,0:0|0:1,0:0:0:0:
31,234,123069,1,8,0:0:0:0:
93,295,123341,6,0,P|131:303|168:289,1,80,10|8,0:1|0:0,0:0:0:0:
234,231,123887,2,0,P|270:216|309:225,1,80,2|8,0:1|0:0,0:0:0:0:
390,260,124432,2,0,L|381:339,2,80,10|10|10,0:1|0:0|0:1,0:0:0:0:
401,172,125250,1,8,0:0:0:0:
375,87,125523,6,0,P|415:83|451:99,2,80,10|8|10,0:1|0:0|0:1,0:0:0:0:
291,115,126341,1,10,0:0:0:0:
208,143,126614,2,0,P|168:145|131:129,2,80,10|10|10,0:1|0:0|0:1,0:0:0:0:
273,202,127432,1,10,0:0:0:0:
197,246,127705,6,0,L|190:337,1,80,10|10,0:1|0:0,0:0:0:0:
107,297,128250,2,0,L|112:218,1,80,10|8,0:1|0:0,0:0:0:0:
75,136,128796,2,0,P|38:127|-12:144,2,80,10|10|10,0:1|0:0|0:1,0:0:0:0:
151,91,129614,1,8,0:0:0:0:
229,51,129887,6,0,P|267:61|317:43,2,80,10|8|10,0:1|0:0|0:1,0:0:0:0:
223,138,130705,2,0,L|215:222,1,80,10|10,0:0|0:1,0:0:0:0:
295,255,131250,2,0,L|303:171,1,80,10|10,0:0|0:1,0:0:0:0:
378,129,131796,1,8,0:0:0:0:
447,183,132069,6,0,P|457:220|443:257,1,80,10|10,0:1|0:0,0:0:0:0:
379,318,132614,2,0,L|280:323,1,80,10|10,0:1|0:0,0:0:0:0:
217,288,133159,2,0,P|177:283|144:304,2,80,10|10|10,0:1|0:0|0:1,0:0:0:0:
284,230,133978,1,10,0:0:0:0:
342,165,134250,6,0,P|357:131|347:80,1,80,10|10,0:1|0:0,0:0:0:0:
264,77,134796,2,0,P|248:110|258:161,1,80,10|10,0:1|0:0,0:0:0:0:
179,199,135341,1,10,0:1:0:0:
101,241,135614,1,10,0:0:0:0:
28,277,135887,2,0,P|12:310|22:361,1,80,10|8,0:1|0:0,0:0:0:0:
101,377,136432,6,0,L|196:379,1,80,10|10,0:1|0:0,0:0:0:0:
261,341,136978,2,0,P|276:304|270:265,1,80,10|10,0:1|0:0,0:0:0:0:
339,209,137523,2,0,L|420:214,2,80,10|10|10,0:1|0:0|0:1,0:0:0:0:
277,145,138341,1,8,0:0:0:0:
213,83,138614,6,0,L|128:78,1,80,10|10,0:1|0:0,0:0:0:0:
111,163,139159,2,0,L|197:167,1,80,10|10,0:1|0:0,0:0:0:0:
248,262,139705,5,10,0:0:0:0:
191,355,139978,1,10,0:0:0:0:
82,352,140250,1,10,0:0:0:0:
32,256,140523,1,10,0:0:0:0:
89,163,140796,1,6,0:0:0:0:
256,192,141069,12,2,142432,0:0:0:0:
339,86,142978,6,0,B|380:70|380:70|450:95,2,100,2|8|2,0:1|0:0|0:0,0:0:0:0:
256,159,143796,1,10,0:0:0:0:
172,86,144069,2,0,P|114:71|70:87,1,100,8|8,0:3|0:0,0:0:0:0:
27,180,144614,2,0,P|85:195|129:179,1,100,2|10,0:0|0:0,0:0:0:0:
206,253,145159,6,0,B|222:294|222:294|197:364,2,100,10|10|2,0:3|0:0|0:0,0:0:0:0:
251,152,145978,2,0,B|345:97|357:194|442:152,1,200,10|10,0:0|0:0,0:0:0:0:
504,242,146796,2,0,P|508:295|472:341,1,100,2|10,0:0|0:0,0:0:0:0:
376,307,147341,5,2,0:0:0:0:
271,341,147614,2,0,P|222:356|163:339,1,100,8|2,0:0|0:0,0:0:0:0:
219,245,148159,2,0,L|213:145,1,100,8|2,0:0|0:0,0:0:0:0:
161,47,148705,2,0,P|210:32|269:49,1,100,8|2,0:0|0:0,0:0:0:0:
350,99,149250,6,0,P|398:108|445:93,2,100,8|2|8,0:0|0:0|0:0,0:0:0:0:
249,145,150069,1,2,0:0:0:0:
148,189,150341,2,0,B|102:183|73:150|73:150|80:217|49:277,1,200,8|10,0:0|0:0,0:0:0:0:
3,357,151159,2,0,P|65:368|109:354,1,100,2|10,0:0|0:0,0:0:0:0:
210,363,151705,5,2,0:0:0:0:
319,349,151978,2,0,L|444:338,1,100,8|2,0:0|0:0,0:0:0:0:
406,230,152523,2,0,L|280:240,1,100,8|2,0:0|0:0,0:0:0:0:
293,127,153069,2,0,L|393:119,2,100,8|2|8,0:0|0:0|0:0,0:0:0:0:
201,66,153887,5,2,0:0:0:0:
103,116,154159,2,0,L|91:237,1,100,10|0,0:0|0:0,0:0:0:0:
83,325,154705,2,0,B|154:301|154:301|282:344,1,200,8|10,0:0|0:0,0:0:0:0:
379,368,155523,2,0,P|426:374|478:343,1,100,0|8,0:0|0:0,0:0:0:0:
507,248,156069,5,2,0:0:0:0:
507,248,156341,1,2,0:0:0:0:
474,148,156614,1,2,0:0:0:0:
474,148,156887,1,2,0:0:0:0:
506,43,157159,2,0,L|399:34,2,100,10|10|10,0:0|0:0|0:0,0:0:0:0:
286,24,158250,5,6,0:0:0:0:
309,242,158796,1,6,0:0:0:0:
108,152,159341,2,0,P|58:159|25:198,2,100,6|6|6,0:0|0:0|0:0,0:0:0:0:
327,131,160432,5,6,0:0:0:0:
129,33,160978,1,6,0:0:0:0:
146,252,161523,2,0,P|187:277|242:272,2,100,6|6|6,0:0|0:0|0:0,0:0:0:0:
247,56,162614,5,6,0:0:0:0:
48,150,163159,1,6,0:0:0:0:
229,275,163705,2,0,P|249:321|241:369,2,100,6|6|6,0:0|0:0|0:0,0:0:0:0:
136,75,164796,5,6,0:0:0:0:
88,289,165341,1,6,0:0:0:0:
298,224,165887,2,0,P|352:210|413:234,1,100,2|10,0:0|0:0,0:0:0:0:
348,321,166432,2,0,P|294:335|233:311,1,100,2|10,0:0|0:0,0:0:0:0:
198,227,166978,6,0,L|190:119,1,100,6|8,0:0|0:0,0:0:0:0:
82,150,167523,2,0,L|74:249,1,100,2|8,0:0|0:0,0:0:0:0:
58,359,168069,1,2,0:0:0:0:
164,332,168341,2,0,P|225:332|260:366,1,100,10|2,0:0|0:0,0:0:0:0:
360,328,168887,1,8,0:0:0:0:
466,302,169159,6,0,P|501:335|501:395,2,100,2|10|2,0:0|0:0|0:0,0:0:0:0:
436,195,169978,2,0,L|429:84,1,100,10|2,0:0|0:0,0:0:0:0:
323,67,170523,2,0,L|316:166,1,100,10|10,0:0|0:3,0:0:0:0:
225,229,171069,1,10,0:0:0:0:
120,196,171341,6,0,P|65:191|23:226,1,100,2|8,0:0|0:0,0:0:0:0:
54,324,171887,2,0,P|108:328|150:293,1,100,2|8,0:0|0:0,0:0:0:0:
225,229,172432,1,2,0:0:0:0:
312,295,172705,1,10,0:0:0:0:
398,227,172978,1,2,0:0:0:0:
483,295,173250,2,0,P|493:356|395:326,1,200,8|10,0:0|0:0,0:0:0:0:
398,227,174069,5,2,0:0:0:0:
393,117,174341,1,10,0:0:0:0:
308,46,174614,2,0,P|273:29|205:48,2,100,2|10|2,0:0|0:0|0:0,0:0:0:0:
256,260,175705,5,2,1:2:0:0:
66,370,176250,1,2,1:2:0:0:
66,149,176796,1,2,1:2:0:0:
160,92,177069,1,2,1:2:0:0:
256,41,177341,1,2,1:2:0:0:
256,260,177887,5,2,1:2:0:0:
446,370,178432,1,2,1:2:0:0:
446,149,178978,1,2,1:2:0:0:
352,92,179251,1,2,1:2:0:0:
256,41,179523,1,2,1:2:0:0:
256,259,180069,6,0,P|211:281|163:272,1,100,6|10,0:0|0:0,0:0:0:0:
92,189,180614,2,0,P|43:179|0:201,2,100,0|10|0,0:0|0:0|0:0,0:0:0:0:
200,173,181432,1,10,0:0:0:0:
307,150,181705,2,0,L|313:44,1,100,2|10,0:1|0:1,0:0:0:0:
416,86,182250,6,0,L|410:185,1,100,2|10,0:0|0:0,0:0:0:0:
428,294,182796,2,0,P|379:284|335:306,1,100,2|10,0:0|0:0,0:0:0:0:
232,346,183341,1,2,0:0:0:0:
128,309,183614,1,8,0:0:0:0:
28,262,183887,2,0,L|33:162,1,100,2|10,0:1|0:1,0:0:0:0:
135,120,184432,6,0,P|183:110|227:132,1,100,2|10,0:0|0:0,0:0:0:0:
333,100,184978,2,0,L|338:0,2,100,0|10|0,0:0|0:0|0:0,0:0:0:0:
415,172,185796,1,10,0:0:0:0:
328,240,186069,2,0,L|322:339,1,100,2|10,0:1|0:1,0:0:0:0:
220,379,186614,6,0,P|175:357|127:366,1,100,2|10,0:0|0:0,0:0:0:0:
24,326,187159,1,2,0:0:0:0:
36,216,187432,1,10,0:0:0:0:
48,106,187705,2,0,L|58:3,1,100,2|10,0:0|0:0,0:0:0:0:
154,58,188250,2,0,L|144:161,1,100,8|10,0:0|0:1,0:0:0:0:
243,207,188796,1,0,0:0:0:0:
410,133,189250,6,0,P|459:125|504:143,1,100,2|2,0:0|0:0,0:0:0:0:
446,237,189796,2,0,L|436:336,1,100,2|2,0:0|0:0,0:0:0:0:
295,376,190432,5,8,0:3:0:0:
117,327,190887,2,0,P|146:255|182:352,1,233.333333333333,4|0,0:0|0:0,0:0:0:0:
