osu file format v14

[General]
AudioFilename: audio.mp3
AudioLeadIn: 0
PreviewTime: 44811
Countdown: 0
SampleSet: Soft
StackLeniency: 0.3
Mode: 0
LetterboxInBreaks: 0
WidescreenStoryboard: 1

[Editor]
Bookmarks: 14265,31720,36084,40447,44811,53538,62265,64447,68811,77538,81902,86265,90629,108084,110265,114629,118993,123356,127720,132084,134265,136447,138629,140811,142993,147356,149538,151720,153902,158265,165902,175720,180084,188811,190084,190356,190447,190629,190720,190902
DistanceSpacing: 1.3
BeatDivisor: 3
GridSize: 32
TimelineZoom: 2.1

[Metadata]
Title:Chururira Chururira Daddadda!
TitleUnicode:チュルリラ・チュルリラ・ダッダッダ!
Artist:Tenjin Kotone
ArtistUnicode:天神子兔音
Creator:StrengeMistake
Version:Hard
Source:
Tags:Wada Takeaki KurageP virtual youtuber vtuber vocaloid cover Calvaria Japanese Rock
BeatmapID:2418776
BeatmapSetID:1057170

[Difficulty]
HPDrainRate:5
CircleSize:4
OverallDifficulty:6.5
ApproachRate:8
SliderMultiplier:1.3
SliderTickRate:1

[Events]
//Background and Video events
0,0,"74885603_p0 (2).png",0,0
//Break Periods
2,109905,113864
//Storyboard Layer 0 (Background)
//Storyboard Layer 1 (Fail)
//Storyboard Layer 2 (Pass)
//Storyboard Layer 3 (Foreground)
//Storyboard Layer 4 (Overlay)
//Storyboard Sound Samples

[TimingPoints]
69,272.727272727273,4,2,2,60,1,0
13978,-100,4,2,2,40,0,0
31705,-100,4,2,2,50,0,0
44796,-90.9090909090909,4,2,2,70,0,0
61977,-90.9090909090909,4,2,2,30,0,0
62250,-90.9090909090909,4,2,0,60,0,0
63341,-90.9090909090909,4,2,0,70,0,0
68796,-100,4,2,2,40,0,0
77523,-100,4,2,2,50,0,0
90614,-90.9090909090909,4,2,2,70,0,0
107795,-90.9090909090909,4,2,2,30,0,0
108069,-90.9090909090909,4,2,0,60,0,0
109159,-90.9090909090909,4,2,0,70,0,0
114614,-100,4,2,3,40,0,0
139705,-100,4,2,2,55,0,0
139978,-100,4,2,2,60,0,0
140250,-100,4,2,2,65,0,0
140523,-100,4,2,2,70,0,0
140796,-90.9090909090909,4,2,2,70,0,0
165796,-90.9090909090909,4,2,2,60,0,0
165887,-90.9090909090909,4,2,2,70,0,0
175705,-90.9090909090909,4,2,0,60,0,0
176796,-90.9090909090909,4,2,0,70,0,0
177887,-90.9090909090909,4,2,0,60,0,0
178978,-90.9090909090909,4,2,0,70,0,0
180069,-100,4,2,2,60,0,0
191523,-100,4,2,2,5,0,0

[Colours]
Combo1 : 128,0,64
Combo2 : 128,64,0
Combo3 : 255,0,128
Combo4 : 128,0,255

[HitObjects]
101,184,796,5,8,0:0:0:0:
101,184,887,1,8,0:0:0:0:
191,147,1069,1,8,0:0:0:0:
191,147,1159,6,0,P|239:135|300:158,1,86.6666666666667,2|0,0:0|0:0,0:0:0:0:
317,164,1432,2,0,P|394:178|460:145,1,130,2|2,0:0|0:0,0:0:0:0:
486,77,1887,1,0,0:0:0:0:
486,77,1977,2,0,P|438:65|377:88,1,86.6666666666667,2|0,0:0|0:0,0:0:0:0:
355,83,2250,2,0,P|313:90|272:78,1,86.6666666666667,2|0,0:0|0:0,0:0:0:0:
231,52,2523,1,2,0:0:0:0:
113,133,2796,6,0,P|113:187|78:235,1,86.6666666666667,2|0,0:1|0:0,0:0:0:0:
60,243,3069,2,0,P|94:268|113:307,1,86.6666666666667,2|0,0:1|0:0,0:0:0:0:
114,354,3341,1,2,0:0:0:0:
212,341,3523,5,0,0:0:0:0:
212,341,3614,2,0,P|263:335|306:364,1,86.6666666666667,2|0,0:0|0:0,0:0:0:0:
338,333,3887,2,0,L|351:198,1,130,2|2,0:0|0:0,0:0:0:0:
287,140,4341,1,0,0:0:0:0:
287,140,4432,2,0,L|285:91,3,43.3333333333333,10|8|8|2,0:0|0:0|0:0|0:0,0:0:0:0:
174,190,4978,6,0,P|156:144|113:129,1,86.6666666666667,2|0,0:1|0:0,0:0:0:0:
76,128,5250,2,0,P|30:146|15:189,1,86.6666666666667,2|0,0:1|0:0,0:0:0:0:
16,226,5523,1,6,0:0:0:0:
47,321,5705,5,0,0:0:0:0:
47,321,5796,2,0,P|97:308|149:327,1,86.6666666666667,10|0,0:0|0:0,0:0:0:0:
170,341,6069,2,0,P|235:357|299:336,1,130,0|10,0:0|0:0,0:0:0:0:
390,325,6523,1,0,0:0:0:0:
390,325,6614,2,0,L|396:220,1,86.6666666666667
399,190,6887,1,10,0:0:0:0:
359,52,7159,6,0,P|305:34|266:55,1,86.6666666666667,2|0,0:1|0:0,0:0:0:0:
238,69,7432,2,0,P|196:79|158:61,1,86.6666666666667,10|0,0:1|0:0,0:0:0:0:
123,27,7705,1,2,0:0:0:0:
44,78,7887,5,0,0:0:0:0:
44,78,7978,2,0,P|31:120|42:167,1,86.6666666666667,10|0,0:0|0:0,0:0:0:0:
51,207,8250,2,0,P|64:275|28:349,1,130,2|10,0:0|0:0,0:0:0:0:
137,367,8705,1,0,0:0:0:0:
137,367,8796,2,0,P|195:347|244:363,1,86.6666666666667,2|0,0:0|0:0,0:0:0:0:
264,365,9069,1,10,0:0:0:0:
405,349,9341,6,0,P|402:301|425:259,1,86.6666666666667,2|0,0:1|0:0,0:0:0:0:
436,222,9614,2,0,P|408:180|408:133,1,86.6666666666667,10|0,0:1|0:0,0:0:0:0:
413,96,9887,1,2,0:0:0:0:
347,33,10069,5,0,0:0:0:0:
347,33,10159,2,0,B|314:15|314:15|251:30,1,86.6666666666667,10|0,0:0|0:0,0:0:0:0:
221,45,10432,2,0,B|179:59|179:59|86:32,1,130,0|10,0:0|0:0,0:0:0:0:
44,117,10887,5,0,0:0:0:0:
44,117,10978,2,0,P|27:165|30:203,1,86.6666666666667
41,246,11250,1,10,0:0:0:0:
145,343,11523,6,0,P|162:295|159:257,1,86.6666666666667,2|0,0:1|0:0,0:0:0:0:
140,215,11796,2,0,P|138:171|154:131,1,86.6666666666667,10|0,0:1|0:0,0:0:0:0:
153,83,12069,1,2,0:0:0:0:
247,58,12250,5,0,0:0:0:0:
247,58,12341,2,0,P|291:47|336:57,1,86.6666666666667,10|0,0:0|0:0,0:0:0:0:
368,84,12614,2,0,L|373:224,1,130,2|10,0:0|0:0,0:0:0:0:
312,289,13069,1,0,0:0:0:0:
312,289,13159,2,0,P|271:305|228:301,1,86.6666666666667,2|0,0:0|0:0,0:0:0:0:
184,283,13432,1,10,0:0:0:0:
46,243,13705,6,0,L|41:296,2,43.3333333333333,10|8|8,0:0|0:0|0:0,0:0:0:0:
57,196,13978,2,0,P|72:156|58:114,1,86.6666666666667,10|0,0:0|0:0,0:0:0:0:
28,81,14250,6,0,B|76:66|76:66|162:89,1,130,2|0,0:0|0:0,0:0:0:0:
223,70,14659,1,2,0:0:0:0:
285,105,14796,2,0,P|293:150|276:197,1,65,2|0,0:0|0:0,0:0:0:0:
250,228,15069,2,0,P|245:262|253:296,1,65,2|0,0:0|0:0,0:0:0:0:
303,340,15341,2,0,L|442:357,2,130,2|2|2,0:0|0:0|0:0,0:0:0:0:
162,368,16159,1,0,0:0:0:0:
36,255,16432,6,0,P|113:236|142:184,1,130,2|0,0:0|0:0,0:0:0:0:
159,127,16841,1,2,0:0:0:0:
210,177,16978,2,0,L|218:253,1,65,2|0,0:0|0:0,0:0:0:0:
285,223,17250,2,0,L|277:147,1,65,2|0,0:0|0:0,0:0:0:0:
294,88,17523,2,0,P|359:69|419:103,1,130,2|2,0:0|0:0,0:0:0:0:
403,230,18069,2,0,P|337:248|277:214,1,130,2|2,0:0|0:0,0:0:0:0:
117,198,18614,6,0,B|178:160|178:160|252:173,1,130,2|0,0:0|0:0,0:0:0:0:
284,222,19023,1,2,0:0:0:0:
260,289,19159,2,0,B|199:327|199:327|125:314,1,130,2|2,0:0|0:0,0:0:0:0:
89,267,19569,1,2,0:0:0:0:
42,212,19705,2,0,L|29:51,2,130,2|2|2,0:0|0:0|0:0,0:0:0:0:
8,351,20523,1,0,0:0:0:0:
167,295,20796,6,0,P|214:236|201:168,1,130,2|2,0:0|0:0,0:0:0:0:
236,44,21341,2,0,P|263:114|328:136,1,130,2|2,0:0|0:0,0:0:0:0:
419,229,21887,2,0,P|344:217|293:262,2,130,2|2|2,0:0|0:0|0:0,0:0:0:0:
464,364,22705,1,0,0:0:0:0:
296,345,22978,6,0,B|246:331|246:331|143:380,1,130,2|0,0:0|0:0,0:0:0:0:
103,364,23387,1,2,0:0:0:0:
46,320,23523,2,0,P|37:283|45:253,1,65,2|0,0:0|0:0,0:0:0:0:
93,206,23796,2,0,L|188:199,1,65,2|0,0:0|0:0,0:0:0:0:
228,214,24069,2,0,B|294:235|294:235|370:210,2,130,2|2|2,0:0|0:0|0:0,0:0:0:0:
186,76,24887,1,2,0:0:0:0:
36,149,25159,6,0,B|12:197|12:197|38:310,1,130,2|0,0:0|0:0,0:0:0:0:
25,343,25569,1,2,0:0:0:0:
89,372,25705,2,0,P|139:378|165:368,1,65,2|0,0:0|0:0,0:0:0:0:
218,346,25978,2,0,P|251:338|285:346,1,65,2|0,0:0|0:0,0:0:0:0:
343,378,26250,2,0,B|369:340|369:340|474:318,1,130,2|2,0:0|0:0,0:0:0:0:
500,187,26796,2,0,B|473:224|473:224|368:246,1,130,2|2,0:0|0:0,0:0:0:0:
275,119,27341,6,0,P|228:76|122:104,1,130,2|0,0:0|0:0,0:0:0:0:
109,120,27750,1,2,0:0:0:0:
107,191,27887,2,0,P|154:234|260:206,1,130,2|0,0:0|0:0,0:0:0:0:
276,194,28296,1,2,0:0:0:0:
339,160,28432,2,0,B|408:148|408:148|515:191,2,130,2|2|2,0:0|0:0|0:0,0:0:0:0:
384,295,29250,1,2,0:0:0:0:
223,347,29523,6,0,L|151:354,1,65,2|0,0:0|0:0,0:0:0:0:
88,336,29796,2,0,L|16:343,1,65,2|0,0:0|0:0,0:0:0:0:
10,271,30069,2,0,L|82:264,1,65,2|0,0:0|0:0,0:0:0:0:
145,282,30342,2,0,L|217:275,1,65,2|0,0:0|0:0,0:0:0:0:
272,221,30614,2,0,L|278:158,2,43.3333333333333,8|8|8,0:3|0:3|0:3,0:0:0:0:
299,256,30887,2,0,B|336:282|336:282|433:271,2,130,8|0|10,0:0|0:0|0:0,0:0:0:0:
187,129,31705,6,0,P|123:127|64:177,2,130,6|8|2,0:0|0:0|0:0,0:0:0:0:
249,56,32432,2,0,L|263:-8,1,43.3333333333333,0|8,0:0|0:0,0:0:0:0:
317,144,32796,2,0,P|381:146|440:96,2,130,2|8|2,0:0|0:0|0:0,0:0:0:0:
247,209,33523,2,0,L|233:273,1,43.3333333333333,0|10,0:0|0:0,0:0:0:0:
69,253,33887,6,0,P|93:322|59:395,2,130,2|8|0,0:0|0:0|0:0,0:0:0:0:
8,186,34614,1,0,0:0:0:0:
8,186,34705,2,0,B|54:164|54:164|165:187,1,130,10|0,0:0|0:0,0:0:0:0:
223,70,35250,2,0,P|201:130|220:191,1,130,10|0,0:0|0:0,0:0:0:0:
314,210,35705,1,0,0:0:0:0:
314,210,35796,2,0,P|332:271|311:331,1,130,10|2,0:0|0:0,0:0:0:0:
143,351,36341,6,0,L|6:359,1,130,12|2,0:0|0:0,0:0:0:0:
41,267,36796,1,0,0:0:0:0:
41,267,36887,2,0,L|178:259,1,130,12|2,0:0|0:0,0:0:0:0:
196,170,37341,1,0,0:0:0:0:
196,170,37432,2,0,L|59:178,1,130,12|2,0:0|0:0,0:0:0:0:
92,88,37887,1,0,0:0:0:0:
92,88,37978,2,0,L|229:80,1,130,12|2,0:0|0:0,0:0:0:0:
317,81,38432,5,0,0:0:0:0:
317,81,38523,2,0,B|374:68|374:68|461:113,1,130,14|0,0:1|0:0,0:0:0:0:
448,196,38978,2,0,L|454:256,1,43.3333333333333,2|8,0:1|0:0,0:0:0:0:
383,305,39250,2,0,P|326:310|327:248,1,130,2|0,0:1|0:0,0:0:0:0:
351,217,39614,2,0,L|218:235,2,130,10|2|10,0:0|0:0|0:0,0:0:0:0:
233,96,40432,6,0,P|169:86|111:147,1,130,2|8,0:0|0:0,0:0:0:0:
52,191,40887,2,0,L|-2:196,1,43.3333333333333,2|0,0:0|0:0,0:0:0:0:
67,270,41159,2,0,L|121:265,1,43.3333333333333,2|8,0:0|0:0,0:0:0:0:
198,288,41432,2,0,B|272:296|296:371|296:371|306:321,1,173.333333333333,2|8,0:0|0:0,0:0:0:0:
378,275,41978,2,0,L|421:278,1,43.3333333333333,2|0,0:0|0:0,0:0:0:0:
487,210,42250,2,0,L|443:206,1,43.3333333333333,2|8,0:0|0:0,0:0:0:0:
302,110,42614,5,2,0:0:0:0:
284,265,42887,1,2,0:0:0:0:
129,247,43159,1,2,0:0:0:0:
147,92,43432,1,2,0:0:0:0:
203,292,43705,6,0,L|196:354,1,43.3333333333333,2|0,0:0|0:0,0:0:0:0:
330,380,43978,2,0,L|334:336,1,43.3333333333333,2|0,0:0|0:0,0:0:0:0:
468,300,44250,2,0,L|463:343,1,43.3333333333333,2|0,0:0|0:0,0:0:0:0:
379,251,44523,2,0,L|383:194,2,43.3333333333333,8|8|8,0:3|0:3|0:3,0:3:0:0:
332,264,44796,6,0,P|277:217|207:245,1,143.000004364014,6|8,0:0|0:0,0:0:0:0:
140,337,45250,1,0,0:0:0:0:
140,337,45341,2,0,P|74:355|22:310,1,143.000004364014,2|8,0:0|0:0,0:0:0:0:
9,124,45887,2,0,B|21:16|21:16|40:59,1,143.000004364014,2|10,0:0|0:0,0:0:0:0:
159,79,46341,1,2,0:0:0:0:
159,79,46432,2,0,L|317:59,1,143.000004364014,2|8,0:0|0:0,0:0:0:0:
403,169,46887,5,0,0:0:0:0:
403,169,46978,2,0,P|477:190|504:286,2,143.000004364014,2|10|2,0:0|0:0|0:0,0:0:0:0:
314,256,47705,1,0,0:0:0:0:
314,256,47796,2,0,B|324:149|324:149|275:191,1,143.000004364014,10|2,0:0|0:0,0:0:0:0:
248,65,48250,1,0,0:0:0:0:
248,65,48341,2,0,P|201:53|166:88,1,95.3333362426759,10|0,0:0|0:0,0:0:0:0:
150,126,48614,2,0,P|95:176|11:139,1,143.000004364014,10|10,0:3|0:0,0:0:0:0:
0,307,49069,5,0,0:0:0:0:
0,307,49159,2,0,P|55:257|139:294,1,143.000004364014,2|8,0:0|0:0,0:0:0:0:
231,329,49614,1,0,0:0:0:0:
231,329,49705,2,0,P|299:339|348:291,1,143.000004364014,2|8,0:0|0:0,0:0:0:0:
384,174,50159,1,0,0:0:0:0:
384,174,50250,2,0,B|403:134|403:134|497:98,2,143.000004364014,2|10|2,0:0|0:0|0:0,0:0:0:0:
266,207,50978,1,0,0:0:0:0:
266,207,51069,2,0,P|218:234|175:226,1,95.3333362426759,8|0,0:0|0:0,0:0:0:0:
143,199,51341,5,2,0:0:0:0:
106,85,51523,1,0,0:0:0:0:
106,85,51614,2,0,P|154:58|197:66,1,95.3333362426759,10|0,0:0|0:0,0:0:0:0:
233,87,51887,2,0,P|281:105|328:92,1,95.3333362426759,2|2,0:0|0:0,0:0:0:0:
363,70,52159,2,0,P|409:60|452:78,1,95.3333362426759,10|2,0:0|0:0,0:0:0:0:
472,147,52432,6,0,P|458:208|509:290,1,143.000004364014,2|10,0:0|0:0,0:0:0:0:
402,364,52887,1,0,0:0:0:0:
402,364,52978,2,0,P|341:350|259:401,1,143.000004364014,2|10,0:0|0:0,0:0:0:0:
167,293,53432,5,0,0:0:0:0:
167,293,53523,2,0,P|85:292|48:227,1,143.000004364014,6|8,0:0|0:0,0:0:0:0:
128,150,53978,1,0,0:0:0:0:
128,150,54069,2,0,P|210:151|247:216,1,143.000004364014,2|8,0:0|0:0,0:0:0:0:
314,303,54523,1,0,0:0:0:0:
314,303,54614,2,0,B|340:193|340:193|360:237,1,143.000004364014,2|10,0:0|0:0,0:0:0:0:
475,240,55069,1,2,0:0:0:0:
475,240,55159,2,0,B|449:130|449:130|429:174,1,143.000004364014,2|8,0:0|0:0,0:0:0:0:
367,59,55614,5,0,0:0:0:0:
367,59,55705,2,0,P|278:57|241:12,2,143.000004364014,2|10|2,0:0|0:0|0:0,0:0:0:0:
234,189,56523,2,0,P|187:201|161:247,1,95.3333362426759,10|0,0:0|0:0,0:0:0:0:
154,285,56796,2,0,P|101:239|31:246,2,143.000004364014,2|10|10,0:0|0:0|0:3,0:0:0:0:
251,370,57523,1,8,0:3:0:0:
251,370,57614,2,0,P|301:375|337:347,1,95.3333362426759,10|0,0:0|0:0,0:0:0:0:
370,286,57887,6,0,P|416:228|488:236,1,143.000004364014,2|8,0:0|0:0,0:0:0:0:
512,114,58341,1,0,0:0:0:0:
512,114,58432,2,0,P|438:103|409:36,1,143.000004364014,2|8,0:0|0:0,0:0:0:0:
292,77,58887,1,2,0:0:0:0:
292,77,58978,2,0,P|319:145|276:204,2,143.000004364014,2|10|2,0:0|0:0|0:0,0:0:0:0:
172,42,59705,2,0,L|124:36,1,47.6666681213379,0|8,0:0|0:0,0:0:0:0:
40,153,59978,6,0,L|28:307,1,143.000004364014,2|2,0:0|0:0,0:0:0:0:
31,343,60341,2,0,P|76:369|120:361,1,95.3333362426759,8|2,0:0|0:0,0:0:0:0:
153,331,60614,1,2,0:0:0:0:
306,226,60887,2,0,P|280:282|299:327,1,95.3333362426759,10|0,0:0|0:0,0:0:0:0:
322,344,61159,2,0,L|473:367,2,143.000004364014,2|10|2,0:0|0:0|0:0,0:0:0:0:
200,325,61887,2,0,L|125:333,1,47.6666681213379,0|8,0:0|0:0,0:0:0:0:
36,149,62250,5,2,1:2:0:0:
36,149,62796,1,2,1:2:0:0:
303,49,63341,5,2,1:2:0:0:
288,191,63614,1,2,1:2:0:0:
274,333,63887,1,2,1:2:0:0:
44,134,68796,6,0,P|116:120|163:148,1,130,6|2,0:0|0:0,0:0:0:0:
191,212,69205,1,2,0:0:0:0:
220,276,69341,2,0,P|276:304|338:289,1,130,2|10,0:0|0:0,0:0:0:0:
406,162,69887,2,0,L|421:22,2,130,2|10|2,0:0|0:0|0:0,0:0:0:0:
473,288,70705,1,8,0:0:0:0:
306,268,70978,6,0,B|257:261|257:261|174:316,1,130,2|8,0:0|0:0,0:0:0:0:
135,352,71387,1,2,0:0:0:0:
65,335,71523,1,2,0:0:0:0:
8,210,71796,1,10,0:0:0:0:
62,77,72069,2,0,P|111:37|173:46,1,130,2|10,0:0|0:0,0:0:0:0:
273,148,72614,2,0,P|223:187|161:178,1,130,2|10,0:0|0:0,0:0:0:0:
69,320,73159,6,0,B|124:304|124:304|231:344,1,130,2|10,0:1|2:0,0:0:0:0:
328,375,73705,1,2,0:0:0:0:
463,328,73978,2,0,P|461:287|477:258,1,65,10|0,0:0|0:0,0:0:0:0:
462,195,74250,2,0,B|319:174,2,130,2|10|2,0:0|0:0|0:0,0:0:0:0:
491,54,75069,1,8,0:0:0:0:
324,29,75341,6,0,L|244:37,1,65,2|0,0:0|0:0,0:0:0:0:
188,22,75614,2,0,L|108:30,1,65,10|0,0:0|0:0,0:0:0:0:
118,100,75887,2,0,L|198:92,1,65,2|0,0:0|0:0,0:0:0:0:
254,107,76160,2,0,L|334:99,1,65,10|0,0:0|0:0,0:0:0:0:
393,77,76432,2,0,L|400:34,2,43.3333333333333,10|8|8,0:3|0:3|0:3,0:0:0:0:
411,116,76705,2,0,P|468:154|471:219,1,130,10|2,0:0|0:0,0:0:0:0:
397,267,77159,1,0,0:0:0:0:
397,267,77250,2,0,L|290:280,1,86.6666666666667,10|0,0:0|0:0,0:0:0:0:
262,275,77523,6,0,P|205:318|203:380,2,130,6|8|2,0:0|0:0|0:0,0:0:0:0:
300,187,78250,2,0,L|355:179,1,43.3333333333333,0|8,0:0|0:0,0:0:0:0:
399,48,78614,2,0,P|309:40|285:6,2,130,2|8|2,0:0|0:0|0:0,0:0:0:0:
459,121,79341,2,0,L|520:130,1,43.3333333333333,0|10,0:0|0:0,0:0:0:0:
380,245,79705,6,0,P|387:313|438:356,2,130,2|8|0,0:0|0:0|0:0,0:0:0:0:
299,202,80432,1,0,0:0:0:0:
299,202,80523,2,0,P|231:237|173:217,1,130,10|2,0:0|0:0,0:0:0:0:
59,150,81069,2,0,P|127:115|185:135,1,130,10|2,0:0|0:3,0:0:0:0:
182,223,81523,1,8,0:3:0:0:
182,223,81614,2,0,L|186:369,1,130,10|2,0:0|0:0,0:0:0:0:
323,312,82160,6,0,L|319:166,1,130,12|2,0:0|0:0,0:0:0:0:
376,106,82614,1,0,0:0:0:0:
376,106,82705,2,0,P|321:87|238:125,1,130,12|2,0:0|0:0,0:0:0:0:
165,90,83159,1,0,0:0:0:0:
165,90,83250,2,0,L|169:236,1,130,12|2,0:0|0:0,0:0:0:0:
108,295,83705,1,0,0:0:0:0:
108,295,83796,2,0,P|163:314|246:276,1,130,12|2,0:0|0:0,0:0:0:0:
310,240,84250,5,0,0:1:0:0:
310,240,84341,2,0,P|370:218|431:237,1,130,14|0,0:1|0:0,0:0:0:0:
491,163,84796,2,0,L|493:119,1,43.3333333333333,2|8,0:1|0:0,0:0:0:0:
439,40,85069,2,0,P|378:50|393:110,1,130,2|0,0:1|0:0,0:0:0:0:
412,138,85432,2,0,L|270:128,2,130,10|2|10,0:0|0:0|0:0,0:0:0:0:
480,292,86250,6,0,P|440:354|379:366,1,130,2|10,0:0|0:0,0:0:0:0:
297,336,86705,2,0,L|293:383,1,43.3333333333333,2|0,0:0|0:0,0:0:0:0:
203,344,86978,2,0,L|199:297,1,43.3333333333333,2|8,0:0|0:0,0:0:0:0:
108,329,87250,2,0,P|51:348|64:263,1,173.333333333333,2|8,0:0|0:0,0:0:0:0:
110,185,87796,2,0,L|114:130,1,43.3333333333333,2|0,0:0|0:0,0:0:0:0:
200,181,88069,2,0,L|203:224,1,43.3333333333333,2|8,0:0|0:0,0:0:0:0:
357,257,88432,5,2,0:0:0:0:
389,104,88705,1,2,0:0:0:0:
237,72,88978,1,2,0:0:0:0:
203,224,89250,1,2,0:0:0:0:
408,188,89523,6,0,P|436:189|456:197,2,43.3333333333333,10|8|8,0:3|0:3|0:3,0:0:0:0:
454,240,89796,2,0,P|477:254|491:271,2,43.3333333333333,10|8|8,0:3|0:3|0:3,0:0:0:0:
470,308,90069,2,0,P|483:332|486:354,2,43.3333333333333,10|8|8,0:0|0:3|0:3,0:0:0:0:
446,373,90341,1,8,0:3:0:0:
286,228,90614,6,0,P|217:221|167:270,1,143.000004364014,6|8,0:0|0:0,0:0:0:0:
278,335,91069,1,0,0:0:0:0:
278,335,91159,2,0,P|347:342|396:292,1,143.000004364014,2|8,0:0|0:0,0:0:0:0:
463,119,91705,2,0,B|500:90|500:90|488:198,1,143.000004364014,2|10,0:0|0:0,0:0:0:0:
372,161,92159,1,2,0:0:0:0:
372,161,92250,2,0,B|322:141|322:141|216:177,1,143.000004364014,2|8,0:0|0:0,0:0:0:0:
136,271,92705,5,0,0:0:0:0:
136,271,92796,2,0,P|69:251|8:284,2,143.000004364014,2|10|2,0:0|0:0|0:0,0:0:0:0:
232,357,93523,1,0,0:0:0:0:
232,357,93614,2,0,B|270:327|270:327|277:212,1,143.000004364014,10|2,0:0|0:0,0:0:0:0:
257,113,94069,1,0,0:0:0:0:
257,113,94159,2,0,P|300:95|342:113,1,95.3333362426759,10|0,0:0|0:0,0:0:0:0:
379,145,94432,2,0,P|449:167|510:98,1,143.000004364014,10|10,0:3|0:0,0:0:0:0:
484,276,94887,5,2,0:0:0:0:
484,276,94978,2,0,P|419:265|363:313,1,143.000004364014,2|8,0:0|0:0,0:0:0:0:
259,376,95432,1,0,0:0:0:0:
259,376,95523,2,0,B|264:267|264:267|225:305,1,143.000004364014,2|8,0:0|0:0,0:0:0:0:
137,360,95978,1,0,0:0:0:0:
137,360,96069,2,0,P|67:365|13:315,2,143.000004364014,2|10|2,0:0|0:0|0:0,0:0:0:0:
174,244,96796,1,0,0:0:0:0:
174,244,96887,2,0,L|183:142,1,95.3333362426759,8|0,0:0|0:0,0:0:0:0:
185,101,97159,5,2,0:0:0:0:
303,56,97341,1,0,0:0:0:0:
303,56,97432,2,0,P|356:53|393:77,1,95.3333362426759,10|0,0:0|0:0,0:0:0:0:
404,120,97705,2,0,L|410:219,1,95.3333362426759,2|0,0:0|0:0,0:0:0:0:
413,263,97978,2,0,P|466:260|503:284,1,95.3333362426759,10|0,0:0|0:0,0:0:0:0:
446,328,98250,6,0,P|384:361|315:348,1,143.000004364014,2|10,0:0|0:0,0:0:0:0:
197,323,98705,1,0,0:0:0:0:
198,323,98796,2,0,P|129:309|67:343,1,143.000004364014,2|10,0:0|0:0,0:0:0:0:
16,213,99250,5,0,0:0:0:0:
16,213,99341,2,0,L|32:63,1,143.000004364014,6|8,0:0|0:0,0:0:0:0:
149,122,99796,1,0,0:0:0:0:
149,122,99887,2,0,P|181:60|250:36,1,143.000004364014,2|8,0:0|0:0,0:0:0:0:
324,139,100341,1,0,0:0:0:0:
324,139,100432,2,0,B|333:250,1,95.3333362426759,2|2,0:0|0:0,0:0:0:0:
336,282,100705,1,10,0:0:0:0:
459,252,100887,1,2,0:0:0:0:
459,252,100978,2,0,B|449:363|449:363|426:337,1,143.000004364014,2|8,0:0|0:0,0:0:0:0:
288,346,101432,5,0,0:0:0:0:
288,346,101523,2,0,P|199:348|162:393,2,143.000004364014,2|10|2,0:0|0:0|0:0,0:0:0:0:
201,181,102341,2,0,P|248:169|274:123,1,95.3333362426759,10|0,0:0|0:0,0:0:0:0:
281,85,102614,2,0,P|334:131|404:124,2,143.000004364014,2|10|10,0:0|0:0|0:3,0:0:0:0:
175,29,103341,1,8,0:3:0:0:
175,29,103432,2,0,P|117:31|78:62,1,95.3333362426759,10|0,0:0|0:0,0:0:0:0:
59,117,103705,6,0,L|46:275,1,143.000004364014,2|8,0:0|0:0,0:0:0:0:
141,348,104159,1,0,0:0:0:0:
141,348,104250,2,0,P|190:294|262:301,1,143.000004364014,2|8,0:0|0:0,0:0:0:0:
360,228,104705,1,2,0:0:0:0:
360,228,104796,2,0,L|373:386,2,143.000004364014,2|10|2,0:0|0:0|0:0,0:0:0:0:
257,157,105523,2,0,L|254:205,1,47.6666681213379,0|8,0:0|0:0,0:0:0:0:
327,81,105796,6,0,P|237:58|175:100,1,143.000004364014,2|2,0:0|0:0,0:0:0:0:
163,113,106159,2,0,P|112:132|66:118,1,95.3333362426759,10|2,0:0|0:0,0:0:0:0:
33,96,106432,1,2,0:0:0:0:
13,281,106705,2,0,P|64:262|110:276,1,95.3333362426759,10|0,0:0|0:0,0:0:0:0:
144,292,106977,2,0,L|282:345,2,143.000004364014,2|10|2,0:0|0:0|0:0,0:0:0:0:
247,223,107705,2,0,L|250:156,1,47.6666681213379,0|8,0:0|0:0,0:0:0:0:
436,284,108069,5,2,1:2:0:0:
436,284,108614,1,2,1:2:0:0:
152,341,109159,5,2,1:2:0:0:
161,201,109432,1,2,1:2:0:0:
169,59,109705,1,2,1:2:0:0:
35,292,114614,6,0,P|94:272|150:294,1,86.6666666666667,10|0,0:1|0:0,0:0:0:0:
161,295,114887,1,8,0:0:0:0:
179,153,115159,2,0,P|238:172|294:151,1,86.6666666666667,10|0,0:1|0:0,0:0:0:0:
305,150,115432,1,8,0:0:0:0:
368,278,115705,2,0,L|499:291,2,130,10|10|10,0:1|0:0|0:1,0:0:0:0:
254,365,116523,1,8,0:0:0:0:
147,233,116796,6,0,P|104:190|21:193,2,130,10|8|10,0:1|0:0|0:1,0:0:0:0:
288,255,117614,2,0,P|312:211|363:193,1,86.6666666666667,10|0,0:0|0:0,0:0:0:0:
391,196,117887,1,10,0:1:0:0:
329,67,118159,2,0,P|281:66|241:43,1,86.6666666666667,10|0,0:0|0:0,0:0:0:0:
218,10,118432,1,10,0:1:0:0:
218,10,118705,1,10,0:0:0:0:
167,171,118978,6,0,L|159:261,1,86.6666666666667,10|0,0:1|0:0,0:0:0:0:
153,304,119250,1,10,0:0:0:0:
281,366,119523,2,0,L|289:276,1,86.6666666666667,10|0,0:1|0:0,0:0:0:0:
295,233,119795,1,8,0:0:0:0:
387,118,120069,2,0,P|450:87|522:115,2,130,10|10|10,0:1|0:0|0:1,0:0:0:0:
261,50,120887,2,0,P|211:62|163:43,1,86.6666666666667,8|0,0:0|0:0,0:0:0:0:
133,17,121159,6,0,P|103:88|54:110,2,130,10|8|10,0:1|0:0|0:1,0:0:0:0:
172,155,121978,2,0,L|177:244,1,86.6666666666667,10|0,0:0|0:0,0:0:0:0:
182,288,122250,1,10,0:1:0:0:
304,362,122523,2,0,P|352:312|400:306,1,86.6666666666667,10|0,0:0|0:0,0:0:0:0:
414,313,122796,1,10,0:1:0:0:
414,313,123069,1,8,0:0:0:0:
480,158,123341,6,0,P|421:167|375:146,1,86.6666666666667,10|0,0:1|0:0,0:0:0:0:
353,136,123614,1,8,0:0:0:0:
221,79,123887,2,0,P|162:70|116:91,1,86.6666666666667,2|0,0:1|0:0,0:0:0:0:
94,101,124160,1,8,0:0:0:0:
123,240,124432,2,0,B|167:212|167:212|146:314,2,130,10|10|10,0:1|0:0|0:1,0:0:0:0:
79,376,125250,1,8,0:0:0:0:
247,358,125523,6,0,B|290:335|290:335|392:368,2,130,10|8|10,0:1|0:0|0:1,0:0:0:0:
297,224,126341,2,0,P|358:226|384:203,1,86.6666666666667,10|0,0:0|0:0,0:0:0:0:
402,171,126614,1,10,0:1:0:0:
295,75,126887,2,0,P|234:73|208:96,1,86.6666666666667,10|0,0:0|0:0,0:0:0:0:
190,128,127160,1,10,0:1:0:0:
190,128,127432,1,10,0:0:0:0:
32,190,127705,6,0,L|28:276,1,86.6666666666667,10|0,0:1|0:0,0:0:0:0:
26,325,127978,1,10,0:0:0:0:
134,232,128250,2,0,L|138:332,1,86.6666666666667,10|0,0:1|0:0,0:0:0:0:
140,367,128523,1,8,0:0:0:0:
257,285,128796,2,0,P|319:306|353:362,2,130,10|10|10,0:1|0:0|0:1,0:0:0:0:
374,202,129614,2,0,P|428:199|455:173,1,86.6666666666667,8|0,0:0|0:0,0:0:0:0:
471,135,129887,6,0,L|485:2,2,130,10|8|10,0:1|0:0|0:1,0:0:0:0:
486,277,130705,2,0,P|428:263|379:295,1,86.6666666666667,10|0,0:0|0:0,0:0:0:0:
364,298,130978,1,10,0:1:0:0:
239,368,131250,2,0,P|180:382|131:350,1,86.6666666666667,10|0,0:0|0:0,0:0:0:0:
117,347,131523,1,10,0:1:0:0:
117,347,131796,1,8,0:0:0:0:
33,199,132069,6,0,L|38:116,1,65,10|0,0:1|0:0,0:0:0:0:
112,152,132341,2,0,L|107:235,1,65,10|0,0:0|0:0,0:0:0:0:
183,233,132614,2,0,L|187:169,1,65,10|0,0:1|0:0,0:0:0:0:
262,186,132887,2,0,L|257:269,1,65,10|0,0:0|0:0,0:0:0:0:
284,324,133159,2,0,P|355:325|389:370,2,130,10|10|10,0:1|0:0|0:1,0:0:0:0:
423,252,133978,2,0,P|422:207|453:168,1,86.6666666666667,10|0,0:0|0:0,0:0:0:0:
483,139,134250,6,0,L|411:136,1,65,10|0,0:1|0:0,0:0:0:0:
343,160,134523,2,0,P|339:127|350:97,1,65,10|0,0:0|0:0,0:0:0:0:
281,60,134796,2,0,L|209:57,1,65,10|0,0:1|0:0,0:0:0:0:
148,17,135069,2,0,P|137:47|140:79,1,65,10|0,0:0|0:0,0:0:0:0:
174,149,135341,2,0,L|30:164,2,130,10|10|10,0:1|0:0|0:1,0:0:0:0:
174,149,136159,1,8,0:0:0:0:
107,311,136432,6,0,P|102:352|108:378,1,65,10|0,0:1|0:0,0:0:0:0:
185,343,136705,2,0,P|190:302|184:276,1,65,10|0,0:0|0:0,0:0:0:0:
269,264,136978,2,0,P|263:304|269:331,1,65,10|0,0:1|0:0,0:0:0:0:
346,296,137251,2,0,P|351:255|345:228,1,65,10|0,0:0|0:0,0:0:0:0:
412,180,137523,2,0,B|452:149|452:149|446:232,2,130,10|10|10,0:1|0:0|0:1,0:0:0:0:
412,180,138341,1,8,0:0:0:0:
243,194,138614,6,0,L|178:189,1,65,10|0,0:1|0:0,0:0:0:0:
98,214,138887,2,0,P|95:172|112:135,1,65,10|0,0:0|0:0,0:0:0:0:
78,70,139159,2,0,L|143:75,1,65,10|0,0:1|0:0,0:0:0:0:
223,50,139432,2,0,P|225:91|208:128,1,65,10|0,0:0|0:0,0:0:0:0:
243,194,139705,6,0,L|168:190,2,43.3333333333333,10|8|8,0:0|0:3|0:3,0:0:0:0:
286,230,139978,2,0,P|296:272|269:321,1,86.6666666666667,10|0,0:0|0:0,0:0:0:0:
233,343,140250,2,0,P|275:333|324:360,1,86.6666666666667,10|0,0:0|0:0,0:0:0:0:
359,383,140523,1,10,0:0:0:0:
468,232,140796,6,0,L|511:252,2,47.6666681213379,6|0|0,0:0|0:0|0:0,0:0:0:0:
471,169,141069,2,0,B|478:93|478:93|452:112,1,95.3333362426759
408,134,141341,2,0,L|343:157,2,47.6666681213379,2|0|0,0:0|0:0|0:0,0:0:0:0:
405,71,141614,2,0,P|363:43|316:50,1,95.3333362426759
262,74,141887,6,0,L|268:14,2,47.6666681213379,2|0|0,0:0|0:0|0:0,0:0:0:0:
215,115,142159,2,0,P|171:138|125:127,1,95.3333362426759
69,108,142432,2,0,L|65:46,2,47.6666681213379,2|0|0,0:0|0:0|0:0,0:0:0:0:
63,170,142705,2,0,L|48:272,1,95.3333362426759
27,323,142978,6,0,P|101:321|148:374,2,143.000004364014,2|8|2,0:1|0:0|0:0,0:0:0:0:
133,256,143705,1,0,0:0:0:0:
133,256,143796,2,0,P|185:261|224:239,1,95.3333362426759,10|2,0:0|0:1,0:0:0:0:
254,187,144069,1,8,0:3:0:0:
370,240,144250,1,0,0:0:0:0:
370,240,144341,2,0,L|379:392,2,143.000004364014,8|2|10,0:0|0:0|0:0,0:0:0:0:
433,133,145069,5,0,0:0:0:0:
433,132,145159,2,0,P|386:143|343:125,1,95.3333362426759,10|8,0:3|0:3,0:0:0:0:
287,97,145432,2,0,P|243:79|197:89,1,95.3333362426759,10|0,0:0|0:0,0:0:0:0:
139,113,145705,1,2,0:0:0:0:
251,260,145978,2,0,P|283:254|306:237,1,47.6666681213379,10|0,0:0|0:0,0:0:0:0:
252,189,146159,6,0,B|212:189|192:222|192:222|165:196|115:206,1,143.000004364014,2|0,0:1|0:0,0:0:0:0:
64,215,146523,1,10,0:0:0:0:
12,329,146705,1,0,0:0:0:0:
12,329,146796,2,0,P|63:349|106:340,1,95.3333362426759,2|0,0:0|0:0,0:0:0:0:
164,335,147069,2,0,P|210:328|253:348,1,95.3333362426759,10|0,0:0|0:0,0:0:0:0:
306,379,147341,5,2,0:0:0:0:
451,262,147614,2,0,B|485:152|485:152|446:176,1,143.000004364014,8|2,0:0|0:0,0:0:0:0:
357,233,148069,1,0,0:0:0:0:
357,233,148160,2,0,B|362:118|362:118|330:151,1,143.000004364014,8|2,0:0|0:0,0:0:0:0:
258,229,148614,1,0,0:0:0:0:
258,229,148705,2,0,B|233:116|233:116|210:156,1,143.000004364014,8|2,0:0|0:0,0:0:0:0:
162,250,149159,1,0,0:0:0:0:
162,250,149250,2,0,B|108:147|108:147|97:192,1,143.000004364014,8|2,0:0|0:0,0:0:0:0:
217,26,149796,6,0,P|270:12|318:28,1,95.3333362426759,8|0,0:0|0:0,0:0:0:0:
333,79,150069,1,2,0:0:0:0:
242,242,150341,2,0,P|218:244|197:256,1,47.6666681213379,8|0,0:0|0:0,0:0:0:0:
238,315,150523,6,0,B|281:311|299:285|299:285|326:307|382:298,1,143.000004364014,2|0,0:1|0:0,0:0:0:0:
430,310,150887,2,0,P|483:285|500:220,1,95.3333362426759,10|0,0:0|0:0,0:0:0:0:
507,192,151159,1,2,0:0:0:0:
475,76,151341,1,0,0:0:0:0:
475,76,151432,2,0,L|350:69,1,95.3333362426759,10|0,0:0|0:0,0:0:0:0:
317,80,151705,5,2,0:0:0:0:
268,195,151887,1,0,0:0:0:0:
268,195,151978,2,0,P|222:241|127:234,1,143.000004364014,8|2,0:0|0:0,0:0:0:0:
45,182,152432,1,0,0:0:0:0:
45,182,152523,2,0,P|90:135|185:142,1,143.000004364014,8|2,0:0|0:0,0:0:0:0:
229,26,152978,1,0,0:0:0:0:
229,26,153069,2,0,B|271:57|265:108|265:108|329:6|449:50|449:50|388:65,1,333.666676849366,8|0,0:0|0:0,0:0:0:0:
448,176,153887,6,0,P|432:250|374:280,1,143.000004364014,2|10,0:0|0:0,0:0:0:0:
253,292,154341,2,0,L|249:348,1,47.6666681213379,2|0,0:0|0:0,0:0:0:0:
125,328,154614,2,0,L|121:280,1,47.6666681213379,2|8,0:0|0:0,0:0:0:0:
60,171,154887,2,0,B|116:140|116:140|244:179,1,190.666672485352,2|10,0:0|0:0,0:0:0:0:
348,231,155432,2,0,L|351:278,1,47.6666681213379,2|0,0:0|0:0,0:0:0:0:
459,216,155705,2,0,L|462:169,1,47.6666681213379,2|8,0:0|0:0,0:0:0:0:
298,28,156069,5,2,0:0:0:0:
126,97,156341,1,2,0:0:0:0:
271,212,156614,1,2,0:0:0:0:
443,143,156887,1,2,0:0:0:0:
298,28,157159,6,0,L|291:90,1,47.6666681213379,10|0,0:0|0:0,0:0:0:0:
180,181,157432,2,0,L|237:155,1,47.6666681213379,10|0,0:0|0:0,0:0:0:0:
371,207,157705,2,0,L|320:169,1,47.6666681213379,10|0,0:0|0:0,0:0:0:0:
263,315,157978,2,0,L|257:362,2,47.6666681213379,8|8|8,0:3|0:3|0:3,0:0:0:0:
270,238,158250,5,6,0:0:0:0:
270,238,158796,1,6,0:0:0:0:
58,46,159341,5,6,0:0:0:0:
49,188,159614,1,6,0:0:0:0:
40,330,159887,1,6,0:0:0:0:
244,129,160432,5,6,0:0:0:0:
244,129,160978,1,6,0:0:0:0:
441,335,161523,5,6,0:0:0:0:
450,193,161796,1,6,0:0:0:0:
459,51,162069,1,6,0:0:0:0:
272,267,162614,5,6,0:0:0:0:
272,267,163159,1,6,0:0:0:0:
104,35,163705,5,6,0:0:0:0:
246,44,163978,1,6,0:0:0:0:
388,53,164250,1,6,0:0:0:0:
142,200,164796,5,6,0:0:0:0:
142,200,165341,1,6,0:0:0:0:
381,169,165887,6,0,L|322:178,2,47.6666681213379,2|0|0,0:0|0:0|0:0,0:0:0:0:
446,209,166159,2,0,L|493:216,2,47.6666681213379,10|0|0,0:0|0:0|0:0,0:0:0:0:
379,248,166433,2,0,L|320:257,2,47.6666681213379,2|0|0,0:0|0:0|0:0,0:0:0:0:
444,288,166705,2,0,L|491:295,2,47.6666681213379,10|0|0,0:0|0:0|0:0,0:0:0:0:
376,325,166978,6,0,P|310:374|241:346,1,143.000004364014,6|8,0:0|0:0,0:0:0:0:
165,300,167432,1,0,0:0:0:0:
165,300,167523,2,0,P|230:250|299:278,1,143.000004364014,2|8,0:0|0:0,0:0:0:0:
391,217,167979,1,0,0:0:0:0:
391,217,168069,2,0,B|375:108|375:108|345:151,1,143.000004364014,2|10,0:0|0:0,0:0:0:0:
245,139,168523,1,2,0:0:0:0:
245,139,168614,2,0,B|261:30|261:30|292:75,1,143.000004364014,2|8,0:0|0:0,0:0:0:0:
387,10,169069,5,0,0:0:0:0:
388,9,169159,2,0,P|445:7|502:68,2,143.000004364014,2|10|2,0:0|0:0|0:0,0:0:0:0:
375,126,169887,1,0,0:0:0:0:
375,126,169978,2,0,L|359:242,1,95.3333362426759,10|0,0:0|0:0,0:0:0:0:
354,267,170250,2,0,P|284:263|240:210,2,143.000004364014,2|10|10,0:0|0:0|0:3,0:0:0:0:
320,359,170978,1,8,0:3:0:0:
320,359,171069,2,0,L|220:368,1,95.3333362426759,10|0,0:0|0:0,0:0:0:0:
153,374,171342,6,0,P|124:309|53:288,1,143.000004364014,2|8,0:0|0:0,0:0:0:0:
11,183,171796,1,0,0:0:0:0:
11,183,171887,2,0,P|81:190|135:139,1,143.000004364014,2|8,0:0|0:0,0:0:0:0:
247,155,172341,1,2,0:0:0:0:
247,155,172432,2,0,P|205:212|222:284,2,143.000004364014,2|10|2,0:0|0:0|0:0,0:0:0:0:
349,102,173160,2,0,L|353:52,1,47.6666681213379,0|8,0:0|0:0,0:0:0:0:
468,140,173433,6,0,L|480:294,1,143.000004364014,2|2,0:0|0:0,0:0:0:0:
477,330,173796,2,0,P|432:356|388:348,1,95.3333362426759,10|2,0:0|0:0,0:0:0:0:
355,318,174069,1,2,0:0:0:0:
193,258,174342,2,0,P|232:233|278:240,1,95.3333362426759,10|0,0:0|0:0,0:0:0:0:
326,245,174614,2,0,P|337:177|421:137,2,143.000004364014,2|10|2,0:0|0:0|0:0,0:0:0:0:
253,334,175342,2,0,L|182:345,1,47.6666681213379,0|8,0:0|0:0,0:0:0:0:
103,203,175705,5,2,1:2:0:0:
103,203,176250,1,2,1:2:0:0:
385,159,176796,5,2,1:2:0:0:
243,149,177069,1,2,1:2:0:0:
322,30,177341,1,2,1:2:0:0:
304,315,177887,5,2,1:2:0:0:
304,315,178432,1,2,1:2:0:0:
96,117,178978,5,2,1:2:0:0:
128,255,179250,1,2,1:2:0:0:
233,157,179523,1,2,1:2:0:0:
435,65,180069,6,0,L|445:153,1,86.6666666666667,6|0,0:0|0:0,0:0:0:0:
480,182,180341,2,0,L|466:318,1,130,10|0,0:0|0:0,0:0:0:0:
377,338,180796,1,0,0:0:0:0:
377,338,180887,2,0,P|324:326|293:336,1,86.6666666666667,10|0,0:0|0:0,0:0:0:0:
252,358,181159,2,0,P|199:370|168:360,1,86.6666666666667
126,338,181432,1,10,0:0:0:0:
30,231,181705,6,0,P|84:221|123:238,1,86.6666666666667,2|0,0:1|0:0,0:0:0:0:
158,247,181978,2,0,P|188:216|229:205,1,86.6666666666667,10|0,0:1|0:0,0:0:0:0:
277,205,182250,1,2,0:0:0:0:
369,174,182432,5,0,0:0:0:0:
369,174,182523,2,0,P|385:124|371:79,1,86.6666666666667,10|0,0:0|0:0,0:0:0:0:
355,49,182796,2,0,L|214:40,1,130,2|10,0:0|0:0,0:0:0:0:
133,51,183250,1,0,0:0:0:0:
133,51,183341,2,0,P|118:98|130:147,1,86.6666666666667,2|0,0:0|0:0,0:0:0:0:
148,175,183614,1,8,0:0:0:0:
86,304,183887,6,0,B|131:290|131:290|205:315,1,86.6666666666667,2|0,0:1|0:0,0:0:0:0:
213,317,184159,2,0,B|258:331|258:331|332:306,1,86.6666666666667,10|0,0:1|0:0,0:0:0:0:
339,298,184432,1,2,0:0:0:0:
401,226,184614,5,0,0:0:0:0:
401,226,184705,2,0,P|400:169|424:134,1,86.6666666666667,10|0,0:0|0:0,0:0:0:0:
456,122,184978,2,0,P|406:74|394:12,1,130,0|10,0:0|0:0,0:0:0:0:
302,27,185432,1,0,0:0:0:0:
302,27,185523,2,0,L|193:36,1,86.6666666666667
167,35,185796,1,10,0:0:0:0:
48,115,186069,6,0,P|59:157|50:199,1,86.6666666666667,2|0,0:1|0:0,0:0:0:0:
19,236,186341,2,0,P|60:247|92:276,1,86.6666666666667,10|0,0:1|0:0,0:0:0:0:
112,320,186614,1,2,0:0:0:0:
205,292,186796,5,0,0:0:0:0:
205,292,186887,2,0,B|249:278|249:278|307:299,1,86.6666666666667,10|0,0:0|0:0,0:0:0:0:
331,309,187159,2,0,B|392:327|392:327|463:301,1,130,2|10,0:0|0:0,0:0:0:0:
478,211,187614,1,0,0:0:0:0:
478,211,187705,2,0,P|500:156|496:120,1,86.6666666666667,2|0,0:0|0:0,0:0:0:0:
480,84,187978,1,10,0:0:0:0:
338,102,188250,6,0,L|340:152,2,43.3333333333333,8|8|8,0:0|0:0|0:0,0:0:0:0:
314,59,188523,2,0,P|264:44|209:66,1,86.6666666666667,10|0,0:1|0:0,0:0:0:0:
189,75,188796,6,0,L|182:185,1,86.6666666666667,0|2,0:0|0:3,0:0:0:0:
53,219,189250,1,2,0:0:0:0:
169,303,189523,1,2,0:0:0:0:
299,245,189796,1,2,0:0:0:0:
183,161,190069,1,2,0:0:0:0:
169,303,190341,5,2,0:0:0:0:
169,303,190432,2,0,P|188:351|230:370,1,86.6666666666667,8|0,0:3|0:0,0:0:0:0:
263,361,190705,2,0,B|308:344|308:344|359:367,1,86.6666666666667,2|4,0:0|0:0,0:0:0:0:
256,192,190978,12,0,191523,0:0:0:0:
