osu file format v14

[General]
AudioFilename: audio.mp3
AudioLeadIn: 0
PreviewTime: 44811
Countdown: 0
SampleSet: Soft
StackLeniency: 0.3
Mode: 0
LetterboxInBreaks: 0
WidescreenStoryboard: 0

[Editor]
Bookmarks: 14265,31720,36084,40447,44811,53538,62265,64447,68811,77538,81902,86265,90629,108084,110265,114629,118993,123356,127720,132084,134265,136447,138629,140811,142993,147356,149538,151720,153902,158265,165902,175720,180084,188811,190084,190356,190447,190629,190720,190902
DistanceSpacing: 1
BeatDivisor: 3
GridSize: 16
TimelineZoom: 2.2

[Metadata]
Title:Chururira Chururira Daddadda!
TitleUnicode:チュルリラ・チュルリラ・ダッダッダ!
Artist:Tenjin Kotone
ArtistUnicode:天神子兔音
Creator:StrengeMistake
Version:Extra
Source:
Tags:Wada Takeaki KurageP virtual youtuber vtuber vocaloid cover Calvaria Japanese Rock
BeatmapID:2209661
BeatmapSetID:1057170

[Difficulty]
HPDrainRate:6
CircleSize:4
OverallDifficulty:8.5
ApproachRate:9.5
SliderMultiplier:1.8
SliderTickRate:1

[Events]
//Background and Video events
0,0,"74885603_p0 (2).png",0,0
//Break Periods
2,110177,114089
//Storyboard Layer 0 (Background)
//Storyboard Layer 1 (Fail)
//Storyboard Layer 2 (Pass)
//Storyboard Layer 3 (Foreground)
//Storyboard Layer 4 (Overlay)
//Storyboard Sound Samples

[TimingPoints]
69,272.727272727273,4,2,2,60,1,0
13978,-166.666666666667,4,2,2,60,0,0
14250,-133.333333333333,4,2,2,40,0,0
31705,-111.111111111111,4,2,2,50,0,0
44796,-90.9090909090908,4,2,2,70,0,0
45341,-83.3333333333333,4,2,2,70,0,0
45887,-90.9090909090909,4,2,2,70,0,0
46978,-83.3333333333333,4,2,2,70,0,0
47796,-90.9090909090909,4,2,2,70,0,0
49705,-83.3333333333333,4,2,2,70,0,0
50250,-90.9090909090909,4,2,2,70,0,0
54069,-83.3333333333333,4,2,2,70,0,0
54614,-90.9090909090909,4,2,2,70,0,0
58432,-83.3333333333333,4,2,2,70,0,0
58978,-90.9090909090909,4,2,2,70,0,0
61159,-83.3333333333333,4,2,2,70,0,0
62250,-90.9090909090909,4,2,0,60,0,0
63341,-62.5,4,2,0,70,0,0
63887,-83.3333333333333,4,2,0,70,0,0
64432,-100,4,2,2,60,0,0
68523,-166.666666666667,4,2,2,60,0,0
68796,-133.333333333333,4,2,2,60,0,0
76432,-133.333333333333,4,2,2,40,0,0
77523,-111.111111111111,4,2,2,50,0,0
90614,-90.9090909090908,4,2,2,70,0,0
91159,-83.3333333333333,4,2,2,70,0,0
91705,-90.9090909090909,4,2,2,70,0,0
92796,-83.3333333333333,4,2,2,70,0,0
93614,-90.9090909090909,4,2,2,70,0,0
95523,-83.3333333333333,4,2,2,70,0,0
96069,-90.9090909090909,4,2,2,70,0,0
99887,-83.3333333333333,4,2,2,70,0,0
100432,-90.9090909090909,4,2,2,70,0,0
104250,-83.3333333333333,4,2,2,70,0,0
104796,-90.9090909090909,4,2,2,70,0,0
106978,-83.3333333333333,4,2,2,70,0,0
108069,-90.9090909090909,4,2,0,60,0,0
109159,-62.5,4,2,0,70,0,0
109705,-83.3333333333333,4,2,0,70,0,0
114614,-111.111111111111,4,2,3,40,0,0
139705,-111.111111111111,4,2,2,55,0,0
139978,-95.2380952380952,4,2,2,60,0,0
140250,-83.3333333333333,4,2,2,65,0,0
140523,-74.0740740740741,4,2,2,70,0,0
142978,-125,4,2,2,70,0,0
143250,-83.3333333333333,4,2,2,70,0,0
143978,-125,4,2,2,70,0,0
144341,-83.3333333333333,4,2,2,70,0,0
146159,-125,4,2,2,70,0,0
146523,-83.3333333333333,4,2,2,70,0,0
147069,-100,4,2,2,70,0,0
149523,-83.3333333333333,4,2,2,70,0,0
150523,-125,4,2,2,70,0,0
150887,-83.3333333333333,4,2,2,70,0,0
151432,-100,4,2,2,70,0,0
153887,-90.9090909090909,4,2,2,60,0,0
156069,-83.3333333333333,4,2,2,60,0,0
157159,-111.111111111111,4,2,2,60,0,0
157432,-166.666666666667,4,2,2,60,0,0
157705,-333.333333333333,4,2,2,60,0,0
157978,-62.5,4,2,2,50,0,0
165887,-83.3333333333333,4,2,2,70,0,0
167523,-76.9230769230769,4,2,2,70,0,0
168069,-83.3333333333333,4,2,2,70,0,0
169159,-76.9230769230769,4,2,2,70,0,0
169978,-83.3333333333333,4,2,2,70,0,0
171887,-76.9230769230769,4,2,2,70,0,0
172432,-83.3333333333333,4,2,2,70,0,0
174614,-76.9230769230769,4,2,2,70,0,0
175432,-83.3333333333333,4,2,2,70,0,0
175705,-55.5555555555556,4,2,0,60,0,0
176796,-55.5555555555556,4,2,0,70,0,0
177887,-55.5555555555556,4,2,0,60,0,0
180069,-100,4,2,2,60,0,0
188523,-166.666666666667,4,2,2,60,0,0
188796,-100,4,2,2,50,0,0
191523,-100,4,2,2,5,0,0

[Colours]
Combo1 : 128,0,64
Combo2 : 128,64,0
Combo3 : 255,0,128
Combo4 : 128,0,255

[HitObjects]
41,2,796,5,8,0:0:0:0:
41,2,887,1,8,0:0:0:0:
88,152,1069,1,8,0:0:0:0:
88,152,1159,5,2,0:0:0:0:
34,301,1341,1,0,0:0:0:0:
34,301,1432,2,0,P|97:290|168:295,1,120,2|0,0:0|0:0,0:0:0:0:
204,351,1705,1,2,0:0:0:0:
180,196,1887,1,0,0:0:0:0:
180,196,1978,2,0,P|173:139|181:51,1,120,2|0,0:0|0:0,0:0:0:0:
250,51,2250,1,2,0:0:0:0:
296,200,2432,1,0,0:0:0:0:
296,200,2523,2,0,L|297:139,2,60,2|0|0,0:0|0:0|0:0,0:0:0:0:
378,294,2796,6,0,P|454:300|532:292,1,120,2|0,0:1|0:0,0:0:0:0:
292,364,3069,2,0,P|216:358|138:366,1,120,2|0,0:1|0:0,0:0:0:0:
165,271,3341,5,2,0:0:0:0:
18,214,3523,1,0,0:0:0:0:
17,213,3614,2,0,P|65:248|91:302,1,120,2|0,0:0|0:0,0:0:0:0:
165,271,3887,2,0,P|171:211|205:162,1,120,2|0,0:0|0:0,0:0:0:0:
281,147,4159,2,0,P|329:181|355:234,1,120,2|0,0:0|0:0,0:0:0:0:
430,259,4432,1,10,0:0:0:0:
430,223,4522,1,8,0:0:0:0:
441,188,4613,1,8,0:0:0:0:
461,159,4705,1,2,0:0:0:0:
208,344,4887,1,0,0:0:0:0:
208,344,4978,6,0,P|272:347|350:341,1,120,2|0,0:1|0:0,0:0:0:0:
281,147,5250,2,0,P|217:144|139:150,1,120,2|0,0:1|0:0,0:0:0:0:
71,188,5523,5,6,0:0:0:0:
33,42,5705,1,0,0:0:0:0:
33,42,5796,2,0,P|98:47|170:43,1,120,10|0,0:0|0:0,0:0:0:0:
218,1,6069,1,0,0:0:0:0:
200,155,6250,1,0,0:0:0:0:
200,155,6341,2,0,P|196:239|200:297,1,120,10|0,0:0|0:0,0:0:0:0:
270,305,6614,1,0,0:0:0:0:
348,169,6796,1,0,0:0:0:0:
348,169,6887,2,0,P|381:166|413:167,2,60,10|0|0,0:0|0:0|0:0,0:0:0:0:
480,185,7159,6,0,P|471:259|475:319,1,120,2|0,0:1|0:0,0:0:0:0:
348,169,7432,2,0,P|357:95|353:35,1,120,10|0,0:1|0:0,0:0:0:0:
256,8,7705,5,2,0:0:0:0:
137,109,7887,1,0,0:0:0:0:
137,109,7978,2,0,P|203:113|259:109,1,120,10|0,0:0|0:0,0:0:0:0:
242,186,8250,2,0,P|237:252|242:308,1,120,2|0,0:0|0:0,0:0:0:0:
165,291,8523,2,0,P|98:286|43:291,1,120,10|0,0:0|0:0,0:0:0:0:
60,214,8796,2,0,P|64:147|60:92,1,120,2|0,0:0|0:0,0:0:0:0:
11,32,9069,1,10,0:0:0:0:
251,77,9250,5,0,0:0:0:0:
251,77,9341,2,0,P|326:71|412:83,1,120,2|0,0:1|0:0,0:0:0:0:
504,227,9614,2,0,P|429:233|343:221,1,120,10|0,0:1|0:0,0:0:0:0:
301,177,9887,5,2,0:0:0:0:
354,327,10069,1,0,0:0:0:0:
354,327,10159,2,0,P|272:322|210:331,1,120,10|0,0:0|0:0,0:0:0:0:
170,371,10432,1,0,0:0:0:0:
215,221,10614,1,0,0:0:0:0:
215,221,10705,2,0,P|220:138|214:85,1,120,10|0,0:0|0:0,0:0:0:0:
141,78,10978,1,0,0:0:0:0:
55,207,11159,1,0,0:0:0:0:
55,207,11250,2,0,L|52:137,2,60,10|0|0,0:0|0:0|0:0,0:0:0:0:
129,303,11523,6,0,P|64:310|6:306,1,120,2|0,0:1|0:0,0:0:0:0:
190,375,11796,2,0,P|255:368|313:372,1,120,10|0,0:1|0:0,0:0:0:0:
352,296,12069,5,2,0:0:0:0:
507,239,12250,1,0,0:0:0:0:
507,239,12341,2,0,P|450:280|430:345,1,120,10|0,0:0|0:0,0:0:0:0:
352,296,12614,2,0,P|344:226|298:176,1,120,2|0,0:0|0:0,0:0:0:0:
237,165,12887,2,0,P|180:206|160:271,1,120,10|0,0:0|0:0,0:0:0:0:
83,239,13160,2,0,P|75:169|29:119,1,120,2|0,0:0|0:0,0:0:0:0:
92,67,13432,2,0,P|144:94|203:90,1,120,10|0,0:0|0:0,0:0:0:0:
269,42,13705,5,2,0:0:0:0:
309,30,13796,1,0,0:0:0:0:
350,36,13887,1,0,0:0:0:0:
388,53,13978,2,0,P|420:71|479:59,1,71.9999978027344,10|0,0:0|0:0,0:0:0:0:
497,8,14250,6,0,L|482:166,1,135.000005149842,2|0,0:0|0:0,0:0:0:0:
485,140,14659,1,2,0:0:0:0:
436,238,14796,2,0,L|507:285,1,67.5000025749208,2|0,0:0|0:0,0:0:0:0:
393,336,15069,2,0,L|316:374,1,67.5000025749208,2|0,0:0|0:0,0:0:0:0:
330,251,15341,6,0,L|339:101,2,135.000005149842,2|2|2,0:0|0:0|0:0,0:0:0:0:
330,251,16159,1,0,0:0:0:0:
95,379,16432,6,0,B|147:338|162:267|162:267|190:294|223:296,1,202.500007724762,2|2,0:0|0:0,0:0:0:0:
337,317,16978,2,0,P|337:282|328:250,1,67.5000025749208,2|0,0:0|0:0,0:0:0:0:
292,142,17250,2,0,P|260:155|237:179,1,67.5000025749208,2|0,0:0|0:0,0:0:0:0:
163,289,17523,6,0,L|167:216,1,67.5000025749208,2|0,0:0|0:0,0:0:0:0:
53,256,17796,2,0,L|49:188,1,67.5000025749208,2|0,0:0|0:0,0:0:0:0:
172,150,18069,2,0,L|176:77,1,67.5000025749208,2|0,0:0|0:0,0:0:0:0:
42,115,18341,2,0,L|38:47,1,67.5000025749208,2|0,0:0|0:0,0:0:0:0:
184,7,18614,6,0,P|248:29|313:16,1,135.000005149842,2|0,0:0|0:0,0:0:0:0:
285,128,19023,1,2,0:0:0:0:
397,90,19159,2,0,P|396:156|429:214,1,135.000005149842,2|2,0:0|0:0,0:0:0:0:
447,329,19569,1,2,0:0:0:0:
335,303,19705,6,0,P|336:359|343:382,1,67.5000025749208,2|0,0:0|0:0,0:0:0:0:
236,281,19978,2,0,P|234:329|238:357,1,67.5000025749208,2|0,0:0|0:0,0:0:0:0:
133,251,20250,2,0,P|130:288|132:327,1,67.5000025749208,2|0,0:0|0:0,0:0:0:0:
21,373,20523,1,0,0:0:0:0:
43,104,20796,6,0,P|97:117|125:135,1,67.5000025749208,2|0,0:0|0:0,0:0:0:0:
171,27,21069,2,0,P|186:80|185:114,1,67.5000025749208,2|0,0:0|0:0,0:0:0:0:
301,99,21341,2,0,P|262:139|232:154,1,67.5000025749208,2|0,0:0|0:0,0:0:0:0:
303,248,21614,2,0,P|248:234|220:216,1,67.5000025749208,2|0,0:0|0:0,0:0:0:0:
123,235,21887,6,0,P|93:303|102:381,2,135.000005149842,2|2|2,0:0|0:0|0:0,0:0:0:0:
123,235,22705,1,0,0:0:0:0:
200,18,22978,6,0,P|232:75|291:107,1,135.000005149842,2|0,0:0|0:0,0:0:0:0:
406,103,23387,1,2,0:0:0:0:
351,205,23523,2,0,L|264:192,1,67.5000025749208,2|0,0:0|0:0,0:0:0:0:
327,302,23796,2,0,L|352:364,1,67.5000025749208,2|0,0:0|0:0,0:0:0:0:
422,272,24069,2,0,L|504:164,2,135.000005149842,2|2|2,0:0|0:0|0:0,0:0:0:0:
422,272,24887,1,2,0:0:0:0:
194,376,25159,6,0,B|154:320|181:245|181:245|149:259|117:248,1,202.500007724762,2|2,0:0|0:0,0:0:0:0:
143,135,25705,2,0,P|151:102|173:76,1,67.5000025749208,2|0,0:0|0:0,0:0:0:0:
256,158,25978,2,0,P|279:181|290:212,1,67.5000025749208,2|0,0:0|0:0,0:0:0:0:
366,337,26250,6,0,L|362:242,1,67.5000025749208,2|0,0:0|0:0,0:0:0:0:
472,306,26523,2,0,L|476:211,1,67.5000025749208,2|0,0:0|0:0,0:0:0:0:
361,182,26796,2,0,L|357:87,1,67.5000025749208,2|0,0:0|0:0,0:0:0:0:
477,151,27069,2,0,L|481:56,1,67.5000025749208,2|0,0:0|0:0,0:0:0:0:
351,20,27341,6,0,P|274:60|206:44,1,135.000005149842,2|0,0:0|0:0,0:0:0:0:
120,13,27750,1,2,0:0:0:0:
140,126,27887,2,0,P|143:192|108:249,1,135.000005149842,2|0,0:0|0:0,0:0:0:0:
4,297,28296,1,2,0:0:0:0:
98,360,28432,6,0,P|137:357|178:371,1,67.5000025749208,2|0,0:0|0:0,0:0:0:0:
201,254,28705,2,0,P|223:286|231:328,1,67.5000025749208,2|0,0:0|0:0,0:0:0:0:
344,290,28978,2,0,P|327:325|294:353,1,67.5000025749208,2|0,0:0|0:0,0:0:0:0:
416,378,29250,1,2,0:0:0:0:
213,175,29523,6,0,P|264:179|300:161,1,67.5000025749208,2|0,0:0|0:0,0:0:0:0:
462,176,29796,2,0,P|411:180|375:162,1,67.5000025749208,2|0,0:0|0:0,0:0:0:0:
262,30,30069,2,0,P|250:71|253:109,1,67.5000025749208,2|0,0:0|0:0,0:0:0:0:
427,94,30341,2,0,P|426:60|415:28,1,67.5000025749208,2|0,0:0|0:0,0:0:0:0:
338,266,30614,5,8,0:3:0:0:
305,235,30704,1,8,0:3:0:0:
262,225,30796,1,8,0:3:0:0:
220,239,30887,2,0,L|203:345,1,90.0000034332277,8|0,0:0|0:0,0:0:0:0:
106,372,31159,1,0,0:0:0:0:
381,340,31341,1,0,0:0:0:0:
380,339,31432,2,0,P|434:377|497:364,1,90.0000034332277,10|0,0:0|0:0,0:0:0:0:
483,266,31705,6,0,P|442:249|449:294,1,107.999996704102,6|0,0:0|0:0,0:0:0:0:
357,129,31978,2,0,P|342:198|347:256,1,107.999996704102,8|0,0:0|0:0,0:0:0:0:
380,339,32250,1,2,0:0:0:0:
155,129,32432,1,0,0:0:0:0:
155,129,32523,2,0,P|169:198|165:256,1,107.999996704102,8|0,0:0|0:0,0:0:0:0:
132,339,32796,6,0,P|218:332|285:376,2,161.999995056153,2|8|2,0:0|0:0|0:0,0:0:0:0:
407,221,33523,1,0,0:0:0:0:
407,221,33614,2,0,P|327:229|262:190,1,107.999996704102,10|0,0:0|0:0,0:0:0:0:
347,103,33887,6,0,P|382:129|341:146,1,107.999996704102,2|0,0:0|0:0,0:0:0:0:
457,15,34159,2,0,P|449:80|472:153,1,107.999996704102,8|0,0:0|0:0,0:0:0:0:
512,220,34432,1,0,0:0:0:0:
237,91,34614,1,0,0:0:0:0:
237,91,34705,2,0,P|245:156|222:229,1,107.999996704102,10|0,0:0|0:0,0:0:0:0:
182,296,34978,6,0,P|247:288|320:311,1,107.999996704102
387,351,35250,2,0,P|379:286|402:213,1,107.999996704102,10|0,0:0|0:0,0:0:0:0:
442,146,35523,5,0,0:0:0:0:
399,154,35613,1,0,0:0:0:0:
356,150,35704,1,0,0:0:0:0:
316,136,35796,2,0,P|300:90|300:20,1,107.999996704102,10|0,0:0|0:0,0:0:0:0:
303,220,36069,5,2,0:0:0:0:
35,176,36250,1,0,0:0:0:0:
35,176,36341,2,0,L|157:171,1,107.999996704102,12|0,0:0|0:0,0:0:0:0:
205,256,36614,5,2,0:0:0:0:
483,231,36796,1,0,0:0:0:0:
499,233,36887,2,0,L|391:228,1,107.999996704102,12|0,0:0|0:0,0:0:0:0:
307,304,37159,5,2,0:0:0:0:
40,267,37340,1,0,0:0:0:0:
12,268,37432,2,0,L|134:263,1,107.999996704102,12|0,0:0|0:0,0:0:0:0:
197,352,37705,5,2,0:0:0:0:
474,314,37886,1,0,0:0:0:0:
512,315,37978,2,0,L|404:310,1,107.999996704102,12|0,0:0|0:0,0:0:0:0:
203,252,38250,6,0,L|198:305,1,53.9999983520508,2|0,0:0|0:0,0:0:0:0:
310,351,38431,1,0,0:0:0:0:
307,304,38523,2,0,L|302:193,1,107.999996704102,14|0,0:1|0:0,0:0:0:0:
212,111,38796,6,0,L|215:57,1,53.9999983520508
14,0,38977,1,2,0:1:0:0:
14,0,39069,2,0,L|18:66,1,53.9999983520508,8|0,0:0|0:0,0:0:0:0:
69,143,39250,6,0,P|81:204|6:182,1,161.999995056153,2|0,0:1|0:0,0:0:0:0:
204,202,39614,2,0,P|263:207|307:232,1,107.999996704102,10|0,0:0|0:0,0:0:0:0:
417,247,39887,2,0,P|368:280|342:324,1,107.999996704102,2|0,0:0|0:0,0:0:0:0:
371,140,40159,2,0,L|362:28,1,107.999996704102,10|0,0:0|0:0,0:0:0:0:
215,94,40432,6,0,L|203:206,1,107.999996704102,2|0,0:0|0:0,0:0:0:0:
180,380,40705,1,8,0:0:0:0:
53,181,40887,2,0,L|0:186,2,53.9999983520508,2|0|0,0:0|0:0|0:0,0:0:0:0:
42,279,41159,2,0,L|95:284,2,53.9999983520508,2|8|0,0:0|0:0|0:0,0:0:0:0:
159,223,41432,6,0,L|337:203,1,161.999995056153,2|0,0:0|0:0,0:0:0:0:
501,185,41796,1,8,0:0:0:0:
342,39,41978,1,2,0:0:0:0:
342,39,42069,1,0,0:0:0:0:
385,303,42250,1,2,0:0:0:0:
385,303,42341,2,0,P|394:244|426:190,1,107.999996704102,8|0,0:0|0:0,0:0:0:0:
314,162,42614,6,0,P|255:166|195:147,1,107.999996704102,2|0,0:0|0:0,0:0:0:0:
279,268,42887,2,0,P|283:327|264:387,1,107.999996704102,2|0,0:0|0:0,0:0:0:0:
385,303,43159,2,0,P|444:299|504:318,1,107.999996704102,2|0,0:0|0:0,0:0:0:0:
420,197,43432,2,0,P|416:138|435:78,1,107.999996704102,2|0,0:0|0:0,0:0:0:0:
238,25,43705,6,0,P|242:84|223:144,1,107.999996704102,2|0,0:0|0:0,0:0:0:0:
35,211,43978,2,0,P|84:178|145:164,1,107.999996704102,2|0,0:0|0:0,0:0:0:0:
298,294,44250,2,0,P|244:267|202:221,1,107.999996704102,2|0,0:0|0:0,0:0:0:0:
331,135,44523,1,8,0:3:0:0:
329,151,44614,1,8,0:3:0:0:
327,167,44705,1,8,0:3:0:0:
325,183,44796,6,0,P|449:210|385:89,1,330.000010070801,6|0,0:0|0:0,0:0:0:0:
320,190,45341,2,0,P|463:203|383:83,1,359.999989013672,2|0,0:0|0:0,0:0:0:0:
224,52,45887,6,0,L|236:212,1,132.00000402832,2|0,0:0|0:0,0:0:0:0:
257,369,46159,1,10,0:0:0:0:
58,118,46341,1,2,0:0:0:0:
25,241,46432,2,0,P|54:181|48:85,1,132.00000402832,2|0,0:0|0:0,0:0:0:0:
162,251,46705,2,0,P|132:310|139:407,1,132.00000402832,8|0,0:0|0:0,0:0:0:0:
257,369,46978,6,0,B|301:334|307:276|307:276|327:334|387:360,2,215.999993408203,2|10|2,0:0|0:0|0:0,0:0:0:0:
469,103,47705,1,0,0:0:0:0:
436,227,47796,6,0,P|439:161|468:102,1,132.00000402832,10|0,0:0|0:0,0:0:0:0:
310,167,48069,2,0,P|244:163|185:134,1,132.00000402832,2|0,0:0|0:0,0:0:0:0:
249,295,48341,2,0,P|245:360|217:416,2,66.0000020141602,10|0|0,0:0|0:0|0:0,0:0:0:0:
376,353,48614,5,10,0:3:0:0:
415,351,48704,1,8,0:3:0:0:
453,361,48795,1,8,0:3:0:0:
488,379,48887,2,0,P|487:304|514:252,1,132.00000402832,10|0,0:0|0:0,0:0:0:0:
339,235,49159,6,0,P|239:174|378:158,1,330.000010070801,2|0,0:0|0:0,0:0:0:0:
322,219,49705,2,0,P|266:143|352:151,1,215.999993408203,2|8,0:0|0:0,0:0:0:0:
32,5,50159,1,0,0:0:0:0:
32,5,50250,6,0,P|79:28|101:66,1,66.0000020141602,2|0,0:0|0:0,0:0:0:0:
135,214,50432,1,0,0:0:0:0:
135,214,50523,2,0,P|131:159|152:121,1,66.0000020141602,10|0,0:0|0:0,0:0:0:0:
266,17,50705,1,0,0:0:0:0:
266,17,50796,2,0,P|219:46|175:45,2,66.0000020141602,2|0|0,0:0|0:0|0:0,0:0:0:0:
402,138,51069,2,0,P|448:108|492:109,2,66.0000020141602,8|0|0,0:0|0:0|0:0,0:0:0:0:
335,249,51341,6,0,P|337:319|377:364,1,132.00000402832,2|0,0:0|0:0,0:0:0:0:
182,278,51614,2,0,P|223:228|223:163,1,132.00000402832,10|0,0:0|0:0,0:0:0:0:
137,44,51887,6,0,L|201:53,1,66.0000020141602,2|0,0:0|0:0,0:0:0:0:
315,70,52069,1,2,0:0:0:0:
224,164,52159,2,0,L|288:156,1,66.0000020141602,10|0,0:0|0:0,0:0:0:0:
402,138,52341,1,2,0:0:0:0:
335,249,52432,6,0,P|344:335|383:377,1,132.00000402832,2|0,0:0|0:0,0:0:0:0:
129,333,52705,2,0,P|43:342|0:381,1,132.00000402832,10|0,0:0|0:0,0:0:0:0:
36,157,52978,2,0,P|27:71|-12:28,1,132.00000402832,2|0,0:0|0:0,0:0:0:0:
242,73,53251,2,0,P|328:64|370:24,1,132.00000402832,10|0,0:0|0:0,0:0:0:0:
335,249,53523,6,0,P|401:183|379:318,1,330.000010070801,6|0,0:0|0:0,0:0:0:0:
326,243,54069,2,0,P|412:174|396:331,1,359.999989013672,2|0,0:0|0:0,0:0:0:0:
238,355,54614,6,0,L|225:223,1,132.00000402832,2|0,0:0|0:0,0:0:0:0:
202,18,54887,1,10,0:0:0:0:
405,254,55069,1,2,0:0:0:0:
454,141,55159,2,0,P|410:188|418:284,1,132.00000402832,2|0,0:0|0:0,0:0:0:0:
208,141,55432,2,0,P|301:134|349:181,1,132.00000402832,8|0,0:0|0:0,0:0:0:0:
238,268,55705,6,0,L|163:276,2,66.0000020141602,2|0|0,0:0|0:0|0:0,0:0:0:0:
414,339,55978,1,10,0:0:0:0:
368,21,56159,1,0,0:0:0:0:
367,21,56250,2,0,P|331:74|337:139,1,132.00000402832,2|0,0:0|0:0,0:0:0:0:
511,268,56523,2,0,L|353:258,1,132.00000402832,10|0,0:0|0:0,0:0:0:0:
238,268,56796,6,0,P|185:313|174:379,1,132.00000402832,2|0,0:0|0:0,0:0:0:0:
0,216,57069,2,0,P|68:228|110:280,1,132.00000402832,10|0,0:0|0:0,0:0:0:0:
145,87,57341,5,10,0:3:0:0:
150,124,57432,1,8,0:3:0:0:
155,161,57523,1,8,0:3:0:0:
160,198,57614,2,0,P|223:183|263:132,1,132.00000402832,10|0,0:0|0:0,0:0:0:0:
361,320,57887,6,0,P|499:320|393:241,1,330.000010070801,2|0,0:0|0:0,0:0:0:0:
370,316,58432,2,0,P|489:321|402:248,1,287.999991210938,2|0,0:0|0:0,0:0:0:0:
226,227,58887,5,2,0:0:0:0:
226,227,58978,2,0,P|262:163|237:75,1,132.00000402832,2|0,0:0|0:0,0:0:0:0:
118,251,59250,2,0,P|155:314|244:336,1,132.00000402832,10|0,0:0|0:0,0:0:0:0:
151,145,59523,2,0,P|77:145|13:211,1,132.00000402832,2|0,0:0|0:0,0:0:0:0:
226,227,59796,2,0,P|269:233|295:220,1,66.0000020141602,8|0,0:0|0:0,0:0:0:0:
359,23,59978,6,0,L|347:162,1,132.00000402832,2|0,0:0|0:0,0:0:0:0:
338,295,60250,1,2,0:0:0:0:
338,295,60341,2,0,P|366:279|399:281,1,66.0000020141602,8|0,0:0|0:0,0:0:0:0:
471,378,60523,1,2,0:0:0:0:
512,261,60614,6,0,P|473:313|471:378,1,132.00000402832,2|0,0:0|0:0,0:0:0:0:
338,295,60887,2,0,P|273:287|216:317,1,132.00000402832,10|0,0:0|0:0,0:0:0:0:
7,351,61159,6,0,B|60:339|89:281|89:281|82:346|135:392,2,215.999993408203,2|10|2,0:0|0:0|0:0,0:0:0:0:
129,38,61887,1,0,0:0:0:0:
129,38,61978,2,0,L|106:189,1,143.999995605469,8|0,0:0|0:0,0:0:0:0:
176,252,62250,5,2,1:2:0:0:
294,194,62432,1,2,0:0:0:0:
296,178,62523,1,2,0:0:0:0:
390,329,62796,5,2,1:2:0:0:
510,271,62978,1,2,0:0:0:0:
512,255,63069,1,2,0:0:0:0:
413,171,63250,1,2,3:2:0:0:
415,155,63341,6,0,L|419:72,1,72,2|0,1:2|0:0,0:0:0:0:
413,65,63614,2,0,L|409:137,1,72,2|0,1:2|0:0,0:0:0:0:
287,128,63887,6,0,B|188:169|183:80|78:128,1,215.999993408203,2|2,1:2|0:3,0:0:0:0:
33,283,64432,5,6,0:0:0:0:
187,344,64614,1,0,0:0:0:0:
187,344,64705,2,0,P|177:285|186:224,1,120,10|0,0:0|0:0,0:0:0:0:
256,190,64978,1,0,0:0:0:0:
325,346,65159,1,0,0:0:0:0:
325,346,65250,2,0,P|335:287|326:226,1,120,10|0,0:0|0:0,0:0:0:0:
256,190,65523,1,0,0:0:0:0:
408,156,65705,1,0,0:0:0:0:
408,156,65796,2,0,P|438:162|475:157,2,60,10|0|0,0:0|0:0|0:0,0:0:0:0:
324,51,66069,6,0,P|265:41|205:49,1,120,2|0,0:1|0:0,0:0:0:0:
2,123,66341,2,0,P|61:133|122:124,1,120,10|0,0:1|0:0,0:0:0:0:
165,211,66614,5,2,0:0:0:0:
50,341,66796,1,0,0:0:0:0:
50,341,66887,2,0,P|82:278|79:214,1,120,10|0,0:0|0:0,0:0:0:0:
165,211,67159,2,0,P|189:265|235:303,1,120,2|0,0:0|0:0,0:0:0:0:
317,283,67432,2,0,P|349:220|346:156,1,120,10|0,0:0|0:0,0:0:0:0:
428,149,67705,2,0,P|454:202|502:238,1,120,2|0,0:0|0:0,0:0:0:0:
491,323,67978,2,0,P|430:319|376:342,1,120,10|0,0:0|0:0,0:0:0:0:
302,366,68250,5,8,0:0:0:0:
270,349,68340,1,8,0:0:0:0:
235,341,68431,1,8,0:0:0:0:
196,343,68523,2,0,P|153:347|120:380,1,71.9999978027344
51,384,68796,6,0,P|49:317|3:272,1,135.000005149842,6|2,0:0|0:0,0:0:0:0:
111,240,69205,1,2,0:0:0:0:
94,142,69341,2,0,L|36:85,1,67.5000025749208,2|0,0:0|0:0,0:0:0:0:
19,206,69614,2,0,L|-1:284,1,67.5000025749208,10|0,0:0|0:0,0:0:0:0:
111,240,69887,6,0,L|248:202,2,135.000005149842,2|10|2,0:0|0:0|0:0,0:0:0:0:
111,240,70705,1,8,0:0:0:0:
321,378,70978,6,0,P|336:313|388:271,1,135.000005149842,2|8,0:0|0:0,0:0:0:0:
503,281,71387,1,2,0:0:0:0:
447,182,71523,2,0,P|446:148|457:116,1,67.5000025749208,2|0,0:0|0:0,0:0:0:0:
347,150,71796,2,0,P|313:150|281:139,1,67.5000025749208,10|0,0:0|0:0,0:0:0:0:
180,61,72069,6,0,L|186:144,1,67.5000025749208,2|0,0:0|0:0,0:0:0:0:
73,106,72341,2,0,L|67:189,1,67.5000025749208,10|0,0:0|0:0,0:0:0:0:
192,207,72614,2,0,L|198:290,1,67.5000025749208,2|0,0:0|0:0,0:0:0:0:
63,251,72887,2,0,L|57:334,1,67.5000025749208,10|0,0:0|0:0,0:0:0:0:
215,363,73159,6,0,B|284:363|322:296|322:296|326:332|358:352,1,202.500007724762,2|0,0:1|0:0,0:0:0:0:
430,262,73705,2,0,P|451:236|459:203,1,67.5000025749208,2|0,0:0|0:0,0:0:0:0:
345,187,73978,2,0,P|312:181|279:190,1,67.5000025749208,10|0,0:0|0:0,0:0:0:0:
150,268,74250,6,0,P|156:300|147:333,1,67.5000025749208,2|0,0:0|0:0,0:0:0:0:
51,269,74523,2,0,P|44:236|53:203,1,67.5000025749208,10|0,0:0|0:0,0:0:0:0:
150,141,74796,2,0,P|158:108|152:75,1,67.5000025749208,2|0,0:0|0:0,0:0:0:0:
62,7,75069,1,8,0:0:0:0:
277,244,75341,6,0,P|281:277|275:310,1,67.5000025749208,2|0,0:0|0:0,0:0:0:0:
407,154,75614,2,0,P|440:153|472:164,1,67.5000025749208,10|0,0:0|0:0,0:0:0:0:
293,155,75887,2,0,P|259:154|227:165,1,67.5000025749208,2|0,0:0|0:0,0:0:0:0:
424,243,76159,2,0,P|419:276|425:309,1,67.5000025749208,10|0,0:0|0:0,0:0:0:0:
350,76,76432,5,10,0:3:0:0:
324,39,76522,1,8,0:3:0:0:
282,26,76613,1,8,0:3:0:0:
240,40,76705,2,0,P|176:51|128:14,1,90.0000034332277,10|0,0:0|0:0,0:0:0:0:
59,0,76978,1,2,0:0:0:0:
140,243,77159,1,0,0:0:0:0:
140,243,77250,2,0,P|128:180|161:128,1,90.0000034332277,10|0,0:0|0:0,0:0:0:0:
249,167,77523,6,0,P|253:211|211:195,1,107.999996704102,6|0,0:0|0:0,0:0:0:0:
353,291,77796,2,0,P|286:287|227:309,1,107.999996704102,8|0,0:0|0:0,0:0:0:0:
156,361,78069,1,2,0:0:0:0:
250,79,78250,1,0,0:0:0:0:
250,79,78341,2,0,P|183:83|124:60,1,107.999996704102,8|0,0:0|0:0,0:0:0:0:
53,9,78614,6,0,P|68:93|32:171,2,161.999995056153,2|8|2,0:0|0:0|0:0,0:0:0:0:
208,275,79341,1,0,0:0:0:0:
208,275,79432,2,0,P|202:221|217:170,1,107.999996704102,10|0,0:0|0:0,0:0:0:0:
328,218,79705,6,0,P|316:260|282:231,1,107.999996704102,2|0,0:0|0:0,0:0:0:0:
391,77,79978,2,0,P|387:150|402:195,1,107.999996704102,8|0,0:0|0:0,0:0:0:0:
448,275,80250,1,0,0:0:0:0:
185,99,80432,1,0,0:0:0:0:
185,99,80523,2,0,P|189:172|174:217,1,107.999996704102,10|0,0:0|0:0,0:0:0:0:
128,297,80796,6,0,P|155:285|148:307,1,53.9999983520508,2|0,0:0|0:0,0:0:0:0:
307,21,81069,2,0,L|316:155,1,107.999996704102,10|0,0:0|0:0,0:0:0:0:
345,236,81341,5,2,0:3:0:0:
381,212,81431,1,8,0:3:0:0:
423,212,81522,1,8,0:3:0:0:
460,234,81614,2,0,L|448:356,1,107.999996704102,10|0,0:0|0:0,0:0:0:0:
279,362,81887,5,2,0:0:0:0:
63,272,82069,1,0,0:0:0:0:
63,272,82159,2,0,P|132:286|150:356,1,107.999996704102,12|0,0:0|0:0,0:0:0:0:
252,273,82432,5,2,0:0:0:0:
475,163,82614,1,0,0:0:0:0:
491,166,82705,2,0,P|438:168|403:208,1,107.999996704102,12|0,0:0|0:0,0:0:0:0:
296,187,82978,5,2,0:0:0:0:
64,145,83159,1,0,0:0:0:0:
37,143,83250,2,0,P|106:129|124:59,1,107.999996704102,12|0,0:0|0:0,0:0:0:0:
240,90,83523,5,2,0:0:0:0:
471,66,83705,1,0,0:0:0:0:
509,64,83796,2,0,P|440:50|422:-20,1,107.999996704102,12|0,0:0|0:0,0:0:0:0:
416,153,84069,6,0,P|416:196|394:228,1,53.9999983520508,2|0,0:0|0:0,0:0:0:0:
500,293,84250,1,0,0:1:0:0:
460,288,84341,2,0,P|414:289|348:337,1,107.999996704102,14|0,0:1|0:0,0:0:0:0:
256,305,84614,6,0,L|248:358,1,53.9999983520508
320,168,84796,1,2,0:1:0:0:
320,168,84887,2,0,L|317:111,1,53.9999983520508,8|0,0:0|0:0,0:0:0:0:
234,27,85069,6,0,P|191:-8|175:69,1,161.999995056153,2|0,0:1|0:0,0:0:0:0:
320,168,85432,2,8,P|255:167|206:188,1,107.999996704102,10|0,0:0|0:0,0:0:0:0:
115,144,85705,2,0,P|117:210|146:255,1,107.999996704102,2|0,0:0|0:0,0:0:0:0:
2,366,85978,2,0,L|146:350,1,107.999996704102,10|0,0:0|0:0,0:0:0:0:
254,373,86250,6,0,P|300:335|352:333,1,107.999996704102,2|0,0:0|0:0,0:0:0:0:
507,375,86523,1,10,0:0:0:0:
374,190,86705,2,0,L|368:136,2,53.9999983520508,2|0|0,0:0|0:0|0:0,0:0:0:0:
483,234,86978,2,0,L|477:287,2,53.9999983520508,2|8|0,0:0|0:0|0:0,0:0:0:0:
368,276,87250,6,0,L|207:288,1,161.999995056153,2|0,0:0|0:0,0:0:0:0:
25,302,87614,1,8,0:0:0:0:
168,118,87796,1,2,0:0:0:0:
168,118,87887,1,0,0:0:0:0:
201,365,88069,1,2,0:0:0:0:
199,370,88159,2,0,P|142:340|127:269,1,107.999996704102,8|0,0:0|0:0,0:0:0:0:
297,189,88432,6,0,P|302:253|251:304,1,107.999996704102,2|0,0:0|0:0,0:0:0:0:
267,89,88705,2,0,P|331:83|382:134,1,107.999996704102,2|0,0:0|0:0,0:0:0:0:
168,118,88978,2,0,P|162:53|213:2,1,107.999996704102,2|0,0:0|0:0,0:0:0:0:
197,218,89250,2,0,P|132:223|81:172,1,107.999996704102,2|0,0:0|0:0,0:0:0:0:
2,317,89523,5,10,0:3:0:0:
46,309,89614,1,8,0:3:0:0:
90,303,89705,1,8,0:3:0:0:
143,344,89796,1,10,0:3:0:0:
189,351,89887,1,8,0:3:0:0:
233,357,89978,1,8,0:3:0:0:
284,314,90069,5,10,0:0:0:0:
328,308,90160,1,8,0:3:0:0:
372,301,90251,1,8,0:3:0:0:
426,341,90341,2,0,L|504:356,2,53.9999983520508,8|8|8,0:3|0:3|0:3,0:3:0:0:
444,244,90614,6,0,P|508:183|386:212,1,330.000010070801,6|0,0:0|0:0,0:0:0:0:
451,250,91159,2,0,P|511:155|382:219,1,359.999989013672,2|0,0:0|0:0,0:0:0:0:
251,316,91705,6,0,L|263:184,1,132.00000402832,2|0,0:0|0:0,0:0:0:0:
279,2,91978,1,10,0:0:0:0:
91,237,92159,1,2,0:0:0:0:
32,128,92250,2,0,P|78:172|90:236,1,132.00000402832,2|0,0:0|0:0,0:0:0:0:
270,95,92523,2,0,P|209:117|172:171,1,132.00000402832,8|0,0:0|0:0,0:0:0:0:
251,316,92796,6,0,B|308:306|341:258|341:258|322:314|342:367,2,215.999993408203,2|10|2,0:0|0:0|0:0,0:0:0:0:
512,131,93523,1,0,0:0:0:0:
425,218,93614,6,0,P|453:159|511:130,1,132.00000402832,10|0,0:0|0:0,0:0:0:0:
331,104,93887,2,0,P|303:45|245:16,1,132.00000402832,2|0,0:0|0:0,0:0:0:0:
126,74,94159,2,0,P|83:87|40:72,2,66.0000020141602,10|0|0,0:0|0:0|0:0,0:0:0:0:
95,201,94432,5,10,0:3:0:0:
86,239,94522,1,8,0:3:0:0:
79,278,94613,1,8,0:3:0:0:
69,317,94705,2,0,P|142:319|188:385,1,132.00000402832,10|2,0:0|0:0,0:0:0:0:
318,340,94978,6,0,P|336:206|360:335,1,330.000010070801,2|0,0:0|0:0,0:0:0:0:
319,346,95523,2,0,P|329:199|361:341,1,359.999989013672,2|0,0:0|0:0,0:0:0:0:
470,129,96069,6,0,L|493:23,1,66.0000020141602,2|0,0:0|0:0,0:0:0:0:
321,94,96250,1,0,0:0:0:0:
321,94,96341,2,0,B|314:1|314:1|291:44,1,132.00000402832,10|0,0:0|0:0,0:0:0:0:
175,116,96614,6,0,L|170:182,1,66.0000020141602,2|0,0:0|0:0,0:0:0:0:
25,163,96796,1,0,0:0:0:0:
25,163,96887,2,0,B|41:255|41:255|61:213,1,132.00000402832,8|0,0:0|0:0,0:0:0:0:
25,369,97159,6,0,P|60:344|110:338,1,66.0000020141602,2|0,0:0|0:0,0:0:0:0:
244,379,97341,1,0,0:0:0:0:
244,379,97432,2,0,P|231:311|269:226,1,132.00000402832,10|0,0:0|0:0,0:0:0:0:
360,319,97705,2,0,P|366:353|359:385,1,66.0000020141602,2|0,0:0|0:0,0:0:0:0:
500,275,97887,1,0,0:0:0:0:
500,275,97978,2,0,P|428:236|403:177,1,132.00000402832,10|0,0:0|0:0,0:0:0:0:
211,113,98250,6,0,P|288:73|372:102,1,132.00000402832,2|0,0:0|0:0,0:0:0:0:
139,200,98523,2,0,P|99:123|128:39,1,132.00000402832,10|0,0:0|0:0,0:0:0:0:
226,272,98796,2,0,P|149:312|65:283,1,132.00000402832,2|0,0:0|0:0,0:0:0:0:
298,185,99069,2,0,P|338:262|309:346,1,132.00000402832,10|0,0:0|0:0,0:0:0:0:
371,98,99341,6,0,P|468:58|380:154,1,330.000010070801,6|0,0:0|0:0,0:0:0:0:
364,97,99887,2,0,P|478:57|370:151,1,359.999989013672,2|0,0:0|0:0,0:0:0:0:
461,322,100432,6,0,P|378:326|325:369,1,132.00000402832,2|2,0:0|0:0,0:0:0:0:
267,154,100705,2,0,L|261:219,1,66.0000020141602,10|0,0:0|0:0,0:0:0:0:
174,348,100887,1,2,0:0:0:0:
173,346,100978,2,0,P|122:304|58:295,1,132.00000402832,2|0,0:0|0:0,0:0:0:0:
2,113,101250,2,0,P|66:105|118:65,1,132.00000402832,8|0,0:0|0:0,0:0:0:0:
267,154,101523,6,0,L|273:87,2,66.0000020141602,2|0|0,0:0|0:0|0:0,0:0:0:0:
251,323,101796,1,10,0:0:0:0:
490,107,101978,1,0,0:0:0:0:
490,107,102069,2,0,P|407:70|391:8,1,132.00000402832,2|0,0:0|0:0,0:0:0:0:
412,241,102341,2,0,L|428:378,1,132.00000402832,10|0,0:0|0:0,0:0:0:0:
251,323,102614,6,0,P|174:334|133:379,1,132.00000402832,2|0,0:0|0:0,0:0:0:0:
0,259,102887,2,0,P|77:248|118:203,1,132.00000402832,10|0,0:0|0:0,0:0:0:0:
142,86,103159,5,10,0:3:0:0:
178,102,103249,1,8,0:3:0:0:
218,104,103340,1,8,0:3:0:0:
256,91,103432,2,0,P|331:71|386:96,1,132.00000402832,10|0,0:0|0:0,0:0:0:0:
463,264,103705,6,0,P|337:322|400:205,1,330.000010070801,2|0,0:0|0:0,0:0:0:0:
453,264,104250,2,0,P|347:318|395:215,1,287.999991210938,2|0,0:0|0:0,0:0:0:0:
217,198,104705,5,2,0:0:0:0:
217,198,104796,2,0,P|253:133|334:107,1,132.00000402832,2|0,0:0|0:0,0:0:0:0:
120,139,105069,2,0,P|46:139|-15:87,1,132.00000402832,10|0,0:0|0:0,0:0:0:0:
118,253,105341,2,0,P|155:316|137:399,1,132.00000402832,2|0,0:0|0:0,0:0:0:0:
216,198,105614,2,0,P|240:176|276:167,1,66.0000020141602,8|0,0:0|0:0,0:0:0:0:
362,364,105796,6,0,L|351:229,1,132.00000402832,2|0,0:0|0:0,0:0:0:0:
339,67,106069,1,2,0:0:0:0:
339,67,106159,2,0,P|363:89|394:97,1,66.0000020141602,10|0,0:0|0:0,0:0:0:0:
499,36,106341,1,2,0:0:0:0:
477,158,106432,6,0,P|470:85|521:17,1,132.00000402832,2|0,0:0|0:0,0:0:0:0:
339,67,106705,2,0,L|324:215,1,132.00000402832,10|0,0:0|0:0,0:0:0:0:
177,342,106978,6,0,B|214:296|211:238|211:238|231:291|279:315,2,215.999993408203,2|10|2,0:0|0:0|0:0,0:0:0:0:
506,297,107705,1,0,0:0:0:0:
506,297,107796,2,0,L|358:289,1,143.999995605469,8|0,0:0|0:0,0:0:0:0:
303,214,108069,5,2,1:2:0:0:
182,269,108250,1,2,0:0:0:0:
181,287,108340,1,2,0:0:0:0:
25,197,108614,5,2,1:2:0:0:
150,157,108796,1,2,0:0:0:0:
149,175,108886,1,2,0:0:0:0:
34,106,109069,1,2,3:2:0:0:
35,88,109159,6,0,L|41:16,1,72,2|0,1:2|0:0,0:0:0:0:
36,0,109432,2,0,L|30:72,1,72,2|0,1:2|0:0,0:0:0:0:
160,56,109705,6,0,B|281:13|257:99|390:48,1,215.999993408203,2|2,1:2|0:3,0:0:0:0:
32,146,114614,5,10,0:1:0:0:
139,117,114796,1,0,0:0:0:0:
139,117,114887,2,0,P|211:131|258:100,1,107.999996704102,8|0,0:0|0:0,0:0:0:0:
264,69,115159,1,10,0:1:0:0:
350,3,115341,1,0,0:0:0:0:
350,3,115432,2,0,P|373:72|424:97,1,107.999996704102,8|0,0:0|0:0,0:0:0:0:
445,120,115705,6,0,L|430:257,1,107.999996704102,10|0,0:1|0:0,0:0:0:0:
425,281,115978,1,10,0:0:0:0:
343,227,116159,1,0,0:0:0:0:
343,227,116250,2,0,P|291:213|242:234,1,107.999996704102,10|0,0:1|0:0,0:0:0:0:
194,259,116523,2,0,P|144:279|93:266,1,107.999996704102,8|0,0:0|0:0,0:0:0:0:
53,229,116796,6,0,L|68:63,2,161.999995056153,10|8|10,0:1|0:0|0:1,0:0:0:0:
21,335,117523,1,0,0:0:0:0:
21,335,117614,2,0,P|65:306|118:310,1,107.999996704102,10|0,0:0|0:0,0:0:0:0:
161,344,117887,5,10,0:1:0:0:
188,239,118069,1,0,0:0:0:0:
188,239,118160,2,0,P|232:267|285:263,1,107.999996704102,10|0,0:0|0:0,0:0:0:0:
328,230,118433,1,10,0:1:0:0:
416,94,118705,2,0,L|424:201,1,107.999996704102,10|0,0:0|0:0,0:0:0:0:
436,324,118978,5,10,0:1:0:0:
436,324,119159,1,0,0:0:0:0:
436,324,119250,2,0,P|368:333|339:372,1,107.999996704102,10|0,0:0|0:0,0:0:0:0:
261,269,119523,1,10,0:1:0:0:
261,269,119704,1,0,0:0:0:0:
261,269,119796,2,0,P|193:259|164:220,1,107.999996704102,8|0,0:0|0:0,0:0:0:0:
84,139,120069,6,0,L|73:262,1,107.999996704102,10|0,0:1|0:0,0:0:0:0:
61,360,120341,1,10,0:0:0:0:
61,360,120523,1,0,0:0:0:0:
61,360,120614,2,0,P|100:324|153:322,1,107.999996704102,10|0,0:1|0:0,0:0:0:0:
269,376,120887,2,0,L|260:268,1,107.999996704102,8|0,0:0|0:0,0:0:0:0:
330,186,121159,6,0,P|258:153|184:181,2,161.999995056153,10|8|10,0:1|0:0|0:1,0:0:0:0:
330,186,121887,1,0,0:0:0:0:
330,186,121978,2,0,L|451:194,1,107.999996704102,10|0,0:0|0:0,0:0:0:0:
473,92,122250,5,10,0:1:0:0:
473,92,122432,1,0,0:0:0:0:
473,92,122523,2,0,P|421:81|389:38,1,107.999996704102,10|0,0:0|0:0,0:0:0:0:
285,112,122796,2,0,B|298:-1|298:-1|256:54,1,161.999995056153,10|8,0:1|0:0,0:0:0:0:
106,39,123341,5,10,0:1:0:0:
179,118,123523,1,0,0:0:0:0:
179,118,123614,2,0,P|173:191|131:228,1,107.999996704102,8|0,0:0|0:0,0:0:0:0:
103,235,123886,1,2,0:1:0:0:
11,290,124068,1,0,0:0:0:0:
11,290,124159,2,0,P|71:330|82:385,1,107.999996704102,8|0,0:0|0:0,0:0:0:0:
136,361,124432,6,0,L|286:380,1,107.999996704102,10|0,0:1|0:0,0:0:0:0:
297,384,124705,1,10,0:0:0:0:
401,351,124886,1,0,0:0:0:0:
401,351,124977,2,0,P|425:303|416:251,1,107.999996704102,10|0,0:1|0:0,0:0:0:0:
368,226,125250,2,0,L|260:212,1,107.999996704102,8|0,0:0|0:0,0:0:0:0:
239,162,125523,6,0,P|226:91|269:8,2,161.999995056153,10|8|10,0:1|0:0|0:1,0:0:0:0:
145,119,126250,1,0,0:0:0:0:
145,119,126341,2,0,P|92:116|48:147,1,107.999996704102,10|0,0:0|0:0,0:0:0:0:
24,196,126614,5,10,0:1:0:0:
108,263,126796,1,0,0:0:0:0:
108,263,126887,2,0,P|100:314|126:360,1,107.999996704102,10|0,0:0|0:0,0:0:0:0:
178,378,127160,1,10,0:1:0:0:
267,243,127432,2,0,L|260:350,1,107.999996704102,10|0,0:0|0:0,0:0:0:0:
384,330,127705,5,10,0:1:0:0:
384,330,127886,1,0,0:0:0:0:
384,330,127978,2,0,P|452:339|481:378,1,107.999996704102,10|0,0:0|0:0,0:0:0:0:
502,252,128250,1,10,0:1:0:0:
502,252,128431,1,0,0:0:0:0:
502,252,128523,2,0,L|494:143,1,107.999996704102,8|0,0:0|0:0,0:0:0:0:
408,50,128796,6,0,P|407:102|371:142,1,107.999996704102,10|0,0:1|0:0,0:0:0:0:
327,257,129068,1,10,0:0:0:0:
327,257,129250,1,0,0:0:0:0:
327,257,129341,2,0,P|281:229|265:179,1,107.999996704102,10|0,0:1|0:0,0:0:0:0:
182,86,129614,2,0,L|174:193,1,107.999996704102,8|0,0:0|0:0,0:0:0:0:
168,302,129887,6,0,P|89:291|25:337,2,161.999995056153,10|8|10,0:1|0:0|0:1,0:0:0:0:
167,301,130614,1,0,0:0:0:0:
167,301,130705,2,0,L|281:280,1,107.999996704102,10|0,0:0|0:0,0:0:0:0:
358,216,130977,5,10,0:1:0:0:
358,216,131159,1,0,0:0:0:0:
358,216,131250,2,0,P|388:259|440:270,1,107.999996704102,10|0,0:0|0:0,0:0:0:0:
457,152,131523,2,0,B|467:36|467:36|427:79,1,161.999995056153,10|8,0:1|0:0,0:0:0:0:
124,147,132069,6,0,P|179:141|226:182,1,107.999996704102,10|0,0:1|0:0,0:0:0:0:
195,263,132341,2,0,P|140:269|93:228,1,107.999996704102,10|0,0:0|0:0,0:0:0:0:
123,140,132614,2,0,P|183:135|233:182,1,107.999996704102,10|0,0:1|0:0,0:0:0:0:
196,270,132887,2,0,P|135:274|85:227,1,107.999996704102,10|0,0:0|0:0,0:0:0:0:
258,231,133159,6,0,L|305:242,1,40.4999987640381,10|0,0:1|0:0,0:0:0:0:
262,240,133432,2,0,L|309:251,1,40.4999987640381,10|0,0:0|0:0,0:0:0:0:
266,249,133705,2,0,L|313:260,1,40.4999987640381,10|0,0:1|0:0,0:0:0:0:
448,373,133978,2,0,P|465:295|504:250,1,107.999996704102,10|0,0:0|0:0,0:0:0:0:
403,181,134250,6,0,P|447:162|472:105,1,107.999996704102,10|0,0:1|0:0,0:0:0:0:
466,104,134523,2,0,P|422:123|397:180,1,107.999996704102,10|0,0:0|0:0,0:0:0:0:
278,149,134796,2,0,P|295:104|273:46,1,107.999996704102,10|0,0:1|0:0,0:0:0:0:
268,51,135069,2,0,P|250:95|272:153,1,107.999996704102,10|0,0:0|0:0,0:0:0:0:
128,187,135341,6,0,L|184:179,1,40.4999987640381,10|0,0:1|0:0,0:0:0:0:
149,200,135614,2,0,L|204:211,1,40.4999987640381,10|0,0:0|0:0,0:0:0:0:
164,219,135887,2,0,L|212:248,1,40.4999987640381,10|0,0:1|0:0,0:0:0:0:
268,382,136159,1,8,0:0:0:0:
361,89,136432,6,0,P|406:61|458:68,1,107.999996704102,10|0,0:1|0:0,0:0:0:0:
483,177,136705,2,0,P|437:204|385:197,1,107.999996704102,10|0,0:0|0:0,0:0:0:0:
361,98,136978,2,0,P|405:67|457:74,1,107.999996704102,10|0,0:1|0:0,0:0:0:0:
482,167,137250,2,0,P|438:197|386:190,1,107.999996704102,10|0,0:0|0:0,0:0:0:0:
244,184,137523,6,0,L|237:232,1,40.4999987640381,10|0,0:1|0:0,0:0:0:0:
236,191,137796,2,0,L|229:239,1,40.4999987640381,10|0,0:0|0:0,0:0:0:0:
228,198,138069,2,0,L|221:246,1,40.4999987640381,10|0,0:1|0:0,0:0:0:0:
244,82,138341,1,8,0:0:0:0:
112,167,138614,6,0,P|64:190|13:179,1,107.999996704102,10|0,0:1|0:0,0:0:0:0:
14,188,138887,2,0,P|66:196|113:172,1,107.999996704102,10|0,0:0|0:0,0:0:0:0:
101,48,139159,2,0,P|50:37|3:61,1,107.999996704102,10|0,0:1|0:0,0:0:0:0:
0,54,139432,2,0,P|47:30|99:38,1,107.999996704102,10|0,0:0|0:0,0:0:0:0:
177,85,139705,5,10,0:0:0:0:
177,85,139796,1,8,0:3:0:0:
177,85,139887,1,8,0:3:0:0:
164,138,139978,6,0,L|123:260,1,125.999996154785,10|0,0:0|0:0,0:0:0:0:
190,187,140250,6,0,L|234:337,1,143.999995605469,10|0,0:0|0:0,0:0:0:0:
241,208,140523,6,0,L|370:310,1,162.000000617981,10|0,0:0|0:0,0:0:0:0:
294,190,140796,5,6,0:0:0:0:
359,173,140886,1,0,0:0:0:0:
393,115,140977,1,0,0:0:0:0:
376,51,141068,1,0,0:0:0:0:
317,17,141159,1,0,0:0:0:0:
253,36,141250,1,0,0:0:0:0:
220,95,141341,5,2,0:0:0:0:
187,153,141431,1,0,0:0:0:0:
123,172,141522,1,0,0:0:0:0:
64,139,141614,1,0,0:0:0:0:
47,74,141704,1,0,0:0:0:0:
81,16,141795,1,0,0:0:0:0:
146,0,141887,5,2,0:0:0:0:
139,42,141977,1,0,0:0:0:0:
133,85,142068,1,0,0:0:0:0:
127,128,142159,1,0,0:0:0:0:
123,172,142250,1,0,0:0:0:0:
115,213,142341,1,0,0:0:0:0:
109,256,142432,5,2,0:0:0:0:
170,236,142522,1,0,0:0:0:0:
234,238,142613,1,0,0:0:0:0:
292,264,142704,1,0,0:0:0:0:
351,288,142795,1,0,0:0:0:0:
415,286,142886,1,0,0:0:0:0:
475,265,142978,6,0,B|465:299|473:318|473:318|457:337|459:373,1,96,2|0,0:1|0:0,0:0:0:0:
382,156,143250,1,8,0:0:0:0:
193,374,143432,5,0,0:0:0:0:
149,346,143523,2,0,P|106:343|70:382,1,71.9999978027344,2|0,0:0|0:0,0:0:0:0:
94,194,143705,1,0,0:0:0:0:
12,269,143796,2,0,P|47:265|73:241,1,71.9999978027344,10|0,0:0|0:0,0:0:0:0:
73,84,143978,6,0,B|99:89|127:70|127:70|142:78|153:92|153:92|183:76|220:90,1,144,2|0,0:1|0:0,0:0:0:0:
331,19,144341,1,8,0:0:0:0:
227,291,144523,5,0,0:0:0:0:
276,275,144614,2,0,P|318:283|342:330,1,71.9999978027344,2|0,0:0|0:0,0:0:0:0:
481,250,144796,1,0,0:0:0:0:
442,354,144887,2,0,P|431:320|443:286,2,71.9999978027344,10|0|0,0:0|0:0|0:0,0:0:0:0:
377,212,145159,5,10,0:3:0:0:
373,188,145250,1,8,0:3:0:0:
369,164,145341,1,8,0:3:0:0:
365,140,145432,2,0,P|294:126|226:170,1,143.999995605469,10|0,0:0|0:0,0:0:0:0:
136,55,145705,6,0,L|128:127,1,71.9999978027344,2|0,0:0|0:0,0:0:0:0:
107,253,145887,1,0,0:0:0:0:
25,178,145978,2,0,P|60:182|86:206,1,71.9999978027344,10|0,0:0|0:0,0:0:0:0:
2,354,146159,6,0,B|30:359|58:340|58:340|74:347|84:362|84:362|112:349|142:365,1,144,2|0,0:1|0:0,0:0:0:0:
351,294,146523,6,0,P|307:299|266:284,1,71.9999978027344,10|0,0:0|0:0,0:0:0:0:
428,224,146705,1,0,0:0:0:0:
428,224,146796,2,0,P|454:259|461:302,1,71.9999978027344,2|0,0:0|0:0,0:0:0:0:
328,192,146978,1,0,0:0:0:0:
328,192,147069,2,0,P|345:151|451:129,1,120,10|0,0:0|0:0,0:0:0:0:
292,61,147341,5,2,0:0:0:0:
51,78,147523,1,0,0:0:0:0:
51,78,147614,2,0,P|112:77|163:46,1,120,8|0,0:0|0:0,0:0:0:0:
222,125,147887,5,2,0:0:0:0:
476,152,148069,1,0,0:0:0:0:
488,151,148159,2,0,P|426:150|376:119,1,120,8|0,0:0|0:0,0:0:0:0:
302,189,148432,5,2,0:0:0:0:
52,208,148614,1,0,0:0:0:0:
34,211,148705,2,0,P|95:211|146:243,1,120,8|0,0:0|0:0,0:0:0:0:
243,289,148978,5,2,0:0:0:0:
487,313,149159,1,0,0:0:0:0:
511,317,149250,2,0,P|449:317|399:349,1,120,8|0,0:0|0:0,0:0:0:0:
377,246,149523,5,2,0:0:0:0:
394,211,149614,1,0,0:0:0:0:
398,173,149705,1,0,0:0:0:0:
387,136,149796,1,8,0:0:0:0:
375,98,149887,1,0,0:0:0:0:
379,60,149978,1,0,0:0:0:0:
395,25,150069,6,0,P|361:34|327:23,2,71.9999978027344,2|0|0,0:0|0:0|0:0,0:0:0:0:
173,107,150341,2,0,P|206:97|240:108,1,71.9999978027344,8|0,0:0|0:0,0:0:0:0:
173,202,150523,6,0,B|144:205|117:185|117:185|101:191|90:205|90:205|62:195|32:205,1,144,2|0,0:1|0:0,0:0:0:0:
149,376,150887,6,0,P|165:332|268:333,1,143.999995605469,10|0,0:0|0:0,0:0:0:0:
420,337,151159,2,0,L|407:267,1,71.9999978027344,2|0,0:0|0:0,0:0:0:0:
374,119,151341,1,0,0:0:0:0:
303,200,151432,2,0,P|336:191|371:102,1,120,10|0,0:0|0:0,0:0:0:0:
277,54,151705,5,2,0:0:0:0:
6,110,151887,1,0,0:0:0:0:
6,110,151978,2,0,L|133:103,1,120,8|0,0:0|0:0,0:0:0:0:
218,141,152250,5,2,0:0:0:0:
477,195,152431,1,0,0:0:0:0:
489,197,152523,2,0,L|362:190,1,120,8|0,0:0|0:0,0:0:0:0:
275,230,152796,5,2,0:0:0:0:
22,285,152977,1,0,0:0:0:0:
4,286,153069,2,0,L|131:279,1,120,8|0,0:0|0:0,0:0:0:0:
220,313,153341,5,2,0:0:0:0:
484,359,153523,1,0,0:0:0:0:
508,360,153614,2,0,L|388:353,1,120,8|0,0:0|0:0,0:0:0:0:
275,230,153887,6,0,P|226:192|147:206,1,132.00000402832,2|0,0:0|0:0,0:0:0:0:
19,285,154159,1,10,0:0:0:0:
192,16,154341,5,2,0:0:0:0:
192,16,154432,2,0,P|201:47|195:81,1,66.0000020141602
74,152,154614,1,2,0:0:0:0:
74,152,154705,2,0,P|64:120|70:86,1,66.0000020141602,8|0,0:0|0:0,0:0:0:0:
185,211,154887,6,0,B|150:196|150:196|169:375,1,198.000006042481,2|0,0:0|0:0,0:0:0:0:
281,301,155250,1,10,0:0:0:0:
21,249,155432,1,2,0:0:0:0:
21,249,155523,1,0,0:0:0:0:
305,68,155705,1,2,0:0:0:0:
305,68,155796,2,0,P|359:96|376:170,1,132.00000402832,8|0,0:0|0:0,0:0:0:0:
296,149,156069,6,0,P|259:201|146:181,1,143.999995605469,2|0,0:0|0:0,0:0:0:0:
152,16,156341,2,0,P|207:57|213:127,1,143.999995605469,2|0,0:0|0:0,0:0:0:0:
21,158,156614,2,0,P|62:102|132:96,1,143.999995605469,2|0,0:0|0:0,0:0:0:0:
164,288,156887,2,0,P|108:246|102:176,1,143.999995605469,2|0,0:0|0:0,0:0:0:0:
248,265,157159,6,0,P|239:334|184:372,1,107.999996704102,10|0,0:0|0:0,0:0:0:0:
361,102,157432,6,0,P|406:75|451:83,1,71.9999978027344,10|0,0:0|0:0,0:0:0:0:
163,86,157705,6,0,P|130:72|122:60,1,44.999998626709,10|0,0:0|0:0,0:0:0:0:
56,8,157978,1,8,0:3:0:0:
51,65,158069,1,8,0:3:0:0:
46,121,158159,1,8,0:3:0:0:
42,178,158250,6,0,L|29:338,1,96,6|0,0:0|0:0,0:0:0:0:
441,141,158796,2,0,L|454:-19,1,96,6|0,0:0|0:0,0:0:0:0:
196,163,159341,6,0,P|181:203|135:233,1,96,6|0,0:0|0:0,0:0:0:0:
319,174,159614,2,0,P|327:216|367:253,1,96,6|0,0:0|0:0,0:0:0:0:
249,268,159796,1,0,0:0:0:0:
249,268,159887,2,0,L|238:396,1,96,6|0,0:0|0:0,0:0:0:0:
96,47,160432,6,0,L|255:33,1,96,6|0,0:0|0:0,0:0:0:0:
416,337,160978,2,0,L|256:350,1,96,6|0,0:0|0:0,0:0:0:0:
320,345,161250,1,2,0:0:0:0:
221,101,161523,6,0,P|264:139|306:142,1,96,6|0,0:0|0:0,0:0:0:0:
239,318,161796,2,0,P|275:272|316:262,1,96,6|0,0:0|0:0,0:0:0:0:
213,211,161978,1,2,0:0:0:0:
213,211,162069,2,0,L|101:220,1,96,6|0,0:0|0:0,0:0:0:0:
293,63,162341,5,10,0:3:0:0:
293,63,162432,1,8,0:3:0:0:
293,63,162523,1,8,0:3:0:0:
293,63,162614,2,0,L|405:72,1,96,6|0,0:0|0:0,0:0:0:0:
178,356,163159,2,0,L|66:347,1,96,6|0,0:0|0:0,0:0:0:0:
293,186,163614,5,2,0:0:0:0:
293,186,163705,2,0,P|299:228|276:273,1,96,6|0,0:0|0:0,0:0:0:0:
475,218,163978,2,0,P|434:202|407:160,1,96,6|0,0:0|0:0,0:0:0:0:
355,359,164250,2,0,P|388:331|438:329,1,96,6|0,0:0|0:0,0:0:0:0:
152,72,164796,6,0,L|141:199,1,96,6|0,0:0|0:0,0:0:0:0:
144,168,165069,1,2,0:0:0:0:
375,257,165250,1,2,0:0:0:0:
375,257,165341,2,0,L|386:130,1,96,6|0,0:0|0:0,0:0:0:0:
383,161,165614,1,2,0:0:0:0:
255,295,165796,5,2,0:0:0:0:
255,295,165887,5,2,0:0:0:0:
201,297,165977,1,0,0:0:0:0:
157,325,166068,1,0,0:0:0:0:
133,371,166160,5,10,0:0:0:0:
104,327,166250,1,0,0:0:0:0:
57,303,166341,1,0,0:0:0:0:
6,306,166433,5,2,0:0:0:0:
30,259,166523,1,0,0:0:0:0:
27,207,166614,1,0,0:0:0:0:
0,163,166706,5,10,0:0:0:0:
51,160,166796,1,0,0:0:0:0:
95,131,166887,1,0,0:0:0:0:
120,85,166978,6,0,P|229:20|164:157,1,359.999989013672,6|0,0:0|0:0,0:0:0:0:
113,82,167523,2,0,P|240:18|150:157,1,389.999982147218,2|0,0:0|0:0,0:0:0:0:
104,311,168069,6,0,B|248:319,1,143.999995605469,2|0,0:0|0:0,0:0:0:0:
408,330,168341,1,10,0:0:0:0:
197,88,168523,1,2,0:0:0:0:
328,63,168614,6,0,P|266:97|196:87,1,143.999995605469,2|0,0:0|0:0,0:0:0:0:
378,213,168887,2,0,P|439:178|509:188,1,143.999995605469,8|0,0:0|0:0,0:0:0:0:
408,330,169159,6,0,B|343:347|299:300|299:300|278:360|215:368,2,233.999989288331,2|10|2,0:0|0:0|0:0,0:0:0:0:
154,128,169887,1,0,0:0:0:0:
178,259,169978,6,0,P|188:188|153:127,1,143.999995605469,10|0,0:0|0:0,0:0:0:0:
88,323,170250,2,0,P|143:366|214:368,1,143.999995605469,2|0,0:0|0:0,0:0:0:0:
77,213,170523,2,0,P|11:239|-24:293,2,71.9999978027344,10|0|2,0:0|0:0|0:0,0:0:0:0:
178,259,170796,5,10,0:3:0:0:
223,278,170887,1,8,0:3:0:0:
273,278,170978,1,8,0:3:0:0:
317,257,171069,2,0,P|383:233|451:256,1,143.999995605469,10|0,0:0|0:0,0:0:0:0:
344,92,171341,6,0,P|457:19|418:156,1,359.999989013672,2|0,0:0|0:0,0:0:0:0:
350,83,171887,2,0,P|452:24|401:147,1,311.999985717774,2|0,0:0|0:0,0:0:0:0:
222,35,172341,5,2,0:0:0:0:
222,35,172432,2,0,P|144:71|121:141,1,143.999995605469,2|0,0:0|0:0,0:0:0:0:
244,262,172705,2,0,P|253:191|216:131,1,143.999995605469,10|0,0:0|0:0,0:0:0:0:
31,168,172978,2,0,P|84:211|156:209,1,143.999995605469,2|0,0:0|0:0,0:0:0:0:
358,172,173250,2,0,P|387:152|427:151,1,71.9999978027344,8|0,0:0|0:0,0:0:0:0:
492,360,173432,6,0,L|474:205,1,143.999995605469,2|0,0:0|0:0,0:0:0:0:
495,49,173705,1,2,0:0:0:0:
495,49,173796,2,0,P|466:69|426:70,1,71.9999978027344,10|0,0:0|0:0,0:0:0:0:
253,2,173978,1,2,0:0:0:0:
303,118,174069,6,0,P|304:48|252:1,1,143.999995605469,2|0,0:0|0:0,0:0:0:0:
432,159,174341,2,0,P|438:89|494:48,1,143.999995605469,10|0,0:0|0:0,0:0:0:0:
464,268,174614,6,0,B|395:278|355:233|355:233|332:289|257:301,2,233.999989288331,2|10|2,0:0|0:0|0:0,0:0:0:0:
34,327,175341,1,0,0:0:0:0:
34,327,175432,2,0,L|202:307,1,143.999995605469,8|0,0:0|0:0,0:0:0:0:
267,298,175705,5,2,1:2:0:0:
111,221,175887,1,2,0:0:0:0:
96,225,175978,1,2,0:0:0:0:
309,151,176250,5,2,1:2:0:0:
465,228,176432,1,2,0:0:0:0:
480,224,176523,1,2,0:0:0:0:
367,355,176705,1,0,0:0:0:0:
370,341,176796,6,0,L|381:250,1,80.9999975280763,2|0,1:2|0:0,0:0:0:0:
395,134,177069,2,0,L|385:214,1,80.9999975280763,2|0,1:2|0:0,0:0:0:0:
370,341,177341,2,0,L|381:250,1,80.9999975280763,2|0,1:2|0:0,0:0:0:0:
395,134,177614,1,2,0:3:0:0:
197,22,177887,5,2,1:2:0:0:
37,89,178069,1,2,0:0:0:0:
38,71,178160,1,2,0:0:0:0:
15,296,178432,5,2,1:2:0:0:
175,229,178614,1,2,0:0:0:0:
174,247,178705,1,2,0:0:0:0:
14,314,178887,1,2,0:0:0:0:
15,296,178978,6,0,L|24:216,1,80.9999975280763,2|0,1:2|0:0,0:0:0:0:
37,89,179250,2,0,L|29:170,1,80.9999975280763,2|0,1:2|0:0,0:0:0:0:
15,296,179523,2,0,L|23:215,1,80.9999975280763,2|0,1:2|0:0,0:0:0:0:
37,89,179796,1,2,0:3:0:0:
286,326,180069,5,6,0:0:0:0:
140,371,180251,1,0,0:0:0:0:
140,371,180341,2,0,P|150:309|138:242,1,120,10|0,0:0|0:0,0:0:0:0:
80,202,180615,1,0,0:0:0:0:
238,237,180796,1,0,0:0:0:0:
238,237,180887,2,0,P|228:175|240:108,1,120,10|0,0:0|0:0,0:0:0:0:
305,82,181159,1,0,0:0:0:0:
150,101,181341,1,0,0:0:0:0:
150,101,181432,2,0,L|149:40,2,60,10|0|0,0:0|0:0|0:0,0:0:0:0:
148,279,181705,6,0,P|88:271|29:280,1,120,2|0,0:1|0:0,0:0:0:0:
217,364,181978,2,0,P|277:372|336:363,1,120,10|0,0:1|0:0,0:0:0:0:
387,291,182250,5,2,0:0:0:0:
216,219,182432,1,0,0:0:0:0:
216,219,182523,2,0,P|282:215|338:219,1,120,10|0,0:0|0:0,0:0:0:0:
321,142,182796,2,0,P|316:76|321:20,1,120,2|0,0:0|0:0,0:0:0:0:
244,37,183068,2,0,P|177:42|122:37,1,120,10|0,0:0|0:0,0:0:0:0:
139,114,183341,2,0,P|143:181|139:236,1,120,2|0,0:0|0:0,0:0:0:0:
64,255,183614,1,8,0:0:0:0:
288,337,183796,5,0,0:0:0:0:
288,337,183887,2,0,P|354:333|410:337,1,120,2|0,0:1|0:0,0:0:0:0:
485,147,184159,2,0,P|419:151|363:147,1,120,10|0,0:1|0:0,0:0:0:0:
329,64,184432,5,2,0:0:0:0:
181,13,184614,1,0,0:0:0:0:
181,13,184705,2,0,P|189:72|178:130,1,120,10|0,0:0|0:0,0:0:0:0:
105,161,184978,1,0,0:0:0:0:
259,147,185159,1,0,0:0:0:0:
259,147,185250,2,0,P|250:206|261:264,1,120,10|0,0:0|0:0,0:0:0:0:
335,293,185523,1,0,0:0:0:0:
179,275,185705,1,0,0:0:0:0:
179,275,185796,2,0,L|170:347,2,60,10|0|0,0:0|0:0|0:0,0:0:0:0:
105,161,186069,6,0,P|113:88|104:33,1,120,2|0,0:1|0:0,0:0:0:0:
10,214,186341,2,0,P|2:287|11:342,1,120,10|0,0:1|0:0,0:0:0:0:
94,375,186614,5,2,0:0:0:0:
246,341,186796,1,0,0:0:0:0:
246,341,186887,2,0,P|304:339|350:375,1,120,10|0,0:0|0:0,0:0:0:0:
426,355,187159,2,0,P|442:298|491:265,1,120,2|0,0:0|0:0,0:0:0:0:
494,187,187432,2,0,P|445:153|429:97,1,120,10|0,0:0|0:0,0:0:0:0:
355,71,187705,2,0,P|308:107|249:104,1,120,2|0,0:0|0:0,0:0:0:0:
201,167,187978,2,0,P|220:222|200:277,1,120,10|0,0:0|0:0,0:0:0:0:
340,237,188250,5,8,0:0:0:0:
345,182,188341,1,8,0:0:0:0:
349,126,188432,1,8,0:0:0:0:
355,71,188523,2,0,P|394:44|458:62,2,107.999996704102,10|0|0,0:1|0:0|0:0,0:0:0:0:
175,7,189250,6,0,L|173:66,1,60,2|0,0:0|0:0,0:0:0:0:
270,176,189523,2,0,L|271:116,1,60,2|0,0:0|0:0,0:0:0:0:
163,214,189796,2,0,L|161:273,1,60,2|0,0:0|0:0,0:0:0:0:
260,381,190069,2,0,L|262:320,1,60,2|0,0:0|0:0,0:0:0:0:
373,227,190341,5,2,0:0:0:0:
373,227,190432,2,0,P|340:255|391:268,1,120,8|0,0:3|0:0,0:0:0:0:
452,217,190705,5,2,0:0:0:0:
260,381,190887,1,4,0:0:0:0:
256,192,190978,12,0,191523,0:0:0:0:
