osu file format v14

[General]
AudioFilename: audio.mp3
AudioLeadIn: 0
PreviewTime: 44811
Countdown: 0
SampleSet: Soft
StackLeniency: 0.7
Mode: 0
LetterboxInBreaks: 0
WidescreenStoryboard: 1

[Editor]
Bookmarks: 14170,31670,36034,40447,44811,53538,56716,62265,64447,68811,77538,81902,86265,90629,108084,110265,114625,132084,138629,140811,142993,147356,149538,151720,153902,158216,165902,171307,175720,180084,188811,190084,190356,190447,190629,190720,190902
DistanceSpacing: 1.1
BeatDivisor: 6
GridSize: 32
TimelineZoom: 3.299999

[Metadata]
Title:Chururira Chururira Daddadda!
TitleUnicode:チュルリラ・チュルリラ・ダッダッダ!
Artist:Tenjin Kotone
ArtistUnicode:天神子兔音
Creator:StrengeMistake
Version:Calvaria's Insane
Source:
Tags:Wada Takeaki KurageP virtual youtuber vtuber vocaloid cover Calvaria Japanese Rock
BeatmapID:2276681
BeatmapSetID:1057170

[Difficulty]
HPDrainRate:5.5
CircleSize:4.5
OverallDifficulty:7.5
ApproachRate:9
SliderMultiplier:1.3
SliderTickRate:1

[Events]
//Background and Video events
0,0,"74885603_p0 (2).png",0,0
//Break Periods
2,110359,114014
//Storyboard Layer 0 (Background)
//Storyboard Layer 1 (Fail)
//Storyboard Layer 2 (Pass)
//Storyboard Layer 3 (Foreground)
//Storyboard Layer 4 (Overlay)
//Storyboard Sound Samples

[TimingPoints]
69,272.727272727273,4,2,2,60,1,0
1159,-83.3333333333333,4,2,2,60,0,0
13978,-83.3333333333333,4,2,2,40,0,0
14250,-100,4,2,2,40,0,0
30887,-83.3333333333333,4,2,2,40,0,0
31705,-83.3333333333333,4,2,2,50,0,0
36069,-133.333333333333,4,2,2,50,0,0
36341,-55.5555555555556,4,2,2,50,0,0
36614,-133.333333333333,4,2,2,50,0,0
36886,-55.5555555555556,4,2,2,50,0,0
37159,-133.333333333333,4,2,2,50,0,0
37431,-55.5555555555556,4,2,2,50,0,0
37705,-133.333333333333,4,2,2,50,0,0
37977,-55.5555555555556,4,2,2,50,0,0
38250,-83.3333333333333,4,2,2,50,0,0
42682,-83.3333333333333,4,2,2,5,0,0
42728,-83.3333333333333,4,2,2,50,0,0
42955,-83.3333333333333,4,2,2,5,0,0
43001,-83.3333333333333,4,2,2,50,0,0
43228,-83.3333333333333,4,2,2,5,0,0
43274,-83.3333333333333,4,2,2,50,0,0
43500,-83.3333333333333,4,2,2,5,0,0
43546,-83.3333333333333,4,2,2,50,0,0
43773,-83.3333333333333,4,2,2,5,0,0
43819,-83.3333333333333,4,2,2,50,0,0
44046,-83.3333333333333,4,2,2,5,0,0
44092,-83.3333333333333,4,2,2,50,0,0
44319,-83.3333333333333,4,2,2,5,0,0
44365,-83.3333333333333,4,2,2,50,0,0
44796,-55.5555555555556,4,2,2,70,0,0
62250,-55.5555555555556,4,2,0,60,0,0
64340,-55.5555555555556,4,2,2,70,0,0
64432,-83.3333333333333,4,2,2,60,0,0
68796,-100,4,2,2,40,0,0
76705,-83.3333333333333,4,2,2,40,0,0
77523,-83.3333333333333,4,2,2,50,0,0
81887,-133.333333333333,4,2,2,50,0,0
82159,-55.5555555555556,4,2,2,50,0,0
82432,-133.333333333333,4,2,2,50,0,0
82704,-55.5555555555556,4,2,2,50,0,0
82977,-133.333333333333,4,2,2,50,0,0
83249,-55.5555555555556,4,2,2,50,0,0
83523,-133.333333333333,4,2,2,50,0,0
83795,-55.5555555555556,4,2,2,50,0,0
84069,-83.3333333333333,4,2,2,50,0,0
88500,-83.3333333333333,4,2,2,5,0,0
88546,-83.3333333333333,4,2,2,50,0,0
88773,-83.3333333333333,4,2,2,5,0,0
88819,-83.3333333333333,4,2,2,50,0,0
89046,-83.3333333333333,4,2,2,5,0,0
89092,-83.3333333333333,4,2,2,50,0,0
89319,-83.3333333333333,4,2,2,5,0,0
89365,-83.3333333333333,4,2,2,50,0,0
90341,-66.6666666666667,4,2,2,50,0,0
90614,-55.5555555555556,4,2,2,70,0,0
108069,-55.5555555555556,4,2,0,60,0,0
110159,-55.5555555555556,4,2,2,70,0,0
110250,-100,4,2,3,40,0,0
139705,-100,4,2,2,55,0,0
139978,-100,4,2,2,60,0,0
140250,-100,4,2,2,65,0,0
140523,-100,4,2,2,70,0,0
146319,-100,4,2,2,5,0,0
146364,-100,4,2,2,70,0,0
150728,-100,4,2,2,5,0,0
150773,-100,4,2,2,70,0,0
153887,-83.3333333333333,4,2,2,60,0,0
156137,-83.3333333333333,4,2,2,5,0,0
156183,-83.3333333333333,4,2,2,50,0,0
156409,-83.3333333333333,4,2,2,5,0,0
156455,-83.3333333333333,4,2,2,50,0,0
156682,-83.3333333333333,4,2,2,5,0,0
156728,-83.3333333333333,4,2,2,50,0,0
156955,-83.3333333333333,4,2,2,5,0,0
157001,-83.3333333333333,4,2,2,50,0,0
157228,-83.3333333333333,4,2,2,5,0,0
157274,-83.3333333333333,4,2,2,50,0,0
157500,-83.3333333333333,4,2,2,5,0,0
157546,-83.3333333333333,4,2,2,50,0,0
157773,-83.3333333333333,4,2,2,5,0,0
157819,-83.3333333333333,4,2,2,50,0,0
157978,-100,4,2,2,50,0,0
158250,-45.4545454545455,4,2,2,50,0,0
158319,-45.4545454545455,4,2,2,5,0,0
158364,-45.4545454545455,4,2,2,50,0,0
158864,-45.4545454545455,4,2,2,5,0,0
158909,-45.4545454545455,4,2,2,50,0,0
159409,-45.4545454545455,4,2,2,5,0,0
159454,-45.4545454545455,4,2,2,50,0,0
159682,-45.4545454545455,4,2,2,5,0,0
159727,-45.4545454545455,4,2,2,50,0,0
159955,-45.4545454545455,4,2,2,5,0,0
160000,-45.4545454545455,4,2,2,50,0,0
160500,-45.4545454545455,4,2,2,5,0,0
160545,-45.4545454545455,4,2,2,50,0,0
161046,-45.4545454545455,4,2,2,5,0,0
161091,-45.4545454545455,4,2,2,50,0,0
161591,-45.4545454545455,4,2,2,5,0,0
161636,-45.4545454545455,4,2,2,50,0,0
161864,-45.4545454545455,4,2,2,5,0,0
161909,-45.4545454545455,4,2,2,50,0,0
162137,-45.4545454545455,4,2,2,5,0,0
162182,-45.4545454545455,4,2,2,50,0,0
162682,-45.4545454545455,4,2,2,5,0,0
162727,-45.4545454545455,4,2,2,50,0,0
163228,-45.4545454545455,4,2,2,5,0,0
163273,-45.4545454545455,4,2,2,50,0,0
163773,-45.4545454545455,4,2,2,5,0,0
163818,-45.4545454545455,4,2,2,50,0,0
164046,-45.4545454545455,4,2,2,5,0,0
164091,-45.4545454545455,4,2,2,50,0,0
164319,-45.4545454545455,4,2,2,5,0,0
164364,-45.4545454545455,4,2,2,50,0,0
164864,-45.4545454545455,4,2,2,5,0,0
164909,-45.4545454545455,4,2,2,50,0,0
165409,-45.4545454545455,4,2,2,5,0,0
165454,-45.4545454545455,4,2,2,50,0,0
165887,-100,4,2,2,70,0,0
166978,-55.5555555555556,4,2,2,70,0,0
175705,-55.5555555555556,4,2,0,60,0,0
176796,-55.5555555555556,4,2,0,70,0,0
177795,-55.5555555555556,4,2,2,70,0,0
177887,-55.5555555555556,4,2,0,60,0,0
179977,-55.5555555555556,4,2,2,50,0,0
180069,-83.3333333333333,4,2,2,60,0,0
188796,-100,4,2,2,50,0,0
191523,-100,4,2,2,5,0,0

[Colours]
Combo1 : 128,0,64
Combo2 : 128,64,0
Combo3 : 255,0,128
Combo4 : 128,0,255

[HitObjects]
53,244,796,5,8,0:0:0:0:
53,244,887,2,0,B|84:228|84:228|112:233|112:233|160:203,1,86.6666666666667,8|8,0:0|0:0,0:0:0:0:
140,213,1159,6,0,B|123:202|123:202|110:234|125:258|158:268,1,103.999996826172,2|0,0:0|0:0,0:0:0:0:
156,268,1432,1,2,0:0:0:0:
275,318,1614,5,0,0:0:0:0:
275,318,1705,2,0,P|329:304|386:333,1,103.999996826172,2|0,0:0|0:0,0:0:0:0:
372,320,1978,2,0,P|342:320|378:286,1,103.999996826172,2|0,0:0|0:0,0:0:0:0:
463,279,2250,6,0,B|471:346|471:346|485:294,1,103.999996826172,2|0,0:0|0:0,0:0:0:0:
463,279,2523,2,0,B|428:270|428:270|405:285|405:285|358:275,1,103.999996826172,2|0,0:0|0:0,0:0:0:0:
366,276,2796,5,2,0:1:0:0:
201,243,3069,1,2,0:1:0:0:
371,282,3341,6,0,B|396:269|396:269|411:248|409:216|380:199,1,103.999996826172,2|0,0:0|0:0,0:0:0:0:
381,199,3614,1,2,0:0:0:0:
508,121,3796,5,0,0:0:0:0:
508,121,3887,2,0,L|391:125,1,103.999996826172,2|0,0:0|0:0,0:0:0:0:
329,107,4159,2,0,B|388:90|351:154|447:131,1,103.999996826172,2|0,0:0|0:0,0:0:0:0:
474,56,4432,6,0,B|449:41|444:16|444:16|444:41|420:61,1,103.999996826172,10|8,0:0|0:0,0:0:0:0:
329,107,4705,2,0,B|304:122|299:147|299:147|299:122|275:102,1,103.999996826172,2|0,0:0|0:0,0:0:0:0:
209,57,4978,5,10,0:1:0:0:
183,42,5069,1,8,0:0:0:0:
149,46,5159,1,8,0:0:0:0:
86,19,5250,5,10,0:3:0:0:
71,29,5341,1,8,0:3:0:0:
66,41,5431,1,8,0:3:0:0:
14,74,5523,6,0,B|12:101|25:120|25:120|52:108|79:117,1,103.999996826172,6|0,0:0|0:0,0:0:0:0:
79,117,5796,1,10,0:0:0:0:
81,242,5978,5,0,0:0:0:0:
81,242,6069,2,0,P|125:248|190:243,1,103.999996826172
184,244,6341,2,0,B|170:224|141:223|141:223|130:251|148:277,1,103.999996826172,10|0,0:0|0:0,0:0:0:0:
237,309,6614,6,0,B|301:299|301:299|262:290|251:273,1,103.999996826172
237,309,6887,2,0,B|317:315|252:352|319:359,1,103.999996826172,10|0,0:0|0:0,0:0:0:0:
317,358,7159,5,2,0:1:0:0:
489,316,7432,1,10,0:1:0:0:
321,363,7705,6,0,P|286:335|341:299,1,103.999996826172,2|0,0:0|0:0,0:0:0:0:
313,293,7978,1,10,0:0:0:0:
171,237,8159,5,0,0:0:0:0:
171,237,8250,2,0,B|133:223|133:223|111:224|111:224|69:206,1,103.999996826172,2|0,0:0|0:0,0:0:0:0:
0,183,8523,2,0,P|32:183|51:250,1,103.999996826172,10|0,0:0|0:0,0:0:0:0:
131,311,8796,6,0,B|161:303|182:318|182:318|199:295|226:295,1,103.999996826172,2|0,0:0|0:0,0:0:0:0:
386,243,9069,2,0,B|356:235|335:250|335:250|318:227|291:227,1,103.999996826172,10|0,0:0|0:0,0:0:0:0:
264,149,9341,5,10,0:1:0:0:
276,118,9432,1,8,0:0:0:0:
290,88,9523,1,8,0:0:0:0:
361,78,9614,5,10,0:3:0:0:
354,63,9705,1,8,0:3:0:0:
348,47,9796,1,8,0:3:0:0:
296,11,9887,6,0,L|185:30,1,103.999996826172,2|0,0:0|0:0,0:0:0:0:
193,28,10159,1,10,0:0:0:0:
147,146,10341,1,0,0:0:0:0:
147,146,10432,2,0,B|137:165|137:165|170:174|195:151|195:120,1,103.999996826172
192,118,10705,2,0,P|184:155|189:234,1,103.999996826172,10|0,0:0|0:0,0:0:0:0:
132,297,10978,6,0,B|138:320|110:361|110:361|120:329|112:313,1,103.999996826172
132,297,11250,2,0,P|185:300|277:298,1,103.999996826172,10|0,0:0|0:0,0:0:0:0:
235,300,11523,5,2,0:1:0:0:
414,244,11796,1,10,0:1:0:0:
239,306,12069,6,0,B|226:333|226:333|277:347|322:299,1,103.999996826172,2|0,0:0|0:0,0:0:0:0:
296,320,12341,1,10,0:0:0:0:
476,282,12523,1,0,0:0:0:0:
476,282,12614,2,0,B|432:242|434:308|376:263,1,103.999996826172,2|0,0:0|0:0,0:0:0:0:
380,267,12887,2,0,B|386:288|386:288|415:276|412:235|388:217,1,103.999996826172,10|0,0:0|0:0,0:0:0:0:
299,166,13159,6,0,P|284:129|319:149,1,103.999996826172,2|0,0:0|0:0,0:0:0:0:
191,216,13432,2,0,P|157:198|199:202,1,103.999996826172,10|0,0:0|0:0,0:0:0:0:
264,321,13705,5,10,0:0:0:0:
224,311,13796,1,8,0:0:0:0:
184,301,13887,1,8,0:0:0:0:
206,298,13978,5,10,0:3:0:0:
196,310,14069,1,8,0:3:0:0:
184,323,14159,1,8,0:3:0:0:
173,337,14250,6,0,L|330:333,1,130,2|0,0:0|0:0,0:0:0:0:
302,333,14796,1,2,0:0:0:0:
313,334,15069,1,2,0:0:0:0:
322,328,15341,1,2,0:0:0:0:
324,317,15614,1,2,0:0:0:0:
318,307,15887,1,2,0:0:0:0:
307,305,16159,1,0,0:0:0:0:
297,311,16432,5,2,0:0:0:0:
298,298,16705,1,0,0:0:0:0:
299,285,16978,1,2,0:0:0:0:
300,272,17250,1,2,0:0:0:0:
311,261,17523,5,2,0:0:0:0:
229,235,17796,1,2,0:0:0:0:
283,346,18069,1,2,0:0:0:0:
201,317,18341,1,2,0:0:0:0:
210,333,18614,5,2,0:0:0:0:
199,334,18887,1,0,0:0:0:0:
190,328,19159,1,2,0:0:0:0:
188,317,19432,1,2,0:0:0:0:
194,307,19705,1,2,0:0:0:0:
205,305,19977,1,2,0:0:0:0:
215,311,20250,1,2,0:0:0:0:
219,323,20523,1,0,0:0:0:0:
213,334,20796,5,2,0:0:0:0:
122,333,21069,1,2,0:0:0:0:
141,343,21341,5,2,0:0:0:0:
96,263,21614,1,2,0:0:0:0:
188,264,21887,5,2,0:0:0:0:
234,185,22160,1,2,0:0:0:0:
257,198,22432,5,2,0:0:0:0:
197,107,22705,1,0,0:0:0:0:
302,51,22978,5,2,0:0:0:0:
313,50,23251,1,0,0:0:0:0:
322,56,23523,1,2,0:0:0:0:
324,67,23796,1,2,0:0:0:0:
318,77,24069,1,2,0:0:0:0:
307,79,24341,1,2,0:0:0:0:
297,73,24614,1,2,0:0:0:0:
294,61,24887,1,2,0:0:0:0:
302,51,25160,5,2,0:0:0:0:
304,63,25432,1,0,0:0:0:0:
305,76,25705,1,2,0:0:0:0:
306,89,25977,1,2,0:0:0:0:
223,140,26250,5,2,0:0:0:0:
307,105,26523,1,2,0:0:0:0:
272,21,26796,1,2,0:0:0:0:
188,56,27069,1,2,0:0:0:0:
210,51,27341,5,2,0:0:0:0:
199,50,27614,1,0,0:0:0:0:
190,56,27886,1,2,0:0:0:0:
188,67,28159,1,0,0:0:0:0:
194,77,28432,1,2,0:0:0:0:
205,79,28704,1,2,0:0:0:0:
215,73,28977,1,2,0:0:0:0:
218,61,29250,1,2,0:0:0:0:
210,51,29523,5,2,0:0:0:0:
163,129,29796,1,2,0:0:0:0:
168,281,30069,1,2,0:0:0:0:
215,203,30342,1,2,0:0:0:0:
114,208,30614,6,0,L|52:210,2,43.3333333333333,8|8|8,0:3|0:3|0:3,0:0:0:0:
27,160,30887,2,0,B|72:192|17:211|79:245,1,103.999996826172,8|0,0:0|0:0,0:0:0:0:
76,243,31159,5,2,0:0:0:0:
295,217,31341,1,8,0:3:0:0:
333,224,31432,1,10,0:3:0:0:
339,243,31523,1,8,0:3:0:0:
330,248,31613,1,8,0:3:0:0:
324,247,31705,6,0,B|321:223|350:195|395:214|386:283|361:324,1,155.999995239258,6|8,0:0|0:0,0:0:0:0:
112,289,32159,1,0,0:0:0:0:
112,289,32250,2,0,B|179:271|154:317|211:302,1,103.999996826172,2|0,0:0|0:0,0:0:0:0:
220,299,32523,2,0,B|237:274|237:274|217:248,2,51.999998413086,8|0|0,0:0|0:0|0:0,0:0:0:0:
286,334,32796,6,0,P|280:257|287:167,1,155.999995239258,2|8,0:0|0:0,0:0:0:0:
444,150,33250,1,0,0:0:0:0:
444,150,33341,2,0,P|415:179|350:176,1,103.999996826172,2|0,0:0|0:0,0:0:0:0:
357,181,33614,2,0,P|384:221|383:237,2,51.999998413086,10|0|0,0:0|0:0|0:0,0:0:0:0:
350,104,33887,5,2,0:0:0:0:
216,157,34159,1,8,0:0:0:0:
325,26,34432,1,0,0:0:0:0:
454,204,34614,1,0,0:0:0:0:
457,207,34705,2,0,P|408:190|336:178,1,103.999996826172,10|0,0:0|0:0,0:0:0:0:
267,312,34978,5,0,0:0:0:0:
398,308,35250,1,10,0:0:0:0:
221,213,35523,1,0,0:0:0:0:
64,347,35705,1,0,0:0:0:0:
64,347,35796,2,0,P|80:298|92:226,1,103.999996826172,10|0,0:0|0:0,0:0:0:0:
221,213,36069,6,0,B|250:237|250:237|221:232,1,65.0000024795533,2|0,0:0|0:0,0:0:0:0:
221,213,36341,2,0,B|283:122|291:250|379:154,1,155.999995239258,12|0,0:0|0:0,0:0:0:0:
392,74,36614,6,0,B|356:87|356:87|375:64,1,65.0000024795533,2|0,0:0|0:0,0:0:0:0:
392,74,36887,2,0,B|439:173|324:116|366:240,1,155.999995239258,12|0,0:0|0:0,0:0:0:0:
426,291,37160,6,0,B|432:253|432:253|442:281,1,65.0000024795533,2|0,0:0|0:0,0:0:0:0:
426,291,37432,2,0,B|316:282|423:211|297:184,1,155.999995239258,12|0,0:0|0:0,0:0:0:0:
221,213,37705,6,0,B|250:237|250:237|221:232,1,65.0000024795533,2|0,0:0|0:0,0:0:0:0:
221,213,37977,2,0,B|283:122|291:250|379:154,1,155.999995239258,12|0,0:0|0:0,0:0:0:0:
392,74,38250,6,0,P|359:43|347:84,1,103.999996826172,2|0,0:0|0:0,0:0:0:0:
392,74,38523,2,0,P|334:66|274:75,1,103.999996826172,14|0,0:1|0:0,0:0:0:0:
242,126,38796,2,0,L|154:101,1,77.999997619629
121,24,39069,1,8,0:0:0:0:
89,191,39205,5,0,0:0:0:0:
89,191,39523,5,0,0:0:0:0:
89,191,39614,2,0,P|110:151|181:127,1,103.999996826172,10|0,0:0|0:0,0:0:0:0:
197,273,39887,2,0,P|234:304|294:311,1,103.999996826172,2|0,0:0|0:0,0:0:0:0:
290,173,40159,2,0,P|326:154|394:153,1,103.999996826172,10|0,0:0|0:0,0:0:0:0:
464,192,40432,5,2,0:0:0:0:
404,381,40705,2,0,P|380:263|392:235,1,155.999995239258,8|0,0:0|0:0,0:0:0:0:
458,104,41159,2,0,P|412:93|348:106,1,103.999996826172,2|0,0:0|0:0,0:0:0:0:
290,173,41432,5,2,0:0:0:0:
290,173,41523,2,0,P|229:166|173:139,1,103.999996826172
99,82,41796,2,0,P|99:150|86:191,1,103.999996826172,8|2,0:0|0:0,0:0:0:0:
75,309,42069,1,0,0:0:0:0:
197,273,42250,5,2,0:0:0:0:
197,273,42341,2,0,L|341:277,1,103.999996826172,8|0,0:0|0:0,0:0:0:0:
427,226,42614,6,0,L|443:173,1,51.999998413086,2|0,0:0|0:0,0:0:0:0:
389,340,42887,2,0,L|373:287,1,51.999998413086,2|0,0:0|0:0,0:0:0:0:
446,210,43159,6,0,L|462:157,1,51.999998413086,2|0,0:0|0:0,0:0:0:0:
366,331,43432,2,0,L|350:278,1,51.999998413086,2|0,0:0|0:0,0:0:0:0:
205,90,43705,6,0,L|189:40,1,51.999998413086,2|0,0:0|0:0,0:0:0:0:
42,223,43978,2,0,L|57:173,1,51.999998413086,2|0,0:0|0:0,0:0:0:0:
207,344,44250,2,0,L|191:294,1,51.999998413086,2|0,0:0|0:0,0:0:0:0:
147,184,44523,1,8,0:3:0:0:
180,198,44614,1,8,0:3:0:0:
194,188,44705,1,8,0:3:0:0:
188,186,44796,6,0,B|157:195|162:231|162:231|233:262|261:178|336:236,1,233.999992858887,6|8,0:0|0:0,0:0:0:0:
399,335,45250,1,0,0:0:0:0:
399,335,45341,2,0,B|357:198|505:261|419:89,1,233.999992858887,2|8,0:0|0:0,0:0:0:0:
338,52,45796,1,0,0:0:0:0:
338,52,45887,2,0,B|426:38|388:91|488:67,1,155.999995239258,2|0,0:0|0:0,0:0:0:0:
491,177,46159,2,0,B|391:153|429:206|340:192,1,155.999995239258,10|2,0:0|0:0,0:0:0:0:
174,52,46432,2,0,B|85:38|123:91|23:67,1,155.999995239258,2|0,0:0|0:0,0:0:0:0:
21,177,46705,2,0,B|121:153|83:206|171:192,1,155.999995239258,8|0,0:0|0:0,0:0:0:0:
171,191,46978,5,2,0:0:0:0:
338,319,47159,5,0,0:0:0:0:
341,322,47250,1,10,0:0:0:0:
172,316,47432,5,0,0:0:0:0:
175,319,47523,1,2,0:0:0:0:
340,192,47705,5,0,0:0:0:0:
340,192,47796,1,10,0:0:0:0:
256,320,47978,5,0,0:0:0:0:
256,320,48069,2,0,P|227:261|138:246,1,155.999995239258,2|0,0:0|0:0,0:0:0:0:
137,248,48341,2,0,B|114:259|112:291|112:291|156:307|199:278|203:233,1,155.999995239258,10|0,0:0|0:0,0:0:0:0:
252,190,48614,2,0,B|230:158|235:114|235:114|216:158|169:177,1,155.999995239258,10|8,0:3|0:3,0:0:0:0:
93,172,48887,2,0,B|78:135|38:118|38:118|75:125|118:100,1,155.999995239258,10|0,0:0|0:0,0:0:0:0:
186,171,49159,6,0,B|257:194|257:194|323:96|323:96|370:99,1,233.999992858887,2|8,0:0|0:0,0:0:0:0:
477,48,49614,1,0,0:0:0:0:
477,48,49705,2,0,B|534:145|378:175|452:283,1,233.999992858887,2|8,0:0|0:0,0:0:0:0:
338,332,50159,1,0,0:0:0:0:
338,332,50250,2,0,B|416:289|403:370|488:317,1,155.999995239258,2|0,0:0|0:0,0:0:0:0:
482,203,50523,2,0,B|404:160|417:241|332:188,1,155.999995239258,10|0,0:0|0:0,0:0:0:0:
174,332,50796,2,0,B|96:289|109:370|26:318,1,155.999995239258,2|0,0:0|0:0,0:0:0:0:
30,203,51069,2,0,B|108:160|95:241|177:189,1,155.999995239258,8|0,0:0|0:0,0:0:0:0:
176,190,51341,5,2,0:0:0:0:
331,59,51522,5,0,0:0:0:0:
334,62,51613,1,10,0:0:0:0:
181,62,51795,5,0,0:0:0:0:
184,65,51886,1,2,0:0:0:0:
334,189,52068,5,2,0:0:0:0:
334,189,52159,1,10,0:0:0:0:
229,283,52341,1,2,0:0:0:0:
229,283,52432,6,0,P|177:243|92:289,1,155.999995239258,2|0,0:0|0:0,0:0:0:0:
99,274,52705,2,0,B|151:292|151:292|181:192,1,155.999995239258,10|0,0:0|0:0,0:0:0:0:
0,78,52978,6,0,P|57:110|129:69,1,155.999995239258,2|0,0:0|0:0,0:0:0:0:
125,65,53251,2,0,B|75:81|75:81|105:181,1,155.999995239258,10|0,0:0|0:0,0:0:0:0:
180,195,53523,6,0,B|241:132|241:132|339:146|339:146|306:188,1,233.999992858887,6|8,0:0|0:0,0:0:0:0:
375,268,53978,1,0,0:0:0:0:
375,268,54069,2,0,P|372:141|450:62,1,233.999992858887,2|8,0:0|0:0,0:0:0:0:
477,153,54523,1,0,0:0:0:0:
477,153,54614,2,0,B|415:157|415:157|379:144|379:144|312:148,1,155.999995239258,2|0,0:0|0:0,0:0:0:0:
188,36,54887,2,0,B|133:40|133:40|97:27|97:27|35:31,1,155.999995239258,10|2,0:0|0:0,0:0:0:0:
35,153,55159,2,0,B|97:157|97:157|133:144|133:144|188:147,1,155.999995239258,2|0,0:0|0:0,0:0:0:0:
323,36,55432,2,0,B|379:40|379:40|415:27|415:27|477:31,1,155.999995239258,8|0,0:0|0:0,0:0:0:0:
423,93,55705,5,2,0:0:0:0:
253,93,55887,5,0,0:0:0:0:
256,96,55978,1,10,0:0:0:0:
86,90,56159,5,0,0:0:0:0:
89,93,56250,1,2,0:0:0:0:
256,96,56432,5,0,0:0:0:0:
256,96,56523,1,10,0:0:0:0:
423,93,56705,5,0,0:0:0:0:
423,93,56796,2,0,P|388:125|429:229,1,155.999995239258,2|0,0:0|0:0,0:0:0:0:
412,220,57069,2,0,B|437:228|461:207|461:207|441:164|390:154|355:183,1,155.999995239258,10|0,0:0|0:0,0:0:0:0:
325,235,57341,2,0,B|306:268|312:310|312:310|287:275|242:266,1,155.999995239258,10|8,0:3|0:3,0:0:0:0:
159,258,57614,2,0,B|159:219|133:186|133:186|172:204|216:189,1,155.999995239258,10|0,0:0|0:0,0:0:0:0:
312,143,57887,6,0,B|249:97|249:97|175:125|175:125|106:75,1,233.999992858887,2|8,0:0|0:0,0:0:0:0:
185,36,58341,1,0,0:0:0:0:
185,36,58432,2,0,P|188:163|110:242,1,233.999992858887,2|8,0:0|0:0,0:0:0:0:
35,231,58887,1,2,0:0:0:0:
35,231,58978,2,0,B|98:242|98:242|136:231|136:231|200:236,1,155.999995239258,2|0,0:0|0:0,0:0:0:0:
325,353,59250,2,0,B|388:342|388:342|426:353|426:353|490:348,1,155.999995239258,10|0,0:0|0:0,0:0:0:0:
478,235,59523,2,0,B|426:231|426:231|388:242|388:242|325:231,1,155.999995239258,2|0,0:0|0:0,0:0:0:0:
188,348,59796,2,0,B|136:353|136:353|98:342|98:342|35:353,1,155.999995239258,8|2,0:0|0:0,0:0:0:0:
89,291,60069,5,0,0:0:0:0:
253,285,60251,5,2,0:0:0:0:
256,288,60342,1,8,0:0:0:0:
420,288,60523,5,2,0:0:0:0:
423,291,60614,1,2,0:0:0:0:
256,288,60796,5,0,0:0:0:0:
256,288,60887,1,10,0:0:0:0:
89,291,61069,5,0,0:0:0:0:
89,291,61159,2,0,P|124:259|83:155,1,155.999995239258,2|0,0:0|0:0,0:0:0:0:
105,43,61432,2,0,P|70:75|111:179,1,155.999995239258,10|0,0:0|0:0,0:0:0:0:
200,133,61705,6,0,B|224:103|224:103|303:108|303:108|324:145,1,155.999995239258,2|0,0:0|0:0,0:0:0:0:
292,265,61977,2,0,B|304:291|304:291|206:287|206:287|218:262,1,155.999995239258,10|0,0:0|0:0,0:0:0:0:
256,192,62250,5,2,1:2:0:0:
256,192,62796,5,2,1:2:0:0:
256,192,63250,5,2,3:2:0:0:
256,192,63341,1,2,1:2:0:0:
256,192,63614,5,2,1:2:0:0:
256,192,63887,5,2,1:2:0:0:
423,291,64159,6,0,P|346:254|263:298,1,155.999995239258,2|0,0:3|0:0,0:0:0:0:
280,283,64432,6,0,B|269:303|269:303|299:311|333:293|336:251,1,103.999996826172,6|0,0:0|0:0,0:0:0:0:
332,267,64705,1,10,0:0:0:0:
402,175,64887,5,0,0:0:0:0:
402,175,64978,2,0,P|348:161|291:190,1,103.999996826172
305,177,65251,2,0,P|335:177|299:143,1,103.999996826172,10|0,0:0|0:0,0:0:0:0:
199,137,65523,6,0,B|191:204|191:204|179:160,1,103.999996826172
199,137,65796,2,0,B|249:142|249:142|304:133,1,103.999996826172,10|0,0:0|0:0,0:0:0:0:
302,133,66069,5,2,0:1:0:0:
149,55,66342,1,10,0:1:0:0:
302,133,66614,6,0,B|315:108|315:108|336:93|368:95|385:124,1,103.999996826172,2|0,0:0|0:0,0:0:0:0:
382,120,66887,1,10,0:0:0:0:
460,219,67069,5,0,0:0:0:0:
460,219,67160,2,0,L|343:215,1,103.999996826172,2|0,0:0|0:0,0:0:0:0:
281,233,67432,2,0,B|340:250|303:186|399:209,1,103.999996826172,10|0,0:0|0:0,0:0:0:0:
359,333,67705,6,0,B|329:373|329:373|302:320,1,103.999996826172,2|0,0:0|0:0,0:0:0:0:
214,282,67978,2,0,B|184:242|184:242|157:291,1,103.999996826172,10|0,0:0|0:0,0:0:0:0:
69,328,68251,5,8,0:0:0:0:
54,302,68342,1,8,0:0:0:0:
58,268,68432,1,8,0:0:0:0:
31,205,68523,5,8,0:3:0:0:
41,190,68614,1,8,0:3:0:0:
53,185,68704,1,8,0:3:0:0:
86,133,68796,6,0,B|167:122|115:175|218:155,1,130,6|2,0:0|0:0,0:0:0:0:
207,156,69341,1,2,0:0:0:0:
206,167,69614,1,10,0:0:0:0:
212,176,69886,1,2,0:0:0:0:
223,178,70159,1,10,0:0:0:0:
233,172,70432,1,2,0:0:0:0:
235,161,70704,1,8,0:0:0:0:
229,151,70977,5,2,0:0:0:0:
216,149,71250,1,8,0:0:0:0:
203,148,71523,1,2,0:0:0:0:
190,147,71795,1,10,0:0:0:0:
173,162,72068,5,2,0:0:0:0:
168,275,72341,1,10,0:0:0:0:
283,282,72614,1,2,0:0:0:0:
290,164,72886,1,10,0:0:0:0:
305,156,73159,5,2,0:1:0:0:
306,167,73432,1,8,0:0:0:0:
300,176,73704,1,2,0:0:0:0:
289,178,73977,1,10,0:0:0:0:
279,172,74250,1,2,0:0:0:0:
277,161,74522,1,10,0:0:0:0:
283,151,74795,1,2,0:0:0:0:
295,148,75068,1,8,0:0:0:0:
305,156,75341,5,2,0:0:0:0:
227,203,75614,1,10,0:0:0:0:
356,333,75887,1,2,0:0:0:0:
309,255,76160,1,10,0:0:0:0:
148,252,76432,6,0,P|137:278|152:295,2,43.3333333333333,10|8|8,0:3|0:3|0:3,0:0:0:0:
74,306,76705,2,0,P|118:290|194:301,1,103.999996826172,10|0,0:0|0:0,0:0:0:0:
174,293,76978,5,2,0:0:0:0:
378,263,77159,1,0,0:0:0:0:
371,225,77250,1,10,0:0:0:0:
352,219,77341,1,0,0:0:0:0:
347,228,77431,1,0,0:0:0:0:
348,234,77523,6,0,B|369:229|381:204|381:204|356:183|304:188|276:226,1,155.999995239258,6|8,0:0|0:0,0:0:0:0:
113,173,77978,1,0,0:0:0:0:
113,173,78069,2,0,P|179:173|225:152,1,103.999996826172,2|0,0:0|0:0,0:0:0:0:
273,69,78341,2,0,P|251:54|221:62,2,51.999998413086,8|0|0,0:0|0:0|0:0,0:0:0:0:
329,13,78614,6,0,P|323:78|330:179,1,155.999995239258,2|8,0:0|0:0,0:0:0:0:
450,243,79069,1,0,0:0:0:0:
450,243,79159,2,0,P|381:234|337:248,1,103.999996826172,2|0,0:0|0:0,0:0:0:0:
348,242,79432,2,0,P|355:266|373:284,2,51.999998413086,10|0|0,0:0|0:0|0:0,0:0:0:0:
279,278,79705,5,2,0:0:0:0:
145,331,79977,1,8,0:0:0:0:
197,167,80250,1,0,0:0:0:0:
10,242,80432,1,0,0:0:0:0:
10,242,80523,2,0,P|59:259|131:271,1,103.999996826172,10|0,0:0|0:0,0:0:0:0:
230,349,80796,5,2,0:0:0:0:
266,183,81068,1,10,0:0:0:0:
406,282,81341,1,2,0:3:0:0:
393,77,81523,1,8,0:3:0:0:
393,77,81614,2,0,P|377:126|365:198,1,103.999996826172,10|0,0:0|0:0,0:0:0:0:
266,183,81887,6,0,B|250:188|242:203|242:203|239:187|223:177,1,65.0000024795533,2|0,0:0|0:0,0:0:0:0:
266,183,82159,2,0,B|257:213|225:229|225:229|186:183|115:192,1,155.999995239258,12|0,0:0|0:0,0:0:0:0:
57,141,82432,6,0,B|69:152|86:151|86:151|73:162|73:181,1,65.0000024795533,2|0,0:0|0:0,0:0:0:0:
57,141,82705,2,0,B|87:133|117:153|117:153|97:210|140:267,1,155.999995239258,12|0,0:0|0:0,0:0:0:0:
125,342,82978,6,0,B|128:325|119:311|119:311|135:316|151:307,1,65.0000024795533,2|0,0:0|0:0,0:0:0:0:
125,342,83250,2,0,B|103:319|105:283|105:283|165:272|192:206,1,155.999995239258,12|0,0:0|0:0,0:0:0:0:
266,183,83523,6,0,B|250:188|242:203|242:203|239:187|223:177,1,65.0000024795533,2|0,0:0|0:0,0:0:0:0:
266,183,83796,2,0,B|257:213|225:229|225:229|186:183|115:192,1,155.999995239258,12|0,0:0|0:0,0:0:0:0:
57,141,84069,6,0,P|72:178|25:160,1,103.999996826172,2|0,0:0|0:1,0:0:0:0:
57,141,84341,2,0,P|61:183|37:245,1,103.999996826172,14|0,0:1|0:0,0:0:0:0:
103,305,84614,2,0,P|154:278|187:286,1,77.999997619629
288,320,84887,1,8,0:0:0:0:
416,320,85023,5,0,0:0:0:0:
416,320,85341,1,0,0:0:0:0:
416,320,85432,2,0,P|406:268|368:234,1,103.999996826172,10|0,0:0|0:0,0:0:0:0:
273,206,85705,2,0,P|261:155|282:87,1,103.999996826172,2|0,0:0|0:0,0:0:0:0:
201,27,85978,2,0,P|129:22|91:40,1,103.999996826172,10|0,0:0|0:0,0:0:0:0:
50,122,86250,5,2,0:0:0:0:
161,280,86523,2,0,P|168:193|141:113,1,155.999995239258,10|0,0:0|0:0,0:0:0:0:
44,287,86978,2,0,P|90:298|154:285,1,103.999996826172,2|0,0:0|0:0,0:0:0:0:
252,253,87251,5,2,0:0:0:0:
252,253,87342,2,0,P|313:260|369:287,1,103.999996826172
396,355,87615,2,0,P|396:287|409:246,1,103.999996826172,8|2,0:0|0:0,0:0:0:0:
464,183,87888,1,0,0:0:0:0:
479,75,88069,5,2,0:0:0:0:
479,75,88160,2,0,P|444:95|417:97,1,51.999998413086,8|0,0:0|0:0,0:0:0:0:
319,126,88341,5,0,0:0:0:0:
319,126,88432,2,0,L|335:73,1,51.999998413086,2|0,0:0|0:0,0:0:0:0:
195,137,88705,2,0,L|157:96,1,51.999998413086,2|0,0:0|0:0,0:0:0:0:
161,257,88978,6,0,L|107:269,1,51.999998413086,2|0,0:0|0:0,0:0:0:0:
196,110,89250,2,0,L|158:69,1,51.999998413086,2|0,0:0|0:0,0:0:0:0:
369,70,89523,6,0,L|353:119,2,51.999998413086,10|8|8,0:3|0:3|0:3,0:0:0:0:
377,69,89796,1,10,0:3:0:0:
385,67,89887,1,8,0:3:0:0:
394,63,89978,1,8,0:3:0:0:
401,55,90069,6,0,L|352:39,2,51.999998413086,10|8|8,0:0|0:3|0:3,0:0:0:0:
444,13,90341,2,0,B|422:96|483:61|461:151,1,130.000004959107,8|8,0:3|0:3,0:0:0:0:
377,207,90614,6,0,B|332:193|301:223|301:223|274:178|212:160|169:191,1,233.999992858887,6|8,0:0|0:0,0:0:0:0:
113,335,91069,1,0,0:0:0:0:
113,335,91160,2,0,B|155:198|7:261|93:89,1,233.999992858887,2|8,0:0|0:0,0:0:0:0:
174,52,91614,1,0,0:0:0:0:
174,52,91705,2,0,B|86:38|124:91|24:67,1,155.999995239258,2|0,0:0|0:0,0:0:0:0:
21,177,91977,2,0,B|121:153|83:206|172:192,1,155.999995239258,10|2,0:0|0:0,0:0:0:0:
338,52,92250,2,0,B|427:38|389:91|489:67,1,155.999995239258,2|0,0:0|0:0,0:0:0:0:
491,177,92523,2,0,B|391:153|429:206|341:192,1,155.999995239258,8|0,0:0|0:0,0:0:0:0:
341,191,92796,5,2,0:0:0:0:
171,322,92977,5,0,0:0:0:0:
171,322,93068,1,10,0:0:0:0:
337,319,93250,5,0,0:0:0:0:
337,319,93341,1,2,0:0:0:0:
172,192,93523,5,0,0:0:0:0:
172,192,93614,1,10,0:0:0:0:
256,320,93796,5,0,0:0:0:0:
256,320,93887,2,0,P|285:261|374:246,1,155.999995239258,2|0,0:0|0:0,0:0:0:0:
375,248,94159,2,0,B|398:259|400:291|400:291|356:307|313:278|309:233,1,155.999995239258,10|0,0:0|0:0,0:0:0:0:
335,170,94432,2,0,B|371:157|371:157|417:168|417:168|495:140,1,155.999995239258,10|8,0:3|0:3,0:0:0:0:
455,79,94705,2,0,B|419:92|419:92|373:81|373:81|294:109,1,155.999995239258,10|2,0:0|0:0,0:0:0:0:
308,181,94978,6,0,B|241:181|224:115|224:115|171:75|106:106,1,233.999992858887,2|8,0:0|0:0,0:0:0:0:
35,48,95432,1,0,0:0:0:0:
35,48,95523,2,0,B|-22:145|133:175|59:283,1,233.999992858887,2|8,0:0|0:0,0:0:0:0:
174,332,95977,1,0,0:0:0:0:
174,332,96068,2,0,B|96:289|109:370|24:317,1,155.999995239258,2|0,0:0|0:0,0:0:0:0:
30,203,96341,2,0,B|108:160|95:241|180:188,1,155.999995239258,10|0,0:0|0:0,0:0:0:0:
338,332,96614,2,0,B|416:289|403:370|486:318,1,155.999995239258,2|0,0:0|0:0,0:0:0:0:
482,203,96887,2,0,B|404:160|417:241|335:189,1,155.999995239258,8|0,0:0|0:0,0:0:0:0:
336,190,97159,5,2,0:0:0:0:
178,62,97340,5,0,0:0:0:0:
178,62,97431,1,10,0:0:0:0:
328,65,97613,5,0,0:0:0:0:
328,65,97704,1,2,0:0:0:0:
178,189,97886,5,0,0:0:0:0:
178,189,97977,1,10,0:0:0:0:
283,283,98159,1,0,0:0:0:0:
283,283,98250,6,0,P|335:243|420:289,1,155.999995239258,2|0,0:0|0:0,0:0:0:0:
413,274,98523,2,0,B|361:292|361:292|331:192,1,155.999995239258,10|0,0:0|0:0,0:0:0:0:
178,189,98796,6,0,P|116:230|48:198,1,155.999995239258,2|0,0:0|0:0,0:0:0:0:
48,198,99069,2,0,B|98:214|98:214|68:314,1,155.999995239258,10|0,0:0|0:0,0:0:0:0:
68,313,99341,6,0,B|1:288|1:288|55:103,1,233.999992858887,6|8,0:0|0:0,0:0:0:0:
137,116,99796,1,0,0:0:0:0:
137,116,99887,2,0,P|140:243|62:322,1,233.999992858887,2|8,0:0|0:0,0:0:0:0:
35,231,100341,1,0,0:0:0:0:
35,231,100432,2,0,B|97:227|97:227|133:240|133:240|200:236,1,155.999995239258,2|2,0:0|0:0,0:0:0:0:
324,348,100705,2,0,B|379:344|379:344|415:357|415:357|477:353,1,155.999995239258,10|2,0:0|0:0,0:0:0:0:
477,231,100977,2,0,B|415:227|415:227|379:240|379:240|324:237,1,155.999995239258,2|0,0:0|0:0,0:0:0:0:
189,348,101250,2,0,B|133:344|133:344|97:357|97:357|35:353,1,155.999995239258,8|0,0:0|0:0,0:0:0:0:
89,291,101523,5,2,0:0:0:0:
256,288,101705,5,0,0:0:0:0:
256,288,101796,1,10,0:0:0:0:
423,291,101977,5,0,0:0:0:0:
423,291,102068,1,2,0:0:0:0:
256,288,102250,5,0,0:0:0:0:
256,288,102341,1,10,0:0:0:0:
89,291,102523,5,0,0:0:0:0:
89,291,102614,2,0,P|124:259|83:155,1,155.999995239258,2|0,0:0|0:0,0:0:0:0:
100,164,102887,2,0,B|75:156|51:177|51:177|71:220|122:230|157:201,1,155.999995239258,10|0,0:0|0:0,0:0:0:0:
207,164,103159,2,0,B|246:164|279:138|279:138|261:177|276:221,1,155.999995239258,10|8,0:3|0:3,0:0:0:0:
199,311,103432,2,0,B|160:311|127:337|127:337|145:298|130:254,1,155.999995239258,10|0,0:0|0:0,0:0:0:0:
200,241,103705,6,0,B|263:287|263:287|337:259|337:259|406:309,1,233.999992858887,2|8,0:0|0:0,0:0:0:0:
327,348,104159,1,0,0:0:0:0:
327,348,104250,2,0,P|324:221|402:142,1,233.999992858887,2|8,0:0|0:0,0:0:0:0:
477,153,104705,1,2,0:0:0:0:
477,153,104796,2,0,B|414:142|414:142|376:153|376:153|312:148,1,155.999995239258,2|0,0:0|0:0,0:0:0:0:
187,31,105068,2,0,B|124:42|124:42|86:31|86:31|22:36,1,155.999995239258,10|0,0:0|0:0,0:0:0:0:
34,149,105341,2,0,B|86:153|86:153|124:142|124:142|187:153,1,155.999995239258,2|0,0:0|0:0,0:0:0:0:
324,36,105614,2,0,B|376:31|376:31|414:42|414:42|477:31,1,155.999995239258,8|2,0:0|0:0,0:0:0:0:
423,93,105887,5,0,0:0:0:0:
256,96,106069,5,2,0:0:0:0:
256,96,106160,1,10,0:0:0:0:
89,93,106341,5,2,0:0:0:0:
89,93,106432,1,2,0:0:0:0:
256,96,106614,5,0,0:0:0:0:
256,96,106705,1,10,0:0:0:0:
423,93,106887,5,0,0:0:0:0:
423,93,106978,2,0,P|388:125|429:229,1,155.999995239258,2|0,0:0|0:0,0:0:0:0:
512,223,107250,2,0,P|480:188|381:229,1,155.999995239258,10|0,0:0|0:0,0:0:0:0:
205,257,107523,6,0,B|172:239|172:239|167:160|167:160|197:136,1,155.999995239258,2|0,0:0|0:0,0:0:0:0:
292,264,107796,2,0,B|304:289|304:289|206:293|206:293|218:267,1,155.999995239258,10|0,0:0|0:0,0:0:0:0:
256,192,108069,5,2,1:2:0:0:
256,192,108614,5,2,1:2:0:0:
256,192,109069,5,2,3:2:0:0:
256,192,109159,1,2,1:2:0:0:
256,192,109432,5,2,1:2:0:0:
256,192,109705,5,2,1:2:0:0:
89,93,109978,6,0,P|166:130|249:86,1,155.999995239258,2|0,0:3|0:0,0:0:0:0:
0,250,114614,6,0,B|93:231,1,86.6666666666667,2|2,0:0|0:0,0:0:0:0:
94,240,114887,2,0,P|117:204|161:202,1,86.6666666666667,8|2,0:0|0:0,0:0:0:0:
217,262,115159,6,0,B|310:243,1,86.6666666666667,2|2,0:0|0:0,0:0:0:0:
311,252,115432,2,0,P|334:216|378:214,1,86.6666666666667,8|2,0:0|0:0,0:0:0:0:
447,269,115705,5,2,0:0:0:0:
497,147,115887,1,2,0:0:0:0:
497,147,115978,2,0,P|455:143|433:107,1,86.6666666666667,8|2,0:0|0:0,0:0:0:0:
447,10,116250,6,0,B|406:0|406:0|354:29,1,86.6666666666667,2|2,0:0|0:0,0:0:0:0:
346,127,116523,2,0,B|387:137|387:137|439:108,1,86.6666666666667,8|2,0:0|0:0,0:0:0:0:
365,33,116796,5,2,0:0:0:0:
274,61,116978,5,2,0:0:0:0:
274,61,117069,2,0,L|184:42,1,86.6666666666667,8|2,0:0|0:0,0:0:0:0:
168,127,117341,5,2,0:0:0:0:
259,155,117523,5,2,0:0:0:0:
259,155,117614,2,0,L|349:136,1,86.6666666666667,8|2,0:0|0:0,0:0:0:0:
367,223,117887,5,2,0:0:0:0:
276,251,118069,5,2,0:0:0:0:
276,251,118160,2,0,L|186:232,1,86.6666666666667,8|2,0:0|0:0,0:0:0:0:
175,320,118432,5,2,0:0:0:0:
266,348,118614,5,2,0:0:0:0:
266,348,118705,2,0,B|309:338|309:338|264:365,1,86.6666666666667,8|2,0:0|0:0,0:0:0:0:
201,384,118978,6,0,B|108:365,1,86.6666666666667,2|2,0:0|0:0,0:0:0:0:
39,379,119251,2,0,P|85:382|109:347,1,86.6666666666667,8|2,0:0|0:0,0:0:0:0:
164,277,119523,6,0,B|71:258,1,86.6666666666667,2|2,0:0|0:0,0:0:0:0:
2,272,119796,2,0,P|48:275|72:240,1,86.6666666666667,8|2,0:0|0:0,0:0:0:0:
122,167,120069,5,2,0:0:0:0:
132,57,120250,1,2,0:0:0:0:
132,57,120341,2,0,P|173:60|195:96,1,86.6666666666667,8|2,0:0|0:0,0:0:0:0:
298,122,120614,6,0,B|308:81|308:81|279:29,1,86.6666666666667,2|2,0:0|0:0,0:0:0:0:
181,21,120887,2,0,B|171:62|171:62|200:114,1,86.6666666666667,8|2,0:0|0:0,0:0:0:0:
240,184,121159,5,2,0:0:0:0:
389,137,121341,5,2,0:0:0:0:
389,137,121432,2,0,L|299:118,1,86.6666666666667,8|2,0:0|0:0,0:0:0:0:
300,243,121705,5,2,0:0:0:0:
151,196,121887,5,2,0:0:0:0:
151,196,121978,2,0,L|241:177,1,86.6666666666667,8|2,0:0|0:0,0:0:0:0:
242,303,122250,5,2,0:0:0:0:
391,256,122432,5,2,0:0:0:0:
391,256,122523,2,0,L|301:237,1,86.6666666666667,8|2,0:0|0:0,0:0:0:0:
302,364,122796,5,2,0:0:0:0:
153,317,122978,5,2,0:0:0:0:
153,317,123069,2,0,B|196:308|196:308|146:295,1,86.6666666666667,8|2,0:0|0:0,0:0:0:0:
76,292,123341,6,0,P|49:262|64:207,1,86.6666666666667,2|2,0:0|0:0,0:0:0:0:
58,205,123614,2,0,L|147:188,1,86.6666666666667,8|2,0:0|0:0,0:0:0:0:
228,208,123887,6,0,P|255:178|240:123,1,86.6666666666667,2|2,0:0|0:0,0:0:0:0:
246,121,124160,2,0,L|157:104,1,86.6666666666667,8|2,0:0|0:0,0:0:0:0:
79,124,124432,5,2,0:0:0:0:
61,37,124614,5,2,0:0:0:0:
61,37,124705,2,0,B|92:8|92:8|150:20,1,86.6666666666667,8|2,0:0|0:0,0:0:0:0:
239,26,124978,6,0,P|227:66|258:119,1,86.6666666666667,2|2,0:0|0:0,0:0:0:0:
350,169,125251,2,0,P|361:127|345:88,1,86.6666666666667,8|2,0:0|0:0,0:0:0:0:
252,28,125523,5,2,0:0:0:0:
355,11,125705,5,2,0:0:0:0:
355,11,125796,2,0,L|337:95,1,86.6666666666667,8|2,0:0|0:0,0:0:0:0:
251,113,126069,5,2,0:0:0:0:
148,96,126251,5,2,0:0:0:0:
148,96,126342,2,0,L|167:186,1,86.6666666666667,8|2,0:0|0:0,0:0:0:0:
250,200,126614,5,2,0:0:0:0:
353,183,126796,5,2,0:0:0:0:
353,183,126887,2,0,L|334:273,1,86.6666666666667,8|2,0:0|0:0,0:0:0:0:
252,293,127159,5,2,0:0:0:0:
141,258,127341,5,2,0:0:0:0:
141,258,127432,2,0,B|181:268|181:268|131:269,1,86.6666666666667,8|2,0:0|0:0,0:0:0:0:
62,239,127705,6,0,P|38:203|56:162,1,86.6666666666667,2|2,0:0|0:0,0:0:0:0:
59,154,127978,2,0,L|42:65,1,86.6666666666667,8|2,0:0|0:0,0:0:0:0:
115,0,128250,6,0,P|140:32|124:79,1,86.6666666666667,2|2,0:0|0:0,0:0:0:0:
123,83,128523,2,0,L|140:172,1,86.6666666666667,8|2,0:0|0:0,0:0:0:0:
70,238,128796,5,2,0:0:0:0:
88,335,128978,5,2,0:0:0:0:
88,335,129069,2,0,B|119:364|119:364|177:352,1,86.6666666666667,8|2,0:0|0:0,0:0:0:0:
240,344,129342,6,0,P|228:304|259:251,1,86.6666666666667,2|2,0:0|0:0,0:0:0:0:
351,201,129615,2,0,P|362:243|346:282,1,86.6666666666667,8|2,0:0|0:0,0:0:0:0:
251,256,129887,5,2,0:0:0:0:
362,376,130069,5,2,0:0:0:0:
362,376,130160,2,0,L|344:292,1,86.6666666666667,8|2,0:0|0:0,0:0:0:0:
266,170,130432,5,2,0:0:0:0:
155,290,130614,5,2,0:0:0:0:
155,290,130705,2,0,L|173:206,1,86.6666666666667,8|2,0:0|0:0,0:0:0:0:
279,82,130978,5,2,0:0:0:0:
390,202,131160,5,2,0:0:0:0:
390,202,131251,2,0,L|372:118,1,86.6666666666667,8|2,0:0|0:0,0:0:0:0:
292,0,131523,5,2,0:0:0:0:
181,120,131705,5,2,0:0:0:0:
181,120,131796,2,0,B|205:155|205:155|214:105,1,86.6666666666667,8|2,0:0|0:0,0:0:0:0:
181,32,132069,6,0,L|115:50,1,65,10|0,0:1|0:0,0:0:0:0:
95,172,132341,2,0,L|156:150,1,65,10|0,0:0|0:0,0:0:0:0:
185,40,132614,6,0,L|119:58,1,65,10|0,0:1|0:0,0:0:0:0:
99,180,132886,2,0,L|160:158,1,65,10|0,0:0|0:0,0:0:0:0:
239,137,133159,5,10,0:1:0:0:
239,137,133432,5,10,0:0:0:0:
239,137,133705,5,10,0:1:0:0:
239,137,133978,2,0,B|283:142|283:142|336:117,1,86.6666666666667,10|0,0:0|0:0,0:0:0:0:
462,179,134250,6,0,P|427:196|399:198,1,65,10|0,0:1|0:0,0:0:0:0:
375,296,134523,2,0,P|342:279|298:278,1,65,10|0,0:0|0:0,0:0:0:0:
463,170,134796,6,0,P|428:187|400:189,1,65,10|0,0:1|0:0,0:0:0:0:
376,287,135069,2,0,P|343:270|299:269,1,65,10|0,0:0|0:0,0:0:0:0:
233,337,135340,5,10,0:1:0:0:
233,337,135613,5,10,0:0:0:0:
233,337,135886,5,10,0:1:0:0:
233,337,136159,2,0,B|182:358|198:312|137:338,1,86.6666666666667,8|0,0:0|0:0,0:0:0:0:
77,285,136432,6,0,L|15:263,1,65,10|0,0:1|0:0,0:0:0:0:
97,190,136705,2,0,L|171:165,1,65,10|0,0:0|0:0,0:0:0:0:
76,274,136978,6,0,L|14:252,1,65,10|0,0:1|0:0,0:0:0:0:
96,179,137251,2,0,L|170:154,1,65,10|0,0:0|0:0,0:0:0:0:
239,137,137522,5,10,0:1:0:0:
239,137,137795,5,10,0:0:0:0:
239,137,138068,5,10,0:1:0:0:
239,137,138341,2,0,B|264:135|283:142|283:142|299:128|336:117,1,86.6666666666667,8|0,0:0|0:0,0:0:0:0:
380,326,138614,6,0,P|415:343|443:345,1,65,10|0,0:1|0:0,0:0:0:0:
413,241,138887,2,0,P|380:224|336:223,1,65,10|0,0:0|0:0,0:0:0:0:
383,316,139159,6,0,P|418:333|446:335,1,65,10|0,0:1|0:0,0:0:0:0:
416,231,139432,2,0,P|383:214|339:213,1,65,10|0,0:0|0:0,0:0:0:0:
239,260,139705,5,10,0:0:0:0:
238,260,139796,2,0,P|258:250|279:255,2,43.3333333333333,8|8|10,0:3|0:3|0:0,0:0:0:0:
159,301,140159,5,0,0:0:0:0:
159,301,140250,1,10,0:0:0:0:
95,231,140432,5,0,0:0:0:0:
95,231,140523,1,10,0:0:0:0:
146,154,140705,5,0,0:0:0:0:
146,154,140796,2,0,P|160:172|159:207,5,43.3333333333333,6|0|0|0|0|0,0:0|0:0|0:0|0:0|0:0|0:0,0:0:0:0:
102,52,141341,5,2,0:0:0:0:
117,45,141432,1,0,0:0:0:0:
134,50,141523,1,0,0:0:0:0:
144,70,141614,1,0,0:0:0:0:
168,78,141705,1,0,0:0:0:0:
191,71,141796,1,0,0:0:0:0:
204,56,141887,2,0,P|232:51|264:58,5,43.3333333333333,2|0|0|0|0|0,0:0|0:0|0:0|0:0|0:0|0:0,0:0:0:0:
304,180,142432,5,2,0:0:0:0:
287,169,142523,1,0,0:0:0:0:
269,171,142614,1,0,0:0:0:0:
256,182,142705,1,0,0:0:0:0:
232,154,142796,1,0,0:0:0:0:
185,160,142887,1,0,0:0:0:0:
168,193,142978,5,2,0:1:0:0:
348,116,143159,1,0,0:0:0:0:
348,116,143250,2,0,P|299:122|258:131,1,86.6666666666667,8|0,0:0|0:0,0:0:0:0:
134,192,143523,5,2,0:0:0:0:
299,278,143705,1,0,0:0:0:0:
299,278,143796,2,0,P|254:266|209:255,1,86.6666666666667,10|2,0:0|0:1,0:0:0:0:
109,192,144069,5,0,0:0:0:0:
244,109,144250,1,0,0:0:0:0:
244,109,144341,2,0,P|199:121|154:132,1,86.6666666666667,8|0,0:0|0:0,0:0:0:0:
82,192,144614,5,2,0:0:0:0:
238,269,144796,1,0,0:0:0:0:
238,269,144887,2,0,P|193:257|148:246,1,86.6666666666667,10|0,0:0|0:0,0:0:0:0:
146,58,145159,6,0,P|185:79|215:110,1,86.6666666666667,10|8,0:3|0:3,0:0:0:0:
285,69,145432,2,0,P|306:123|308:171,1,86.6666666666667,10|0,0:0|0:0,0:0:0:0:
379,267,145705,2,0,P|377:222|389:181,1,86.6666666666667,2|0,0:0|0:0,0:0:0:0:
432,114,145978,2,0,P|455:135|466:159,1,43.3333333333333,10|0,0:0|0:0,0:0:0:0:
497,219,146159,6,0,B|482:255|449:259|449:259|369:254,1,130,2|0,0:1|0:0,0:0:0:0:
303,279,146523,2,0,P|267:255|209:259,1,86.6666666666667,10|0,0:0|0:0,0:0:0:0:
201,335,146796,2,0,B|160:349|160:349|103:333,1,86.6666666666667,2|0,0:0|0:0,0:0:0:0:
21,255,147069,2,0,P|59:269|119:257,1,86.6666666666667,10|0,0:0|0:0,0:0:0:0:
222,260,147341,5,2,0:0:0:0:
88,165,147522,1,0,0:0:0:0:
88,165,147614,2,0,P|125:134|177:118,1,86.6666666666667,8|0,0:0|0:0,0:0:0:0:
281,143,147886,5,2,0:0:0:0:
222,260,148068,1,0,0:0:0:0:
222,260,148159,2,0,P|259:284|313:286,1,86.6666666666667,8|0,0:0|0:0,0:0:0:0:
407,250,148432,5,2,0:0:0:0:
280,140,148613,1,0,0:0:0:0:
280,140,148705,2,0,P|321:125|368:127,1,86.6666666666667,8|0,0:0|0:0,0:0:0:0:
447,156,148977,5,2,0:0:0:0:
407,250,149159,1,0,0:0:0:0:
407,250,149250,2,0,B|433:258|460:247|460:247|440:262|436:279,1,86.6666666666667,8|0,0:0|0:0,0:0:0:0:
375,341,149523,6,0,P|324:342|238:342,1,130,2|8,0:0|0:0,0:0:0:0:
255,231,149978,5,0,0:0:0:0:
255,231,150069,2,0,P|188:232|118:232,1,130,2|8,0:0|0:0,0:0:0:0:
126,113,150478,6,0,B|154:85|155:43|155:43|176:82|214:91,1,151.666666666667
195,99,150887,2,0,B|174:94|162:72|162:72|162:95|146:111,1,86.6666666666667,10|0,0:0|0:0,0:0:0:0:
190,261,151159,2,0,B|210:266|222:288|222:288|222:265|238:249,1,86.6666666666667,2|0,0:0|0:0,0:0:0:0:
234,167,151432,2,0,L|135:196,1,86.6666666666667,10|0,0:0|0:0,0:0:0:0:
68,196,151705,5,2,0:0:0:0:
99,338,151887,1,0,0:0:0:0:
99,338,151978,2,0,P|101:287|129:243,1,86.6666666666667,8|0,0:0|0:0,0:0:0:0:
172,102,152250,5,2,0:0:0:0:
68,196,152432,1,0,0:0:0:0:
68,196,152523,2,0,P|113:172|165:174,1,86.6666666666667,8|0,0:0|0:0,0:0:0:0:
301,132,152796,5,2,0:0:0:0:
172,102,152978,1,0,0:0:0:0:
172,102,153069,2,0,P|215:129|239:175,1,86.6666666666667,8|0,0:0|0:0,0:0:0:0:
330,268,153341,5,2,0:0:0:0:
301,132,153523,1,0,0:0:0:0:
301,132,153614,2,0,P|299:183|271:227,1,86.6666666666667,8|0,0:0|0:0,0:0:0:0:
200,231,153887,5,2,0:0:0:0:
402,226,154160,2,0,P|378:108|390:80,1,155.999995239258,10|0,0:0|0:0,0:0:0:0:
512,214,154614,2,0,P|466:203|402:216,1,103.999996826172,2|0,0:0|0:0,0:0:0:0:
356,292,154887,5,2,0:0:0:0:
356,292,154978,2,0,P|295:285|239:258,1,103.999996826172
157,317,155251,2,0,P|157:249|170:208,1,103.999996826172,10|2,0:0|0:0,0:0:0:0:
79,129,155524,1,0,0:0:0:0:
48,326,155705,5,2,0:0:0:0:
48,326,155796,2,0,L|192:330,1,103.999996826172,8|0,0:0|0:0,0:0:0:0:
274,357,156069,6,0,L|325:313,1,51.999998413086,2|0,0:0|0:0,0:0:0:0:
399,251,156341,2,0,L|359:187,1,51.999998413086,2|0,0:0|0:0,0:0:0:0:
247,270,156614,6,0,L|298:226,1,51.999998413086,2|0,0:0|0:0,0:0:0:0:
452,172,156887,2,0,L|412:108,1,51.999998413086,2|0,0:0|0:0,0:0:0:0:
223,179,157159,6,0,L|274:135,1,51.999998413086,10|0,0:0|0:0,0:0:0:0:
505,87,157432,2,0,L|465:120,1,51.999998413086,10|0,0:0|0:0,0:0:0:0:
194,88,157705,2,0,L|245:44,1,51.999998413086,10|0,0:0|0:0,0:0:0:0:
306,150,157978,1,8,0:3:0:0:
306,184,158069,1,8,0:3:0:0:
328,193,158159,1,8,0:3:0:0:
339,185,158250,6,0,P|305:182|242:198,1,95.3333362426759,6|0,0:0|0:0,0:0:0:0:
358,280,158796,2,0,P|310:274|265:288,1,95.3333362426759,6|0,0:0|0:0,0:0:0:0:
267,294,159250,5,0,0:0:0:0:
267,294,159341,2,0,P|194:294|144:261,1,95.3333362426759,6|0,0:0|0:0,0:0:0:0:
59,223,159614,2,0,P|132:223|182:190,1,95.3333362426759,6|0,0:0|0:0,0:0:0:0:
289,148,159887,2,0,P|216:148|166:115,1,95.3333362426759,6|0,0:0|0:0,0:0:0:0:
196,146,160432,6,0,P|241:159|288:154,1,95.3333362426759,6|0,0:0|0:0,0:0:0:0:
429,237,160978,2,0,P|383:233|336:245,1,95.3333362426759,6|0,0:0|0:0,0:0:0:0:
346,330,161432,5,0,0:0:0:0:
346,330,161523,2,0,P|393:335|438:321,1,95.3333362426759,6|0,0:0|0:0,0:0:0:0:
323,250,161796,2,0,P|275:255|230:241,1,95.3333362426759,6|0,0:0|0:0,0:0:0:0:
80,301,162069,2,0,P|127:306|172:292,1,95.3333362426759,6|0,0:0|0:0,0:0:0:0:
79,310,162614,6,0,P|126:315|171:301,1,95.3333362426759,6|0,0:0|0:0,0:0:0:0:
346,330,163159,2,0,P|393:335|438:321,1,95.3333362426759,6|0,0:0|0:0,0:0:0:0:
428,204,163614,5,2,0:0:0:0:
428,204,163705,2,0,P|380:198|335:212,1,95.3333362426759,6|0,0:0|0:0,0:0:0:0:
344,100,163978,2,0,P|296:105|251:91,1,95.3333362426759,6|0,0:0|0:0,0:0:0:0:
137,185,164250,2,0,P|184:179|229:193,1,95.3333362426759,6|0,0:0|0:0,0:0:0:0:
139,178,164796,6,0,P|186:172|231:186,1,95.3333362426759,6|0,0:0|0:0,0:0:0:0:
430,232,165341,2,0,P|382:237|337:223,1,95.3333362426759,6|0,0:0|0:0,0:0:0:0:
352,97,165796,5,2,0:0:0:0:
352,97,165887,2,0,L|360:147,2,43.3333333333333,2|0|0,0:0|0:0|0:0,0:0:0:0:
280,152,166159,2,0,L|272:202,2,43.3333333333333,10|0|0,0:0|0:0|0:0,0:0:0:0:
192,96,166432,2,0,L|200:146,2,43.3333333333333,2|0|0,0:0|0:0|0:0,0:0:0:0:
120,151,166705,2,0,L|112:201,2,43.3333333333333,10|0|0,0:0|0:0|0:0,0:0:0:0:
44,216,166978,6,0,P|100:213|222:329,1,233.999992858887,6|8,0:0|0:0,0:0:0:0:
113,335,167432,1,0,0:0:0:0:
113,335,167523,2,0,B|71:198|219:261|133:89,1,233.999992858887,2|8,0:0|0:0,0:0:0:0:
174,52,167978,1,0,0:0:0:0:
174,52,168069,2,0,B|86:38|124:91|24:67,1,155.999995239258,2|0,0:0|0:0,0:0:0:0:
21,177,168341,2,0,B|121:153|83:206|172:192,1,155.999995239258,10|2,0:0|0:0,0:0:0:0:
341,192,168614,2,0,B|429:178|391:231|491:207,1,155.999995239258,2|0,0:0|0:0,0:0:0:0:
489,317,168887,2,0,B|389:293|427:346|338:332,1,155.999995239258,8|0,0:0|0:0,0:0:0:0:
365,262,169159,5,2,0:0:0:0:
256,192,169341,5,0,0:0:0:0:
256,192,169432,1,10,0:0:0:0:
147,122,169614,5,0,0:0:0:0:
147,122,169705,1,2,0:0:0:0:
256,192,169886,5,0,0:0:0:0:
256,192,169977,1,10,0:0:0:0:
365,262,170159,5,0,0:0:0:0:
365,262,170250,2,0,P|360:196|430:138,1,155.999995239258,2|0,0:0|0:0,0:0:0:0:
432,140,170523,2,0,B|457:138|475:164|475:164|445:200|393:196|367:160,1,155.999995239258,10|2,0:0|0:0,0:0:0:0:
303,142,170796,2,0,B|263:141|231:115|231:115|254:149|250:189,1,155.999995239258,10|8,0:3|0:3,0:0:0:0:
282,264,171069,2,0,B|238:284|202:257|202:257|156:258|134:290,1,155.999995239258,10|0,0:0|0:0,0:0:0:0:
54,359,171341,6,0,B|27:303|63:257|63:257|91:182|28:134,1,233.999992858887,2|8,0:0|0:0,0:0:0:0:
242,183,171796,1,0,0:0:0:0:
242,183,171887,2,0,B|273:183|294:149|294:149|196:113|137:203,1,233.999992858887,2|8,0:0|0:0,0:0:0:0:
35,231,172341,1,2,0:0:0:0:
35,231,172432,2,0,B|97:227|97:227|133:240|133:240|200:236,1,155.999995239258,2|0,0:0|0:0,0:0:0:0:
324,147,172705,2,0,B|379:144|379:144|415:157|415:157|477:153,1,155.999995239258,10|0,0:0|0:0,0:0:0:0:
477,231,172978,2,0,B|415:227|415:227|379:240|379:240|323:236,1,155.999995239258,2|0,0:0|0:0,0:0:0:0:
188,147,173250,2,0,B|133:144|133:144|97:157|97:157|35:153,1,155.999995239258,8|2,0:0|0:0,0:0:0:0:
34,152,173523,5,0,0:0:0:0:
188,236,173705,5,2,0:0:0:0:
188,236,173796,1,10,0:0:0:0:
324,147,173978,5,2,0:0:0:0:
324,147,174069,1,2,0:0:0:0:
477,231,174250,5,0,0:0:0:0:
477,231,174341,1,10,0:0:0:0:
374,311,174523,5,0,0:0:0:0:
374,311,174614,2,0,P|339:279|380:175,1,155.999995239258,2|0,0:0|0:0,0:0:0:0:
477,231,174887,2,0,P|445:196|341:237,1,155.999995239258,10|0,0:0|0:0,0:0:0:0:
197,248,175159,6,0,B|167:224|167:224|172:145|172:145|209:124,1,155.999995239258,2|0,0:0|0:0,0:0:0:0:
293,119,175432,2,0,B|305:93|305:93|207:89|207:89|220:115,1,155.999995239258,10|0,0:0|0:0,0:0:0:0:
256,192,175705,5,2,1:2:0:0:
256,192,176250,5,2,1:2:0:0:
256,192,176705,5,0,0:0:0:0:
256,192,176796,1,2,1:2:0:0:
256,192,177069,5,2,1:2:0:0:
256,192,177341,5,2,1:2:0:0:
89,291,177614,6,0,P|166:254|249:298,1,155.999995239258,2|0,0:3|0:0,0:0:0:0:
256,192,177887,5,2,1:2:0:0:
256,192,178432,5,2,1:2:0:0:
256,192,178887,5,2,0:0:0:0:
256,192,178978,1,2,1:2:0:0:
256,192,179251,5,2,1:2:0:0:
256,192,179523,5,2,1:2:0:0:
355,359,179796,6,0,P|318:282|362:199,1,155.999995239258,2|0,0:3|0:0,0:0:0:0:
372,143,180069,6,0,B|389:154|389:154|402:122|387:98|354:88,1,103.999996826172,6|0,0:0|0:0,0:0:0:0:
356,88,180342,1,10,0:0:0:0:
237,66,180524,5,0,0:0:0:0:
237,66,180615,2,0,P|183:80|126:51,1,103.999996826172
140,64,180888,2,0,P|170:64|134:98,1,103.999996826172,10|0,0:0|0:0,0:0:0:0:
49,105,181160,6,0,B|41:38|41:38|69:96,1,103.999996826172
49,105,181433,2,0,B|84:114|84:114|107:99|107:99|154:109,1,103.999996826172,10|0,0:0|0:0,0:0:0:0:
146,108,181706,5,2,0:1:0:0:
313,67,181979,1,10,0:1:0:0:
141,102,182251,6,0,B|116:115|116:115|101:136|103:168|132:185,1,103.999996826172,2|0,0:0|0:0,0:0:0:0:
128,182,182524,1,10,0:0:0:0:
4,263,182706,5,0,0:0:0:0:
4,263,182797,2,0,L|121:259,1,103.999996826172,2|0,0:0|0:0,0:0:0:0:
183,277,183069,2,0,B|124:294|161:230|65:253,1,103.999996826172,10|0,0:0|0:0,0:0:0:0:
38,328,183342,6,0,B|63:343|68:368|68:368|68:343|92:323,1,103.999996826172,2|0,0:0|0:0,0:0:0:0:
183,277,183615,2,0,B|208:262|213:237|213:237|213:262|237:282,1,103.999996826172,8|0,0:0|0:0,0:0:0:0:
309,363,183887,6,0,P|270:359|192:374,1,103.999996826172,2|0,0:1|0:0,0:0:0:0:
70,370,184160,1,10,0:1:0:0:
381,303,184432,6,0,B|408:294|435:306|435:306|448:287|446:260,1,103.999996826172,2|0,0:0|0:0,0:0:0:0:
446,259,184706,1,10,0:0:0:0:
431,142,184888,5,0,0:0:0:0:
431,142,184979,2,0,P|387:136|322:141,1,103.999996826172
328,140,185251,2,0,B|342:160|371:161|371:161|382:133|364:107,1,103.999996826172,10|0,0:0|0:0,0:0:0:0:
275,75,185524,6,0,B|211:85|211:85|250:94|261:111,1,103.999996826172
275,75,185797,2,0,B|195:69|260:32|193:25,1,103.999996826172,10|0,0:0|0:0,0:0:0:0:
195,26,186069,5,2,0:1:0:0:
366,9,186342,1,10,0:1:0:0:
191,21,186615,6,0,P|165:52|201:95,1,103.999996826172,2|0,0:0|0:0,0:0:0:0:
196,91,186888,1,10,0:0:0:0:
345,203,187069,5,0,0:0:0:0:
345,203,187160,2,0,B|383:189|383:189|405:190|405:190|447:172,1,103.999996826172,2|0,0:0|0:0,0:0:0:0:
512,201,187433,2,0,P|480:201|461:134,1,103.999996826172,10|0,0:0|0:0,0:0:0:0:
381,73,187706,6,0,B|351:81|330:66|330:66|313:89|286:89,1,103.999996826172,2|0,0:0|0:0,0:0:0:0:
221,157,187979,2,0,B|194:157|177:134|177:134|156:149|126:141,1,103.999996826172,10|0,0:0|0:0,0:0:0:0:
81,219,188250,5,8,0:0:0:0:
93,250,188342,1,8,0:0:0:0:
107,280,188433,1,8,0:0:0:0:
178,290,188524,5,10,0:1:0:0:
171,305,188615,1,8,0:3:0:0:
165,321,188706,1,8,0:3:0:0:
114,358,188796,6,0,L|211:342,1,86.6666666666667,2|0,0:0|0:0,0:0:0:0:
258,271,189069,6,0,L|355:255,1,86.6666666666667,0|2,0:0|0:0,0:0:0:0:
402,184,189341,6,0,L|499:168,1,86.6666666666667,0|2,0:0|0:0,0:0:0:0:
453,84,189614,6,0,L|367:98,1,86.6666666666667,0|2,0:0|0:0,0:0:0:0:
309,171,189887,6,0,L|223:185,1,86.6666666666667,0|2,0:0|0:0,0:0:0:0:
165,258,190159,6,0,L|79:272,1,86.6666666666667,0|2,0:0|0:0,0:0:0:0:
19,212,190432,2,0,B|29:197|29:197|25:177|25:177|33:119,1,86.6666666666667,8|0,0:3|0:0,0:0:0:0:
99,55,190705,2,0,B|110:50|110:50|117:57|139:62,1,43.3333333333333,2|0,0:0|0:0,0:0:0:0:
149,177,190887,5,4,0:0:0:0:
256,192,190978,12,0,191523,0:0:0:0:
